Welcome Guest ( Log In | Register )

Объявления

* gmail.com упорно продолжает считать почту с нас "unsolicited" и отбивает в том числе и письма активации, поэтому просьба использовать альтернативные почтовые ящики.
------------
* gmail.com continues reject all mail from us as "unsolicited" (activation mails too) therefore please use alternate mail servers.
История благодарностей участнику nnnmmm ::: Спасибо сказали: 4156 раз(а)
Дата поста: В теме: За сообщение: Спасибо сказали:
May 20 2024, 21:19:19 Agalloch - Pale Folklore (1999)
Uploaded the VBR rip of the 2CD deluxe 2023 edition. The second CD contains previously released material except the bonus song Ashes in the Snow, which is a 4-track demo recorded by Haughm and later reworked for The Mantle. If anyone has a better rip, please share.
Register

(2) Ambercandle, Wail,
May 15 2024, 16:58:41 Slayer - Shit You've Never Heard [compilation] (2003)
QUOTE(Grummegargler @ May 15 2024, 16:42:25) *
Перезалейте пожалуйста!

Available here Slayer - Soundtrack To The Apocalypse [compilation] (2003) as the 3rd CD.
(1) Grummegargler,
May 15 2024, 16:55:26 Slayer - The Repentless Killogy - Live At The Forum In Inglewood, Ca [live] (2019)
QUOTE(Grummegargler @ May 15 2024, 16:49:15) *
Перезалейте плиз

Link for Mp3 in topic post has been updated.
(4) Genuine Thrashiac, Grummegargler, Occultas, thenecromancer,
May 15 2024, 14:31:05 Clouds - Doliu (2014)
Uploaded the Brazilian edition with the bonus track, Mp3 CBR 320.
Register
(1) stumpheavyrock,
May 10 2024, 15:41:25 Bossk - .4 [compilation] (2024)


*Artist: Bossk
*Album: .4 [compilation]
*Year: 2024
*Genre: Post Metal
*Country: United Kingdom
*Format: flac
*Size: 391MB

Tracklist:
01. Kobe x Pijn 06:26
02. Truth II 07:57
03. Albert 02:50
04. Events Occur In Real Time 12:27
05. White Stork x Endon 06:10
06. I (Reuben Gotto 2006 remix) 06:23
07. The Reverie x Maybeshewill 04:29
08. The Reverie II x Crown Lands 09:30
09. 181 To Beulah 08:52
******************************
Total playing time: 1:05:04

[more=Extended info][/more]

[more=Technical info]
Input File: 03 - Albert.flac
Channels : 2
Sample Rate : 44100
Precision : 16-bit
Duration : 00:02:50.85 = 7534632 samples = 12814 CDDA sectors
File Size : 18.9M
Bit Rate : 887k
Sample Encoding: 16-bit FLAC
Comments :
ALBUM=.4
ARTIST=Bossk
ARTISTS=Bossk
BARCODE=791689665511
COMPOSER=Tom Begley
COPYRIGHT=(C) 2024 Deathwish Inc.
DATE=2024-05-10
DISCNUMBER=01
GENRE=Metal
ISRC=QZ22D2400029
ITUNESADVISORY=0
LENGTH=170000
PUBLISHER=Deathwish Inc.
TITLE=Albert
TRACKNUMBER=03
TRACKTOTAL=9

[/more]

Register
(5) aleon, Dante_D, Grev, nikolay81, Wail,
May 10 2024, 14:48:49 Vicious Crusade - Forbidden Tunes (2002)
QUOTE(Grummegargler @ May 10 2024, 15:42:22) *
Перезалейте пожалуйста

My link above is now live again.
(2) Grummegargler, kimkayoung,
May 7 2024, 21:32:12 The Sisters Of Mercy - Floodland (1987)
QUOTE(YG1 @ May 7 2024, 21:36:46) *
Перезалейте, пожалуйста, альбом в 320kbps

QUOTE(YG1 @ May 7 2024, 22:26:02) *
Remaster


Register
(2) canadaspaceman, Mihalik,
May 6 2024, 17:46:06 Kamaedzitca - Пяруне (2008)
QUOTE(Grummegargler @ May 6 2024, 16:40:10) *
Перезалейте плиз


Reuploaded the 2010 reissue, Mp3 CBR 320
Register
(2) DMIYUR, Grummegargler,
May 4 2024, 20:03:08 Aquilus - Griseus (2011)
Uploaded the 2021 special edition, Mp3 CBR 320.

Register


Bonus 2nd CD includes fully instrumental version of the album with guitars, drums, and orchestra. A new mix with a handful of extra arrangements that were cut from the final album.
(4) Infidel, kimkayoung, kolar666, Nadja,
May 4 2024, 19:58:27 Aquilus - Bellum II (2024)


*Artist: Aquilus
*Album: Bellum II
*Year: 2024
*Genre: Atmospheric Folk/Neoclassical Black Metal
*Country: Australia
*Format: flac
*Size: 640MB

Tracklist:
01. By Tallow Noth 02:34
02. Into The Earth 06:29
03. A Solitary Demise 02:25
04. Nigh To Her Gloam 16:51
05. Sombre Loom 05:33
06. My Frost-Laden Vale 17:18
07. Amidst Soughing Tristesse 03:39
08. The Pillared Dark 03:49
******************************
Total playing time: 58:38

[more=Extended info][/more]

[more=Technical info]
Input File: Aquilus - Bellum II - 01 By Tallow Noth.flac
Channels : 2
Sample Rate : 44100
Precision : 24-bit
Duration : 00:02:34.96 = 6833736 samples = 11622 CDDA sectors
File Size : 29.1M
Bit Rate : 1.50M
Sample Encoding: 24-bit FLAC
Comments :
TITLE=By Tallow Noth
ARTIST=Aquilus
DATE=2024
COMMENT=Visit https://aquilus-northernsilence.bandcamp.com
ALBUM=Bellum II
TRACKNUMBER=1
ALBUMARTIST=Aquilus

[/more]

Register
(31) aleon, AlexSmith, atilagb, brunodiaz, dcatagua, dk201x, dulak, forfolja, Grev, Ignativs, infernallord, Infidel, isvili, kazulapka, kimkayoung, kolar666, madera, MAYH, metaljosue, Moonlover, Mortiferus, nemx, SatanicPanzer, Spunkynut, tom777, unas.slayer.of.gods, VLADISLAV_V_K, Wotanwatch, Yorker, yuratroll, zhol,
Apr 21 2024, 18:44:42 Iron Maiden - Rock In Rio [live] (2001)
QUOTE(6black6magic6 @ Aug 21 2023, 11:55:29) *
Please re-up !


Updated the link above.
(2) rebornflms95, Wail,
Apr 21 2024, 18:43:33 Iron Maiden - En Vivo! [live] (2012)
Reuploaded
Register
(2) rebornflms95, Wail,
Feb 24 2024, 09:13:14 Guiltless - Thorns [ep] (2024)


*Artist: Guiltless
*Album: Thorns [ep]
*Year: 2024
*Genre: Post Metal/Post-Hardcore/Noise/Sludge
*Country: United States
*Format: mp3@CBR320kbps
*Size: 56MB

Tracklist:
01. Devour / Collide 06:23
02. All We Destroy 05:34
03. Dead Eye 05:35
04. In Radiant Glow 06:25
******************************
Total playing time: 23:57

[more=Extended info][/more]

[more=Technical info]
Input File: 02-guiltless-all_we_destroy.mp3
Channels : 2
Sample Rate : 44100
Precision : 16-bit
Duration : 00:05:34.57 = 14754581 samples = 25092.8 CDDA sectors
File Size : 13.7M
Bit Rate : 326k
Sample Encoding: MPEG audio (layer I, II or III)
Comments :
Title=All We Destroy
Artist=Guiltless
Album=Thorns
Tracknumber=2/4
Year=2024
Genre=Metal

[/more]

Register
(4) gena, metaljosue, sludge666, ZamanFu,
Jan 25 2024, 18:46:53 Matt Cameron - Gory Scorch Cretins [ep] (2023)


*Artist: Matt Cameron
*Album: Gory Scorch Cretins [ep]
*Year: 2023
*Genre: Grunge
*Country: United States
*Format: flac
*Size: 184MB

Tracklist:
01. Our Time 03:18
02. Right Thing to Do 03:14
03. Down The Middle 02:57
04. Better Life 02:58
05. Top To The Bottom 02:53
******************************
Total playing time: 15:20

[more=Extended info]https://www.discogs.com/release/29002357-Matt-Cameron-Gory-Scorch-Cretins[/more]

[more=Technical info]
Input File: 01 Our Time.flac
Channels : 2
Sample Rate : 44100
Precision : 24-bit
Duration : 00:03:17.17 = 8695394 samples = 14788.1 CDDA sectors
File Size : 41.0M
Bit Rate : 1.67M
Sample Encoding: 24-bit FLAC
Comments :
ALBUM=Gory Scorch Cretins
ALBUMARTIST=Melvins
ARTIST=Matt Cameron
COMMENT=Not a particularly good stylus or phono amp, but ripped from a sealed vinyl record with a decent wash/wipe. Recorded at 16/44khz. Had to clean up some pops and clicks in the intros and fadeouts. Basic pop rock EQ and limiter.
DATE=2023
DESCRIPTION=Not a particularly good stylus or phono amp, but ripped from a sealed vinyl record with a decent wash/wipe. Recorded at 16/44khz. Had to clean up some pops and clicks in the intros and fadeouts. Basic pop rock EQ and limiter.
ENCODER=xACT 2.54
GENRE=Rock
TITLE=Our Time
TRACKNUMBER=1
TRACKTOTAL=5

[/more]

Register
(4) AndreFrancis, Bruce, snot, Wail,
Jan 25 2024, 18:18:59 Vipassi - Lightless (2024)


*Artist: Vipassi
*Album: Lightless
*Year: 2024
*Genre: Instrumental/Technical/Progressive Death Metal
*Country: Australia
*Format: mp3@CBR320kbps
*Size: 115MB

Tracklist:
01. Lightless 05:07
02. Labyrinthine Hex 07:10
03. Morningstar 06:57
04. Shapshu 04:22
05. Phainesthai 05:50
06. Ruination Glow 06:04
07. Neon Rain 03:59
08. Promethea 10:34
******************************
Total playing time: 50:03

[more=Extended info][/more]

[more=Technical info]
Input File: 03 - Morningstar.mp3
Channels : 2
Sample Rate : 44100
Precision : 16-bit
Duration : 00:06:57.20 = 18398564 samples = 31290.1 CDDA sectors
File Size : 16.7M
Bit Rate : 321k
Sample Encoding: MPEG audio (layer I, II or III)
Comments :
Title=Morningstar
Artist=Vipassi
Album=Lightless
Tracknumber=3
Year=2024-24-20
Genre=Dissonant Black Metal

[/more]

Register
(17) artscald, as71, cesar, chipsgott, csgmnk, Dante_D, garml2, metala, mirotvorets, MMMMM, OmegaBlade696, Slam91, wreak, yuratroll, ZamanFu, Zer0, скептик,
Jan 1 2024, 21:51:32 Apocalyptica - Fields Of Verdun [single] (2019)
QUOTE(kastrup @ Jan 1 2024, 19:41:56) *
Re-up please pray.gif pray.gif pray.gif

Register
(2) kastrup, Wail,
Jan 1 2024, 21:51:08 Apocalyptica - Aquarela [ost] (2019)
QUOTE(kastrup @ Jan 1 2024, 19:43:21) *
Re-up please pray.gif pray.gif pray.gif pray.gif

Register
(2) kastrup, Wail,
Jan 1 2024, 21:50:39 Apocalyptica - White Room [single] (2021)
QUOTE(kastrup @ Jan 1 2024, 19:44:53) *
Re-up please pray.gif pray.gif pray.gif

Register
(2) kastrup, Wail,
Dec 14 2023, 20:30:24 Melvins & Helms Alee - Controlling Data For A Better Feeling Future EP [collaboration] (2023)


*Artist: Melvins & Helms Alee
*Album: Controlling Data For A Better Feeling Future EP [collaboration]
*Year: 2023
*Genre: Sludge/Grunge/Punk | Post-Metal/Stoner/Progressive Post-Rock
*Country: United States | United States
*Format: mp3@CBR320kbps
*Size: 68MB

Tracklist:
01. Data Control (Hüsker Dü cover) 05:58
02. Better Feeling 07:59
03. Galloping Mind Fuk 03:32
04. At The Stake (originally on Stoner Witch) 07:43
05. The Sails Of Charon (Scorpions cover) 04:12
******************************
Total playing time: 29:24

[more=Extended info]FLAC-rip.[/more]

[more=Technical info]
Input File: 04 - MelvinsHelms Alee - At The Stake.mp3
Channels : 2
Sample Rate : 44100
Precision : 16-bit
Duration : 00:07:43.28 = 20430692 samples = 34746.1 CDDA sectors
File Size : 18.7M
Bit Rate : 322k
Sample Encoding: MPEG audio (layer I, II or III)
Comments :
Title=At The Stake
Artist=Melvins/Helms Alee
Album=Controlling Data For A Better Feeling Future
Tracknumber=4
Year=2023
Genre=Rock

[/more]

Register
(10) BrainW1, Daale, Grev, hell_armageddon, Hell_Is_Here, marilin, metaljosue, nemx, p4B10, ZamanFu,
Nov 19 2023, 09:38:34 Agalloch - The Silence Of Forgotten Landscapes [live] (2009)
QUOTE(wreak @ Nov 19 2023, 09:47:38) *
Please Reup


Register
(1) wreak,
Nov 15 2023, 21:23:00 Riwen - A Brutal Reality [ep] (2023)


*Artist: Riwen
*Album: A Brutal Reality [ep]
*Year: 2023
*Genre: Hardcore/Crust
*Country: Sweden
*Format: mp3@CBR320kbps
*Size: 27MB

Tracklist:
01. A Warriors Eye 02:49
02. Above The Tree Lines 02:26
03. A Brutal Reality 02:22
04. This Is How Nature Created Us 04:00
******************************
Total playing time: 11:37

[more=Extended info][/more]

[more=Technical info]
Input File: 03-riwen-a_brutal_reality.mp3
Channels : 2
Sample Rate : 44100
Precision : 16-bit
Duration : 00:02:22.72 = 6293864 samples = 10703.9 CDDA sectors
File Size : 5.83M
Bit Rate : 327k
Sample Encoding: MPEG audio (layer I, II or III)
Comments :
Title=A Brutal Reality
Artist=Riwen
Album=A Brutal Reality
Tracknumber=3/4
Year=2023-00-00
Genre=Hardcore

[/more]

Register
(3) hell_armageddon, nemx, Wail,
Nov 1 2023, 22:48:45 Sculptured - Apollo Ends (1999)
QUOTE(waitS111 @ Nov 1 2023, 23:38:29) *
но внутри архива - их первый альбом


Correct upload.
Register
(1) Thrashman,
Oct 28 2023, 19:09:17 Various Artists - Tribute To Sol Invictus - Sol Lucet Omnibus (2002)
QUOTE(canadaspaceman @ Feb 18 2022, 19:10:57) *
please re-upload

By request from Sayfut - FLAC from Slsk.

Register
(3) as71, Fenrirsson, sayfut,
Oct 25 2023, 19:16:24 Today Needed (1) 6black6magic6,
Sep 7 2023, 20:06:47 Downcross & Vobiscum Inferni - Pact Of No Mercy [split] (2023)


*Artist: Downcross & Vobiscum Inferni
*Album: Pact Of No Mercy [split]
*Year: 2023
*Genre: Black Metal | Black Metal
*Country: Belarus | Brazil
*Format: flac
*Size: 524MB

Tracklist:
Downcross:
01. Beyond Causal Dreams 05:37
02. Ad Majorem Azerate Gloriam 05:13
03. Between the Anti-worlds 00:59
04. Death is Not Static 04:30
05. Melting 01:42
Vobiscum inferni:
06. Samgabial Beshet Kor 03:44
07. The Prayers of Death 08:52
08. The Flaming Eyes of the Eleven Swords 06:44
09. Samgabial Frigus Perniciei 03:18
******************************
Total playing time: 40:39

[more=Extended info][/more]

[more=Technical info]
Input File: DOWNCROSS - PACT OF NO MERCY (split with VOBISCUM INFERNI) - 03 Downcross - Between the Anti-worlds.flac
Channels : 2
Sample Rate : 48000
Precision : 24-bit
Duration : 00:00:59.00 = 2832000 samples ~ 4425 CDDA sectors
File Size : 11.3M
Bit Rate : 1.53M
Sample Encoding: 24-bit FLAC
Comments :
TITLE=Downcross - Between the Anti-worlds
ARTIST=DOWNCROSS
DATE=2023
COMMENT=Visit
ALBUM=PACT OF NO MERCY (split with VOBISCUM INFERNI)
TRACKNUMBER=3
ALBUMARTIST=DOWNCROSS

[/more]

Register
(15) AceQuorthon, Alexis The Best, AndreFrancis, Carcharoth, Condehate, dermarsoran, Evgen79, Femto, Grev, IncendiaryMight, kim666, sacrut, Styx, Vidyadharov, Wail,

46 Pages V   1 2 3 > » 
- Lo-Fi Version Support form
Copyrights and abuse reports form
Time is now: 28th May 2024 - 18:07:35