Welcome Guest ( Log In | Register )

История благодарностей участнику nnnmmm ::: Спасибо сказали: 2718 раз(а)
Дата поста: В теме: За сообщение: Спасибо сказали:
Mar 26 2020, 22:42:57 Clouds - The Path Of Sorrow [single] (2020)


*Artist: Clouds
*Album: The Path Of Sorrow [single]
*Year: 2020
*Genre: Doom Metal
*Country: International
*Format: flac
*Size: 129MB

Tracklist:
01. The Path Of Sorrow 11:53
******************************
Total playing time: 11:53

[more=Extended info][/more]

Register
(7) Femto, infiltrator, infozahist, Lux, Metalass, Paradayz, popen13,
Mar 24 2020, 06:34:45 Amon Amarth - Fate Of Norns (2004)
Reuploaded Mp3 CBR 320
Register


(3) Clitoriduss, Golfzilla, muskatnuss,
Mar 23 2020, 07:08:38 Moonspell & Morbid God - Anno Satanæ [split] (2012)
Uploaded my own rip from my personal collection - 2019 CD release, limited edition black CD from the official band box set biography book.

FLAC -
Register


MP3 CBR 320 -
Register
(2) Lucju, wendigo,
Mar 19 2020, 20:14:54 Gods Tower - Heroes Die Young [ep] (2013)
QUOTE(Morda_Morda @ Mar 19 2020, 20:37:55) *
А можно обновить ссылку? Спасибо!

Reuploaded in my previous post. All other my Gods Tower links updated as well.
(1) Morda_Morda,
Mar 7 2020, 06:01:04 Clouds - Durere (2020)
Register
(2) 6666666, infiltrator,
Mar 4 2020, 05:26:18 Gorguts - Pleiades' Dust [ep] (2016)
Reuploaded Mp3 CBR 320
Register
(3) infiltrator, kimkayoung, wolverine,
Feb 27 2020, 05:44:56 Clouds
2019 single here. Clouds - I Fear The Light [single] (2019)
Why admins put it in Find Area is beyond my understanding. It is directly from the band's Bandcamp, listed in their discography.
Not the first time admins do weird things.
(1) karpenka,
Feb 12 2020, 20:51:54 Crematory - Illusions (1996)
Reuploaded Mp3 CBR 320, Russian Edition. Live bonuses are taken from here, most likely.

Register
(2) Kazoth, varlam4,
Nov 23 2019, 08:27:45 Bhleg & Nechochwen - Sorlande Sky/Majestic Translucence [split] (2019)


*Artist: Bhleg & Nechochwen
*Album: Sorlande Sky/Majestic Translucence [split]
*Year: 2019
*Genre: Atmospheric Black Metal | Atmospheric Black/Folk Metal/Neofolk
*Country: Sweden | United States
*Format: mp3@VBR256kbps
*Size: 20MB

Tracklist:
Bhleg:
1. Sorlande Sky 07:00
Nechochwen:
2. Majestic Translucence 05:55
******************************
Total playing time: 12:55

[more=Extended info]https://www.metal-archives.com/albums/Necho...slucence/771812[/more]

[more=Technical info]
Input File: 02. Nechochwen - Majestic Translucence.mp3
Channels : 2
Sample Rate : 48000
Precision : 16-bit
Duration : 00:05:55.63 = 17070336 samples ~ 26672.4 CDDA sectors
File Size : 11.5M
Bit Rate : 259k
Sample Encoding: MPEG audio (layer I, II or III)
Comments :
Title=Majestic Translucence
Artist=Nechochwen
Album=Bhleg & Nechochwen
Year=20190530

[/more]

Register
(17) 1968_janeart, Cartman223, chromeskull88, Druidir, Ildjarn, kim666, Lanceatum, nemx, Ostinato, Rosen, satanist666, senecazm, Sjelekval, stone88, varlam4, wreak, yuratroll,
Nov 23 2019, 08:23:11 Nechochwen - Azimuths To The Otherworld (2010)
Reuploaded Mp3 CBR 320
Register
(2) fang, Lanceatum,
Nov 23 2019, 08:22:22 Nechochwen - OtO [ep] (2012)
Uploaded Mp3 CBR 320, 70 Mb
Register
(1) Lanceatum,
Nov 23 2019, 08:21:43 Nechochwen - Heart Of Akamon (2015)
Reuploaded Mp3 CBR 320
Register
(1) Lanceatum,
Nov 5 2019, 05:39:21 Sólstafir - Ótta (2014)
QUOTE(babanguida @ Nov 4 2019, 20:58:41) *
any reup please?

See post above.
(1) babanguida,
Oct 24 2019, 14:43:17 Nebulae Come Sweet - It Is Not The Night That Covers You (2016)
Reuploaded Mp3 CBR 320 Kbps
Register
(2) Kostolom, stumpheavyrock,
Oct 11 2019, 06:48:07 Sepultura - Sepultura Under My Skin [single] (2015)


*Artist: Sepultura
*Album: Sepultura Under My Skin [single]
*Year: 2015
*Genre: Thrash Metal
*Country: Brazil
*Format: mp3@CBR320kbps
*Size: 17MB

Tracklist:
01. Sepultura Under My Skin 03:46
02. Kairos (live) 03:37
******************************
Total playing time: 7:23

[more=Technical info]
Input File: 01 - Sepultura Under My Skin.mp3
Channels : 2
Sample Rate : 44100
Precision : 16-bit
Duration : 00:03:46.97 = 10009245 samples = 17022.5 CDDA sectors
File Size : 9.11M
Bit Rate : 321k
Sample Encoding: MPEG audio (layer I, II or III)
Comments :
Title=Sepultura Under My Skin
Artist=Sepultura
Album=Sepultura Under My Skin
Tracknumber=01/02
Year=2015
Genre=Thrash Metal/Death Metal

[/more]

Register
(8) artscald, dermarsoran, gwar, Hell_Is_Here, infiltrator, Olethros, Rosen, sepultura39,
Oct 11 2019, 06:45:08 Sepultura - The Age Of The Atheist [single] (2013)


*Artist: Sepultura
*Album: The Age Of The Atheist [single]
*Year: 2013
*Genre: Thrash Metal
*Country: Brazil
*Format: mp3@CBR320kbps
*Size: 21MB

Tracklist:
01. The Age Of The Atheist 04:19
02. Zombie Ritual (Death cover) 04:45
******************************
Total playing time: 9:04

[more=Technical info]
Input File: 01 - The Age Of The Atheist.mp3
Channels : 2
Sample Rate : 44100
Precision : 16-bit
Duration : 00:04:19.15 = 11428603 samples = 19436.4 CDDA sectors
File Size : 10.5M
Bit Rate : 323k
Sample Encoding: MPEG audio (layer I, II or III)
Comments :
Title=The Age Of The Atheist
Artist=Sepultura
Album=The Age Of The Atheist
Tracknumber=01/02
Year=2013
Genre=Thrash Metal/Death Metal

[/more]

Register
(9) artscald, gwar, Hell_Is_Here, infiltrator, infozahist, kluval, Olethros, Rosen, sepultura39,
Oct 11 2019, 06:41:49 Sepultura - Against (1998)
Additional link to Japanese edition with 2 bonus tracks
Register
(1) Evgundel,
Oct 11 2019, 06:39:05 Sepultura - Dante Xxi (2006)
Additional link to Japanese edition with a Judas Priest cover Mp3 CBR 320 Kbps 97 Mb
Register
(1) Evgundel,
Oct 11 2019, 06:33:35 Sepultura - Minisserie Dupla Identidade [ost] (2014)
Reuploaded Mp3 CBR 320 50 Mb
Register
(1) kluval,
Oct 11 2019, 06:26:33 Sepultura - Tribus [single] (1999)
Reuploaded Mp3 CBR 320 kbps, 46 Mb
Register
(3) dermarsoran, kluval, Occultas,
Oct 11 2019, 06:24:48 Sepultura - Choke [single] (1998)


*Artist: Sepultura
*Album: Choke [single]
*Year: 1998
*Genre: Thrash Metal
*Country: Brazil
*Format: mp3@CBR320kbps
*Size: 18MB

Tracklist:
01. Choke 03:38
02. Gene Machine / Don't Bother Me (Bad Brains cover) 02:53
03. Against (demo) 01:39
******************************
Total playing time: 8:10

[more=Technical info]
Input File: 01 - Choke.mp3
Channels : 2
Sample Rate : 44100
Precision : 16-bit
Duration : 00:03:38.22 = 9623326 samples = 16366.2 CDDA sectors
File Size : 8.76M
Bit Rate : 321k
Sample Encoding: MPEG audio (layer I, II or III)
Comments :
Title=Choke
Artist=Sepultura
Album=Choke
Tracknumber=01/03
Year=1998
Genre=Groove Metal/Nu Metal

[/more]

Register
(10) artscald, boby9052, gwar, Hell_Is_Here, infiltrator, kluval, Occultas, Olethros, Rosen, sepultura39,
Oct 11 2019, 06:20:37 Sepultura - Beneath The Remains (1989)
Added Beneath The Remains (1997 Remaster) Mp3 320 Kbps 123 Mb
Register
(4) dermarsoran, dimitriusk, infiltrator, metala,
Oct 11 2019, 06:20:15 Sepultura - Schizophrenia (1987)
Added Schizophrenia (1997 Remaster) Mp3 320 Kbps 129 Mb
Register
(2) infiltrator, metala,
Oct 11 2019, 06:19:45 Sepultura - Morbid Visions (reissue) (1986)
Added Morbid Visions & Bestial Devastation EP (1997 Remaster) Mp3 320 Kbps 126 Mb
Register
(2) metal73, Occultas,
Oct 8 2019, 06:33:10 Musica Diablo - Musica Diablo [demo] (2009)


*Artist: Musica Diablo
*Album: Musica Diablo [demo]
*Year: 2009
*Genre: Thrash Metal
*Country: Brazil
*Format: mp3@CBR256kbps
*Size: 22MB

Tracklist:
01. Work Out 03:01
02. The Flame Of Anger 03:02
03. Live To Buy 02:38
04. Twisted Hate 02:58
05. The Rack 02:03
******************************
Total playing time: 13:42

[more=Extended info]Thanks to Asgarddistro![/more]

[more=Technical info]
Input File: 1 Work Out.mp3
Channels : 2
Sample Rate : 44100
Precision : 16-bit
Duration : 00:03:01.20 = 7990788 samples = 13589.8 CDDA sectors
File Size : 5.92M
Bit Rate : 261k
Sample Encoding: MPEG audio (layer I, II or III)
Comments :
Title=Work Out
Artist=Musica Diablo
Album=Demo
Tracknumber=1
Year=2009
Genre=Thrash Metal

[/more]

Register
(8) artscald, infiltrator, METALHUNTER, Olethros, Rosen, stumpheavyrock, thenecromancer, wgs73,

37 Pages V   1 2 3 > » 
- Lo-Fi Version Support form
Copyrights and abuse reports form
Time is now: 25th May 2020 - 18:41:00