Welcome Guest ( Log In | Register )

История благодарностей участнику nnnmmm ::: Спасибо сказали: 2969 раз(а)
Дата поста: В теме: За сообщение: Спасибо сказали:
Sep 11 2020, 19:45:06 Potentiam - Orka I Myrkri (2004)
Reuploaded without scans

Register
(1) Wail,
Sep 10 2020, 14:37:45 Windir - 1184 (2001)
Reuploaded

Register
(1) thenecromancer,
Sep 2 2020, 22:27:47 Finntroll - Nattfödd (2004)
Uploaded again

Register
(1) vasilisk,
Sep 2 2020, 19:34:37 Neurosis - Given To The Rising (2007)
Reuploaded

Register
(2) Dargaud, infiltrator,
Aug 28 2020, 20:33:03 YOB - Clearing The Path To Ascend (2014)
Upgrade to Mp3 CBR 320

Register
(2) AHBAnep, Wail,
Aug 28 2020, 20:31:05 Yob - The Unreal Never Lived - Live At Roadburn 2012 [live] (2014)


*Artist: Yob
*Album: The Unreal Never Lived - Live At Roadburn 2012 [live]
*Year: 2014
*Genre: Doom Metal
*Country: United States
*Format: mp3@CBR320kbps
*Size: 112MB

Tracklist:
01. Quantum Mystic 09:38
02. Grasping Air 08:54
03. Kosmos 10:41
04. The Mental Tyrant 20:17
******************************
Total playing time: 49:30

[more=Technical info]
Input File: A1. Quantum Mystic.mp3
Channels : 2
Sample Rate : 44100
Precision : 16-bit
Duration : 00:09:38.54 = 25513746 samples = 43390.7 CDDA sectors
File Size : 23.2M
Bit Rate : 321k
Sample Encoding: MPEG audio (layer I, II or III)
Comments :
Title=Quantum Mystic
Artist=YOB
Album=The Unreal Never Lived - Live At Roadburn 2012 (2LP) [Roadburn Festival, RF05]
Tracknumber=01/04
Year=2014
Genre=Stoner/Doom Metal

[/more]

Register
(10) gena, infiltrator, kolar666, marilin, Olethros, Rosen, stub888, VALERY, Wail, wreak,
Aug 28 2020, 20:25:25 YOB - The Unreal Never Lived (2005)
Reuploaded Mp3 CBR 320

Register
(2) AHBAnep, Wail,
Aug 28 2020, 20:24:45 YOB - Our Raw Heart (2018)
Reuploaded Mp3 CBR 320

Register
(1) Wail,
Aug 28 2020, 20:24:30 YOB - Yob [demo] (2000)
Uploaded Mp3 CBR 320 vinyl-rip with a bonus track.

Register
(1) Wail,
Aug 28 2020, 20:24:17 YOB - Live At Roadburn 2010 [live] (2011)
Reuploaded Mp3 CBR 320

Register
(2) AHBAnep, Wail,
Aug 28 2020, 20:23:45 Middian - Age Eternal (2007)
Reuploaded Mp3 CBR 320

Register
(1) stumpheavyrock,
Aug 28 2020, 20:08:03 Apollyon Sun - Sub (2000)
QUOTE(varlam4 @ Aug 28 2020, 18:38:32) *
Перезалейте плз


Register
(3) stumpheavyrock, thenecromancer, varlam4,
Aug 28 2020, 20:07:17 Apollyon Sun - God Leaves (And Dies) [ep] (1998)
QUOTE(varlam4 @ Aug 28 2020, 18:38:04) *
Перезалейте плз


Register
(1) varlam4,
Aug 27 2020, 16:36:22 Apollyon Sun - Flesh [demo] (2002)


*Artist: Apollyon Sun
*Album: Flesh [demo]
*Year: 2002
*Genre: Industrial Metal
*Country: Switzerland
*Format: mp3@CBR256kbps
*Size: 35MB

Tracklist:
01. All Gone Dead 04:24
02. Solitary Lodge 04:32
03. Procreation II/I 03:46
04. Deep Inside 04:22
05. Mouthful of Lies 04:48
******************************
Total playing time: 21:52

[more=Extended info]https://www.metal-archives.com/albums/Apollyon_Sun/Flesh/241979[/more]

[more=Technical info]
Input File: 03 Procreation (Of the Wicked).mp3
Channels : 2
Sample Rate : 44100
Precision : 16-bit
Duration : 00:03:46.32 = 9980712 samples = 16974 CDDA sectors
File Size : 7.24M
Bit Rate : 256k
Sample Encoding: MPEG audio (layer I, II or III)
Comments :
Title=Procreation (Of the Wicked)
Artist=Apollyon Sun
Album=Flesh Demo '02
Tracknumber=3
Year=2002
Genre=Heavy metal

[/more]

Register
(20) acerbus, BERZERK, caro, chipsgott, dermarsoran, EternalStorm, Femto, FUDEDOR, gwar, infiltrator, metala, Olethros, Radiosilence, recber, ripper33, Rosen, thenecromancer, varlam4, wreak, Сварог Барг,
Aug 20 2020, 18:29:43 Agalloch - The White [ep] (2008)
Uploaded FLAC CD-Rip from my personal collection, 2019 Remaster with bonus track "Where Shade Once Was".
I have The Grey EP too, PM me if needed.

Register
(1) Olethros,
Aug 17 2020, 08:30:11 Mesarthim - Planet Nine [ep] (2020)


*Artist: Mesarthim
*Album: Planet Nine [ep]
*Year: 2020
*Genre: Atmospheric Black Metal
*Country: Australia
*Format: mp3@CBR320kbps
*Size: 51MB

Tracklist:
01. Planet Nine 15:29
02. Burial 10:24
******************************
Total playing time: 25:53

[more=Extended info][/more]

[more=Technical info]
Input File: 01 - Planet Nine.mp3
Channels : 2
Sample Rate : 44100
Precision : 16-bit
Duration : 00:15:29.06 = 40971722 samples = 69679.8 CDDA sectors
File Size : 37.2M
Bit Rate : 320k
Sample Encoding: MPEG audio (layer I, II or III)
Comments :
Title=Planet Nine
Artist=Mesarthim
Album=OPlanet Nine
Tracknumber=1/2
Year=2020-16-08
Genre=Black Metal

[/more]

Register
(34) 1968_janeart, Andr, Antkh, binghost, Branis, dasreichss, Druidir, ENDSMOUTH, Femto, fylopaloma, grimoir, Hell_Is_Here, infiltrator, karpenka, Kazoth, kim666, Kodel, nemx, Olethros, randumbum, robertho777, Rosen, sergsazan, SilentNidhogg, Slavas, stone88, trabantfan, undeadlich, VALERY, varlam4, vasilisk, wreak, Yorker, Zenial,
Aug 16 2020, 10:12:03 Enshine - Brighter [single] (2013)
Reuploaded Mp3 CBR 320

Register
(1) stumpheavyrock,
Aug 16 2020, 09:57:41 Slumber - Dreamscape [demo] (2002)
Reuploaded Mp3

Register
(2) thenecromancer, Wail,
Aug 16 2020, 09:56:39 Slumber - Resonance [demo] (2010)


*Artist: Slumber
*Album: Resonance [demo]
*Year: 2010
*Genre: Doom/Death Metal
*Country: Sweden
*Format: mp3@CBR192kbps
*Size: 23MB

Tracklist:
01. Atoma (instrumental) 05:26
02. Bermuda Riviera (instrumental) 05:30
03. Resonance (instrumental) 05:58
******************************
Total playing time: 16:54

[more=Extended info]https://www.metal-archives.com/albums/Slumber/Resonance/514027[/more]

[more=Technical info]
Input File: 01. Atoma.mp3
Channels : 2
Sample Rate : 44100
Precision : 16-bit
Duration : 00:05:28.19 = 14473003 samples = 24614 CDDA sectors
File Size : 7.88M
Bit Rate : 192k
Sample Encoding: MPEG audio (layer I, II or III)
Comments :
Title=Atoma
Artist=Slumber
Album=Resonance (Demo)
Tracknumber=01
Year=2010

[/more]

Register
(8) helvetesrike, infiltrator, Olethros, Rosen, soulflesh, thenecromancer, VALERY, Wail,
Aug 13 2020, 12:39:35 Gallowbraid - Ashen Eidolon [ep] (2010)
QUOTE(MeatWolf @ Dec 28 2015, 20:30:10) *
По ходу, его не будет.


Surprise!

Here are the FLAC and Mp3 CBR 320 rips from my personal collection; 2019 CD reissue with the "Stone of Remembrance" previously vinyl-only bonus.
Enjoy.

Register

Register
(1) Rudolfo_Metal,
Aug 12 2020, 21:36:16 Pillorian - A Stygian Pyre [single] (2017)


*Artist: Pillorian
*Album: A Stygian Pyre [single]
*Year: 2017
*Genre: Black Metal
*Country: United States
*Format: mp3@CBR320kbps
*Size: 18MB

Tracklist:
01. A Stygian Pyre 05:10
02. The Ardor Of Scorn (instrumental) 03:43
******************************
Total playing time: 8:53

[more=Extended info]https://www.metal-archives.com/albums/Pillorian/A_Stygian_Pyre/627556[/more]

[more=Technical info]
Input File: 02. The Ardor Of Scorn.mp3
Channels : 2
Sample Rate : 44100
Precision : 16-bit
Duration : 00:03:43.44 = 9853704 samples = 16758 CDDA sectors
File Size : 9.04M
Bit Rate : 324k
Sample Encoding: MPEG audio (layer I, II or III)
Comments :
Title=The Ardor Of Scorn
Artist=Pillorian
Album=A Stygian Pyre
Tracknumber=2/2
Year=2017
Genre=Black Metal

[/more]

Register
(13) 1968_janeart, Alexis The Best, Boozer, caro, cist, Ildjarn, infiltrator, Maximvs, Olethros, randumbum, Rosen, SilentNidhogg, varlam4,
Aug 12 2020, 20:32:25 Apocynthion - Correlations [ep] (2012)


*Artist: Apocynthion
*Album: Correlations [ep]
*Year: 2012
*Genre: Post-Black Metal/Shoegaze
*Country: Spain
*Format: flac
*Size: 91MB

Tracklist:
1. Correlations
******************************
Total playing time: 13:30



Register
(6) BERZERK, craP_cillA, fylopaloma, infiltrator, Olethros, Rosen,
Aug 10 2020, 09:37:21 Black Sabbath - Feels Good To Me [single] (1990)
Reuploaded Mp3 CBR 320

Register
(1) thenecromancer,
Aug 10 2020, 09:15:27 Black Sabbath - Black Moon [single] (1989)
Reuploaded Mp3 CBR 320

Register
(1) thenecromancer,
Aug 8 2020, 20:18:48 Various Artists - Masters Of Misery - Black Sabbath: The Earache Tribute [best of/compilation] (1997)
Reuploaded Mp3 CBR 320

Register
(2) thenecromancer, varlam4,

39 Pages V   1 2 3 > » 
- Lo-Fi Version Support form
Copyrights and abuse reports form
Time is now: 19th September 2020 - 16:40:33