Welcome Guest ( Log In | Register )

История благодарностей участнику Vrolok ::: Спасибо сказали: 3127 раз(а)
Дата поста: В теме: За сообщение: Спасибо сказали:
Jul 28 2013, 15:04:16 20 Years ISD Memorial
28 сентября 2013,Харьков Украина, 20 Years ISD Memorial:
Warlord (UK), Skrew You (UK/CA), L! (DE), Sokyra Peruna (UA), Antisystem (RU), Revenge (RU), Molat (BY)


http://s017.radikal.ru/i441/1307/ac/3ef6e9a28015.jpg
(3) Maribor, neoatheist, smes,
Jul 21 2013, 08:11:25 Новости Folk/Pagan/Viking
[youtube]HMRgpHLmlBY[/youtube]
(2) Maribor, neoatheist,
Jul 18 2013, 06:55:25 Sturmwehr - Ehre, Stolz Und Tradition (2013)
Как всегда отмеННо smile1.gif
(2) Maribor, добрыйКот,
Jul 16 2013, 08:23:19 Новости Black-направления

From the upcoming album "Wotan Redivivus", to be released via D.T.B. Records in 2013.
(2) Goatrex, Maribor,
Jul 14 2013, 16:09:34 Elderblood - Son Of The Morning (2013)
Очень сильный дебютник !!!
My Death и Egocide pray.gif
(3) infiltrator, Maribor, smes,
Jul 14 2013, 09:56:35 Elderblood - Son Of The Morning (2013)
ЦИТАТА(recber @ Jul 14 2013, 11:53:37) *
Astargh ex-Nokturnal Mortum


Так это не для кого не секрет
(5) infiltrator, Maribor, neoatheist, smes, SSBandera,
Jul 13 2013, 15:16:55 Elderblood - Son Of The Morning (2013)


*Artist: Elderblood
*Album: Son Of The Morning
*Year: 2013
*Genre: Symphonic Black Metal
*Country: Ukraine
*Format: mp3@CBR320kbps
*Size: 133MB

Tracklist:
1.Gates to Oblivion
2.Dies Irae
3.Manifestation ov Dark Essence
4.Son of the Morning
5.My Death
6.Triumph of the Beast
7.The XI-th Angle
8.Naglfar
9.Egocide
10.Re-Birth
11.Dreamless
******************************
Total playing time: 1:06:00

Preview 1

[more=Extended info]Осенью 2011 Astargh покинул Nokturnal Mortum для создания собственной группы.
Odalv (Twilightfall, Ulvegr, экс-Nokturnal Mortum) был приглашен в качестве барабанщика
В ноябре 2011 года группа, получившая название ELDERBLOOD, приступила к репетициям.
В феврале 2012 Hagalth был приглашен в группу в качестве бас-гитариста.
Запись дебютного альбома началась в конце марта 2012 года на "Dark Essence Studio".
Запись дебютного альбома, названного "Son of the Morning" была окончена в декабре 2012 года.
25 июня 2013 года альбом "Son of the Morning" вышел на американском лэйбле Paragon Rec.

Astargh - guitars, bass, keys and voice
Hagalth - bass
Odalv - drums
Produced by Elderblood
All music and arrangments by Astargh
Lyrics by Astargh, exept "Manifestation of Dark Essence" by Nimeni
Lyric's transleting by Olga Adamchuk and Astargh

Album recorded at Dark Essence studio (Kharkiv, Ukraine)
Engineered by Astargh and Dmitry Oparin

Mixed and mastered by Astargh
at Dark Essence studio (Kharkiv, Ukraine)
elderblood218@gmail.com

Cover and album artwork by Anomalous Art
Anomalous-Art.com/ Annexare.com
anomalous.art@gmail.com

Band-photo by Svetlana Kharechko
Band-logo by Christophe Szpajdel[/more]

[more=Technical info]
Input File: 2.Dies Irae.mp3
Channels : 2
Sample Rate : 44100
Precision : 16-bit
Duration : 00:07:36.25 = 20120757 samples = 34219 CDDA sectors
File Size : 18.3M
Bit Rate : 320k
Sample Encoding: MPEG audio (layer I, II or III)

[/more]

Register
(54) 0x13, aimtoknow, aorta2, arioch82, Black Cat, Boozer, caro, DarkHorde, DICKE, Disgorge666, Emhyr var Emreis, Evjenne, F-F, Fess, gwynnbleid, Ice Gnoll, infiltrator, kim666, kooongg, Maribor, Militia, MMMMM, Mogozoz, Nattfodd, neoatheist, Night, Old Vyaine, oldvarg, Orgasmik, Phlebotomized, princeshr, recber, rom666, Scuns, serach, shadow666, smes, SS2998, SSBandera, Sunbeam, TeamatSE, toly1917, tont, topknot, Tundra, Typhon88, v.v.m, VALERY, varg-38ru, varlam4, vasiljev_sergej, waldemardr, wreak, yuratroll,
Jul 13 2013, 11:35:15 Новости Black-направления

По ссылке доступны к прослушиванию два трека с нового альбома группы FOLKVANG «Never Say Never»
(2) Hswhhh, Maribor,
Jun 24 2013, 13:22:14 Watain - All That May Bleed [single] (2013)
Наконец-то,дождался!
Надеюсь не подведет Эрик smile1.gif
(1) Maribor,
Jun 23 2013, 13:40:26 Various Artists - Славянский хардкор [compilation] (2013)
ЦИТАТА(Moonshtook @ Jun 20 2013, 11:17:04) *
вообще отличный сборник! уже второй день мошу под него!


Ага,есть убойные треки smile1.gif
(1) Maribor,
Jun 23 2013, 13:39:34 Peste Noire - Peste Noire (2013)
Мда,очень шизоидный альбом,хотя как и всегда у них 13.gif
(1) Maribor,
Jun 23 2013, 13:38:27 Wine From Tears - Glad To Be Dead (2013)
Очень хороший думец 20.gif
(2) Maribor, Metalass,
Jun 19 2013, 13:55:02 Various Artists - Славянский хардкор [compilation] (2013)


*Artist: Various Artists
*Album: Славянский хардкор [compilation]
*Year: 2013
*Genre: Hardcore/Hatecore
*Country: Many
*Format: mp3@CBR320kbps
*Size: 126MB

Tracklist:
01. Painful Story - Нас не сломить
02. xDASSLERx - Вперед
03. xDASSLERx - В Бой!
04. xHEADxSHOTx - Псы системы
05. Muckrakers - Про регби
06. Muckrakers - Воля
07. ХорСС - Кто из нас
08. Immortal spirit - Бессмертный Дух
09. Презумпция Невиновности - Судный День
10. Чёрное Солнце - Солдат Удачи
11. Чёрное Солнце - Receive doubly
12. Shoot on Sight - Сибирь
13. [Last Page] - Музыка улиц
14. [Last Page] - Триединство
15. Камаедзица - Волки
16. x Out Of Control x - Верность
17. x Out Of Control x - Дисциплина
18. xFirs Front Linex - Былые Времена
******************************
Total playing time: 55:07

[more=Technical info]
Input File: 01. Painful Story - Нас не сломить.mp3
Channels : 2
Sample Rate : 44100
Precision : 16-bit
Duration : 00:03:49.07 = 10101987 samples = 17180.2 CDDA sectors
File Size : 9.55M
Bit Rate : 334k
Sample Encoding: MPEG audio (layer I, II or III)
Comments :
Title=Нас не сломить
Artist=Painful Story
Album=Славянский Хардкор
Tracknumber=1
Year=2013
Genre=Hardcore/Metalcore/Beatdown/Hatecore

[/more]

Register
(6) Branis, Maribor, Raw1488, stone88, voldemar13, добрыйКот,
Jun 18 2013, 08:32:30 Amon Amarth - Deceiver Of The Gods (2013)
Действительно шикарный альбом.Настоящий шквал эмоций вызывает,яростные вокал и как всегда отличные мелодии 20.gif
(2) andeimon, BleedingSun,
Jun 13 2013, 13:39:57 Graveland
ЦИТАТА(kim666 @ Jun 1 2013, 11:47:02) *
Что интересно - 1 июня !!! Т.е. сегодня ?!


Альбом официально поступил в продажу в формате дигипак.
(1) Maribor,
Jun 13 2013, 09:06:39 P'hevda Phenomenon - Ghosts Of The Impassable Swamps (2013)


*Artist: P'hevda Phenomenon
*Album: Ghosts Of The Impassable Swamps
*Year: 2013
*Genre: Dark Ambient
*Country: Ukraine
*Format: mp3@CBR320kbps
*Size: 70MB

Tracklist:
1. Part I: Nightfall
2. Part II: Swamp
3. Part III: Ghost
******************************
Total playing time: 33:00

[more=Extended info]P'hevda Phenomenon - эмбиент сайд-проект музыканта Astaroth Merc'а (Raventale, Deferum Sacrum), который был основан в 2008 году в период творческой разгрузки от прочих проектов того времени. На тот момент проект не имел абсолютно никакого названия и особого дальнейшего развития не планировалось. Это был кратковременный выплеск ощущений от блужданий по призрачным лесам и холодным топям болот.[/more]

[more=Technical info]
Input File: 1. Part I Nightfall.mp3
Channels : 2
Sample Rate : 44100
Precision : 16-bit
Duration : 00:11:04.45 = 29302201 samples = 49833.7 CDDA sectors
File Size : 26.6M
Bit Rate : 320k
Sample Encoding: MPEG audio (layer I, II or III)

[/more]

Register
(11) 1984, doomTemplar, Maribor, matteo, nsmetalhead, SatanicPanzer, spiritualdecay666, StoneTemple, vasiljev_sergej, Velemysl, Госпромнадзор,
Jun 13 2013, 08:29:34 Sachsonia & Conflict 88 - Sächsisch-Böhmische Hausmannskost [split] (2009)


*Artist: Sachsonia & Conflict 88
*Album: Sächsisch-Böhmische Hausmannskost [split]
*Year: 2009
*Genre: RAC | RAC
*Country: Germany | Czech Republic
*Format: mp3@CBR320kbps
*Size: 96MB

Tracklist:
Sachsonia:
01. Im Zeichen des Siegers 02:54
02. Abrechnung 04:19
03. Nie wie du 03:59
04. Steh endlich auf 02:57
05. Stolz 02:51
Conflict 88:
06. R´n´R star 02:59
07. Red Mass 03:00
08. Two Years in Hell 02:44
09. Verdict 02:25
10. Ghetto 05:44
11. May be 03:17
******************************
Total playing time: 37:09

[more=Technical info]
Input File: 01. Im Zeichen des Siegers.mp3
Channels : 2
Sample Rate : 44100
Precision : 16-bit
Duration : 00:02:54.61 = 7700081 samples = 13095.4 CDDA sectors
File Size : 7.24M
Bit Rate : 332k
Sample Encoding: MPEG audio (layer I, II or III)
Comments :
Title=01. Im Zeichen des Siegers
Artist=Sachsonia
Album=Sächsisch-Böhmische Hausmannskost
Tracknumber=01
Year=2009
Genre=RAC

[/more]

Register
(6) Lanceatum, Maribor, neoatheist, Raw1488, smes, добрыйКот,
Jun 13 2013, 08:11:09 Sachsonia - ...Unvergessen (2006)


*Artist: Sachsonia
*Album: ...Unvergessen
*Year: 2006
*Genre: RAC
*Country: Germany
*Format: mp3@CBR320kbps
*Size: 154MB

Tracklist:
01. Wir sind wieder da 01:55
02. Stoppt Multi-Kulti 05:22
03. Uberwacht & kontrolliert 06:38
04. Einst werd ich's erklaren05:26
05. Sie haben dich gerettet 03:17
06. Hau ab 03:20
07. Unvergessen 06:02
08. Traurige Realitat 04:43
09. Es wird passier'n 02:32
10. Danke 02:47
11. Linke Neustadt 02:03
12. Gekampft, gelitten, gefallen 05:39
13. Kamerad 02:51
******************************
Total playing time: 52:35

[more=Technical info]
Input File: 02. Sachsonia - Stoppt Multi-Kulti.mp3
Channels : 2
Sample Rate : 44100
Precision : 16-bit
Duration : 00:05:23.09 = 14248269 samples = 24231.7 CDDA sectors
File Size : 12.9M
Bit Rate : 320k
Sample Encoding: MPEG audio (layer I, II or III)
Comments :
Title=Stoppt Multi-Kulti
Artist=Sachsonia
Album=...Unvergessen
Tracknumber=02/13
Year=2006

[/more]

Register
(5) Maribor, Mick Dundee, neoatheist, smes, spiritualdecay666,
Jun 12 2013, 06:29:30 BlazeBirth Hall (1) Maribor,
Jun 11 2013, 21:41:45 Sachsonia - Herzlich Willkommen (2004)


*Artist: Sachsonia
*Album: Herzlich Willkommen
*Year: 2004
*Genre: RAC
*Country: Germany
*Format: mp3@CBR320kbps
*Size: 122MB

Tracklist:
01. Intro 1:17
02. Skinhead 3:21
03. Jedes Jahr in Berlin 3:11
04. Skinhead 4:05
05. Wassermelonenpartei 3:15
06. Soldaten der Wehrmacht 4:20
07. Wir stehen bereit 4:57
08. Öko 2:47
09. Aus der Heimat vertrieben 6:10
10. Sachsonia 6:21
11. Herzlich Willkommen 6:34
12. Outro 2:43
******************************
Total playing time: 49:01

[more=Technical info]
Input File: 02. Sachsonia - Skinhead.mp3
Channels : 2
Sample Rate : 44100
Precision : 16-bit
Duration : 00:03:21.57 = 8889017 samples = 15117.4 CDDA sectors
File Size : 8.06M
Bit Rate : 320k
Sample Encoding: MPEG audio (layer I, II or III)
Comments :
Title=Skinhead
Artist=Sachsonia
Album=Herzlich Willkommen
Tracknumber=02

[/more]

Register
(5) Maribor, Mick Dundee, neoatheist, smes, spiritualdecay666,
Jun 10 2013, 17:58:11 Sachsonia - Amok (2011)
ЦИТАТА(neoatheist @ Jun 10 2013, 19:50:30) *
Хочу еще 2 альбома! 9.gif


Хорошо сделаю на днях рипы smile1.gif
(2) Maribor, neoatheist,
Jun 10 2013, 17:33:22 Sachsonia - Amok (2011)
ЦИТАТА(smes @ Jun 6 2013, 12:20:57) *
После Харьковского концерта очень захотелось послушать. Альбом бомба! Вот такой RAC я очень люблю.


Если нужно могу залить еще их 2 альбома!
(1) smes,
Jun 10 2013, 13:25:46 Paganland - Wind Of Freedom (2013)
Добротный альбом!!
(1) neoatheist,
Jun 8 2013, 08:09:19 Новости Black-направления
Не много новостей от Роба Даркена.

ЦИТАТА
Stellar Winter Rec. will re-relase split CD LEGION / VELES - "Blood on my Knife" with new b/w front cover! Stellar Winter Records

Warheart Rec will release two old Graveland albums: In the Glare of Burning Churches, and The Celtic Winter, both albums is remastered by False Sun (Canada), The Celtic Winter CD will include first mix of album, which never have been published! Sample to listen will be available soon! CD's will include also b/w orginal covers!

Warheart Rec. will release another Graveland album "The Fire of Avakening" in Polish version as Digi pack "Ogien Przebudzenia".

In December 2012 we recorded first official Graveland video clip. Video clip will be ready in Summer 2013. In June we will record video clip of Lord Wind!

New interview with Darken and Alruna made by Casus Beli zine is available to read in three languages: English, Russian, Polish

Forever Plagued Rec. will re-release Graveland LP's "The Celtic Winter" & "Following the Voice of Blood", both lp's will be available in July 2013! Another great release with Posters!

Woodtemple new album will come soon, we just need to record vocal and mix album, front cover for album is paint by Kris Verwimp, CD and Digi Pack will be released by Sturmklang Records

http://s017.radikal.ru/i440/1306/4e/3378331cd0e8.jpg
(4) Blacktron, infiltrator, Maribor, Nachtmahr,
Jun 7 2013, 16:36:17 Новости Black-направления
Не много не в тему,но все же:
ЦИТАТА
We are sorry to announce that OLD SILVER KEY, the band consisting of four DRUDKH members and ALCEST vocalist Neige, just called it a day. Thank you guys for the beautiful 'Tales of Wanderings' album!
(3) infiltrator, Maribor, technoboy69,

20 Pages V  < 1 2 3 4 > » 
- Lo-Fi Version Support form
Copyrights and abuse reports form
Time is now: 22nd June 2021 - 11:48:56