Welcome Guest ( Log In | Register )

История благодарностей участнику Vrolok ::: Спасибо сказали: 3127 раз(а)
Дата поста: В теме: За сообщение: Спасибо сказали:
Jun 7 2013, 15:19:15 Новости Black-направления
ЦИТАТА(vasilisk @ Jun 7 2013, 17:13:00) *
'Lesser Men', новое видео DARKTHRONE
http://www.youtube.com/watch?v=zWZfOeMmrM0...player_embedded


[youtube]zWZfOeMmrM0[/youtube]
(2) infiltrator, Maribor,
Jun 7 2013, 08:09:30 Hagl - In The Heart (2013)
ЦИТАТА(Maribor @ Jun 6 2013, 20:08:59) *
Пацаны,да вы чего?Альбом то атличный получился 20.gif


Поддерживаю!Альбом удался,полностью оправдал свои ожидания smile1.gif
(2) neoatheist, Svartedauen,
Jun 5 2013, 15:52:58 Hagl - In The Heart (2013)


*Artist: Hagl
*Album: In The Heart
*Year: 2013
*Genre: Black Metal
*Country: Russian Federation
*Format: mp3@CBR320kbps
*Size: 82MB

Tracklist:
1. Intro (In The Heart)
2. Heavy Gale
3. Mors Triumphalis
4. Thunderstorm
5. Howl As A Wolf
6. Europe
7. Above Death
8. The North
9. Wake Up!
10. Outro
******************************
Total playing time: 41:30



Preview 3

[more=Extended info]Заказать диск можно тут:
http://www.casusbellimusica.com/
digipak limitation: 500[/more]

[more=Technical info]
Input File: 2.Heavy Gale.mp3
Channels : 2
Sample Rate : 44100
Precision : 16-bit
Duration : 00:05:19.37 = 14084305 samples = 23952.9 CDDA sectors
File Size : 12.8M
Bit Rate : 320k
Sample Encoding: MPEG audio (layer I, II or III)

[/more]

Register
(45) 0x13, 14wolff88, andeimon, auriga, Bas®, Black Cat, BlackSnoW, Branis, Constantinus I, Darkthronefoad, demether, Emhyr var Emreis, EVIL DEaD, Fess, horss, Ildjarn, Korpse, Langemark, Loki_maestro, lucifix, Maribor, neoatheist, oldvarg, Orkkh, princeshr, Raziel, rickzammuto, rom666, RUDACHUR, satanist666, SilentNidhogg, spiritualdecay666, Thunderbird, toly1917, tont, tormoz, tr00ps, Tundra, Typhon88, VALERY, vasiljev_sergej, wreak, xska, Абигор, СВК,
Jun 3 2013, 19:45:50 Graveland - Memory And Destiny (2002)
ЦИТАТА(vosmidesijatye @ Jun 3 2013, 21:39:59) *
Новый пора бы ему уже выпускать!


Скоро будет уже!
(1) Maribor,
Jun 3 2013, 19:41:22 Новости Black-направления
[youtube]fr-1TDrUpTI[/youtube]
(2) infiltrator, Maribor,
Jun 3 2013, 10:57:16 Graveland - Memory And Destiny (2002)
Graveland - Memory and Destiny English version (2012)
http://s017.radikal.ru/i425/1306/5d/9e07a7010006.jpg

Completely new and Powerful Sound with new recorded drums, vocals, choirs
and real violin recorded by Alruna from Lord Wind.
Amazing new Mix and Mastering.


1. Fate of Warrior
2. Jewel of Atlanteans
3. Memory and Destiny
4. Legion of Giants
5. Runes of Rise
Register
(6) black_seraphin, igore2911, Maribor, milosdjor, Ulfgrimm, Valkyrjur,
May 30 2013, 19:49:01 Psychedelic Occult Doom / Blues / Rock / Heavy Psych / Acid Rock / 60`s & 70`s Worshipping...
[youtube]gzVZKhJoYa0[/youtube]
(3) infiltrator, kronos, Maribor,
May 26 2013, 13:32:49 Сивый Яр - Как Прежде Плыли Зори (2013)
Как-то уж очень однообразно совсем 13.gif
(1) Maribor,
May 26 2013, 13:04:05 Cold Body Radiation - The Longest Shadows Ever Cast [ep] (2013)
Отличная группа!Нет сомнений,что ЕПиха порадует.Качаю срочно smile1.gif
(2) Maribor, добрыйКот,
May 15 2013, 07:21:32 Новости Black-направления
Новый сингл WATAIN выйдет в конце июня

WATAIN в конце июня выпустят новый сингл "All That May Bleed". Этот трек будет включён в выходящий на Century Media 19-го августа альбом "The Wild Hunt", сведение которого выполнил Tore Stjerna в студии Necromorbus. Би-сайдом сингла станет песня "Play With The Devil", в оригинале записанная в 1988-м году группой TAIWAZ (Gottfrid Еhman из IN SOLITUDE записал небольшие партии гитары для версии WATAIN).

Сингл будет доступен в следующих вариантах:


чёрный 7" (2 000 копий на весь мир);
красный 7" со стикером (доступен только на Wolfwear.net; тираж 500 копий);
цветной 7" (доступен через CMdistro.com и Wolfwear.net; 500 копий);
цифровой вариант.


(3) CUNToos, Maribor, vosmidesijatye,
May 14 2013, 09:44:09 Новости Folk/Pagan/Viking
Велимор "К Асгарду путь"
[youtube]oiX4HcSFdyI[/youtube]I
(4) Maribor, neoatheist, Road, RUDACHUR,
May 10 2013, 13:55:07 Новости Black-направления
[youtube]ZYTz6dW53LA[/youtube]
(5) Chasm, HA7tur, Maribor, suseka, Unknown,
May 4 2013, 12:14:25 Sachsonia - Amok (2011)


*Artist: Sachsonia
*Album: Amok
*Year: 2011
*Genre: RAC
*Country: Germany
*Format: mp3@CBR320kbps
*Size: 127MB

Tracklist:
01. Nazi Rock n Roll
02. Amok
03. Meine Religion
04. Blutbeflecktes Geld
05. Trotz Verbot
06. Steh blos wieder auf
07. Prima Stimmung
08. Cheflied
09. Baubude
10. Mein Kind
11. Über uns
12. Ausklang
******************************
Total playing time: 1:00:06

[more=Technical info]
Input File: 01. Sachsonia - Nazi Rock n Roll.mp3
Channels : 2
Sample Rate : 44100
Precision : 16-bit
Duration : 00:06:52.56 = 18193720 samples = 30941.7 CDDA sectors
File Size : 16.6M
Bit Rate : 323k
Sample Encoding: MPEG audio (layer I, II or III)
Comments :
Title=Nazi Rock n Roll
Artist=Sachsonia
Album=Amok
Tracknumber=1
Year=2011
Genre=RAC

[/more]

Register
(9) DarkHorde, GoatFucker, Maribor, Mick Dundee, neoatheist, smes, spiritualdecay666, Thunderbird, добрыйКот,
May 1 2013, 16:44:33 Княжая Пустынь - Вѣчность (2013)
Да,альбомчег супер!
(2) Maribor, добрыйКот,
Apr 30 2013, 17:39:53 Новости Black-направления
Лейблы DER SCHWARZE TOD и AUTODAFE представляют новый релиз:
Княжая Пустынь "Вечность
http://s53.radikal.ru/i140/1304/0b/4d9fcd76f984.jpg
(1) Maribor,
Apr 25 2013, 15:01:32 Summoning - Old Mornings Dawn (2013)
Гениальный альбом 20.gif
(2) alzus, Anataas,
Apr 24 2013, 08:40:59 Новости направления MBM| Symphonic Black Metal| Post-BM
Новый альбом AGATHODAIMON

AGATHODAIMON отправились в студию Kohlekeller в феврале этого года с продюсером Kristian "Kohle" Kohlmannslehner для записи нового альбома "In Darkness", выход которого намечен на 28 июня на Massacre Records и обложку для которого создал Hicham Haddaji из Strychneen Studio.
(1) Maribor,
Apr 24 2013, 08:38:18 Ashen Light - Nothing Else Matters [single] (2013)


*Artist: Ashen Light
*Album: Nothing Else Matters [single]
*Year: 2013
*Genre: Black Metal
*Country: Russian Federation
*Format: mp3@CBR256kbps
*Size: 11MB

Tracklist:
1 - Nothing Else Matters (METALLICA Cover)
******************************
Total playing time: 6:22

Register
(1) Maribor,
Apr 24 2013, 08:27:05 Сварга - Ой, чий то кінь стоїть [single] (2013)


*Artist: Сварга
*Album: Ой, чий то кінь стоїть [single]
*Year: 2013
*Genre: Acoustic
*Country: Russian Federation
*Format: mp3@CBR320kbps
*Size: 6MB

Tracklist:
1. Ой, чий то кінь стоїть
******************************
Total playing time: 2:50

[more=Extended info]Украинская народная песня "Ой, чий то кінь стоїть" в исполнении московской Pagan Metal группы СВАРГА.

В записи принимали участие:
Wolfenhirt - вокал
Павел Гилевич (РОДОГОСТ, Беларусь) - гитара
Anna "Alruna" Oklejewicz (LORD WIND, GRAVELAND, Польша) - альт, скрипка
Александр Косяков - флейта

Сведение и мастеринг - Алексей Стецюк (Drygva studio)[/more]

[more=Technical info]
Input File: Svarga - OyChiyToKinStoit.mp3
Channels : 2
Sample Rate : 44100
Precision : 16-bit
Duration : 00:02:50.14 = 7503086 samples = 12760.4 CDDA sectors
File Size : 6.81M
Bit Rate : 320k
Sample Encoding: MPEG audio (layer I, II or III)
Comments :
Title=Îé, ÷èé òî ê³íü ñòî¿òü
Artist=Ñâàðãà feat. P.Gilevich & Alruna

[/more]

Register
(5) Maribor, neoatheist, Thunderbird, tont, Варонъ,
Apr 19 2013, 08:45:30 Vietah - Kalyhanka (Dlja Njabožczyka) [single] (2013)
Как то скучновато однако 21.gif
(1) Maribor,
Apr 19 2013, 08:44:51 Black Sabbath - God Is Dead? [single] (2013)
О,да они вернулись pray.gif pray.gif pray.gif
(1) Maribor,
Apr 13 2013, 19:59:42 Новости Folk/Pagan/Viking
Graveland - Thunderbolts of the Gods 2013
http://s45.radikal.ru/i108/1304/65/3d6b797abbac.jpg
Track-list of new album:

- Thunderbolts of the Gods
- Red Polaris
- Wolf of the North
- Chamber of Wicked Tears
- Possessed by Steel
- When Hammer Shines (outro)

Album time: 43 minutes

Thers is one sample to listen:



Album will be release by No Colours Records
(4) Fess, InFestus, Maribor, vosmidesijatye,
Apr 9 2013, 17:43:09 Новости Black-направления
Свершилось, дамы и господа!
Предзаказ на новый альбом и сопутствующие товары открыт!
07 июня - теперь уж точно окончательная дата.
http://s57.radikal.ru/i157/1304/f0/c3f5185cb34b.jpg
http://s43.radikal.ru/i099/1304/ed/510c4af15160.jpg
http://s017.radikal.ru/i428/1304/8e/395f5995250e.jpg
(8) alzus, Blackor, HA7tur, hastur, infiltrator, Maribor, suseka, ZVI,
Apr 9 2013, 07:03:29 Новости Black-направления
Основатель BLUT AUS NORD работает над новым опусом THE EYE.

Vindsval, основатель и лидер BLUT AUS NORD, работает над продолжением легендарного альбома THE EYE "Supremacy", выпущенного в 1997-м году.

«Песни и каждый рифф основаны на глубоких и мрачных синт-волнах. Второй альбом станет логическим продолжением "Supremacy". В новых композициях я хотел поймать суть и дух эфирного, холодного и гипнотического блэк-металла старой школы».

Выход нового альбома намечен на первый квартал 2014 года. Кроме того, дабы удовлетворить спрос, первый альбом был переиздан на виниле и в формате диджипак на CD.
(5) Chasm, infiltrator, johnbutoff, Maribor, некрософ,
Apr 8 2013, 15:29:46 HIM - Tears On Tape (2013)
Послушал раз,послушал второй и все мимо.Главный вопрос а где хиты???Альбом очень ровный,нет каких либо выделяющихся песен.Нет драйва как в ранних работах,нет песен которые хотелось бы закинуть в плеер на долго.Фоновый альбом полностью.Бонусный диск со старыми боевиками слушается на ура.
(2) DenisKov, Maribor,

20 Pages V  < 1 2 3 4 5 > » 
- Lo-Fi Version Support form
Copyrights and abuse reports form
Time is now: 22nd June 2021 - 11:11:16