Welcome Guest ( Log In | Register )

История благодарностей участнику goxther ::: Спасибо сказали: 310 раз(а)
Дата поста: В теме: За сообщение: Спасибо сказали:
May 7 2022, 11:10:29 Bloodywood - Rakshak (2022)
ЦИТАТА(Tular @ Feb 22 2022, 11:22:03) *
Наверное, это называется ню-метал. Сиречь неформат.

Альбом в целом плохой. Самые колбасные моменты им более-менее удаются, там и грув, и оголтелость, но разбавлено это все неприличным количеством сопливых и неинтересных мелодий. А там, где хорошо, то однообразно, доходит даже до самоплагиата, что для дебютника вообще смешно.



Эти индусы упоролись в лирику, там всё очень по социальным проблемам и темам, близким индусам. Альбом огонь по многим аспектам. Ребята выбрали свой стиль, смешав фолк, репкор, грув, джент и ещё фиг знает что. Но! Это не значит, что альбом должен всем понравиться. Конечно нет, всегда найдутся те, кому не зайдет. Это нормально. Мне понравился альбом, но я их знаю уже лет 5 и мне заходит их музыка.

ЗЫ Назови хороший альбом, вдруг и мне понравится
(1) mirotvorets,
Apr 20 2022, 09:42:50 Nazareth - Surviving The Law (2022)
перезалейте, пожалуйста, на МЕГУ
(1) thenecromancer,
Dec 2 2021, 13:06:03 Darkestrah - Chong Aryk [ep] (2021)
ЦИТАТА(ent404 @ Dec 2 2021, 09:56:33) *
давно уже нет.


Как быть с Бэндкампом группы, где они упорно продолжают писать "Бишкек, Киргизия" ? Хотя все переехали в Дёйчлянд и живут там. Не уважают Фатерлянд, но уважают Мекен

ЦИТАТА
Всё кака бычна?


Фолка воткнули и звук приличнее, по превью. Весь ЕР не слушал
(1) Chasm,
Sep 8 2021, 09:35:20 Feuille Morte - Feuille Morte (2021)
Мертвый листик чем-то напоминает Peste Noire

К стилю смело можно добавлять melancholic
(1) Hexer,
Sep 7 2021, 14:21:16 Kerbeross - Servants [ep] (2021)

Metalcore only
(1) AHBAnep,
Aug 23 2021, 09:11:28 Ravendust - The Gold Of The Aura (2021)
ЦИТАТА(isvili @ Aug 23 2021, 10:52:17) *
А альбом то просто на отлично, рекомендую 20.gif
LOSSLESS?
Не вылизано, темно, но не зловеще, по тому что мелодично. А зачем тебе зловещее? Выйди ночью на погост и все получишь.



погост.. млова-то какие. Хочешь "зловеще", иди к наливайке, вот там - лютый адЪ и труЪ
(1) Chasm,
Jul 28 2021, 10:00:41 Digimortal - Гравитация (2021)
ЦИТАТА(avather @ Jul 27 2021, 20:27:50) *
Не звучит такое на русском языке.


Потому что понимаешь о чем они поют? Звучит так же, как и любая другая группа в подобном стиле
(3) Alpha_Prime, infiltrator, Ingvar,
May 25 2021, 12:26:53 Sunrise - Equilibria (2021)



Я последний раз Sunrise слушал ещё во времена Trust your soul и этот альбом звучит тяжелее и техничнее, по моим воспоминаниям о группе. Альбом прям хорошо зашёл, гитарки нарезают, барабаны стучат, мелодия имеется. По первому разу - нраицца (с)
(1) Old Vyaine,
Apr 23 2021, 08:47:07 Nordgeist - Frostwinter (2021)
Да - одномужичный проект, да - дурацкие названия, но погонял бендкамп и что-то в этом есть цепляющее. Можно будет ещё послушать и, может быть, проникнуться материалом. Спасибо
(3) infiltrator, Olrak, добрыйКот,
Apr 13 2021, 09:41:53 Carved In Wood - The Beautiful Chaos (2021)
ЦИТАТА
I am a drummer mainly but I also wanna do other things so this project is a creative outlet for me besides my drumming. I've worked on songs for the past year and some time ago I realized that I have quite a lot of material already. Listening through the songs more I felt they fit well together so I decided I'd like to make a solo album. This is what I was able to create with the resources that I have.
What I also wanna say is that as a personal goal I wanted to record as little of the album as possible in small parts, so all of the drums are recorded in whole full takes, no edits or bullshit. Guitars, bass and vocals I'm not that good at so with that it didn't quite work. Anyway, hope you enjoy my album and have a great day!


угадайте, что на первом плане и лучше всего сведено
(3) ErikGoth, infiltrator, krotovich,
Mar 25 2021, 11:12:48 Во Гневе - Furorem (2021)
Забавный проект. Тексты из классики:
3. Плаха - Emile Verhaeren - В.П Фёдоров;
5. Челн томленья - К.Д. Бальмонт;
6. Лесной царь - Johann Wolfgang von Goethe - В.А. Жуковский;
7. МечEmile Verhaeren - М.А. Донской
(1) rominow,
Mar 7 2021, 19:57:29 The Pretty Reckless - Death By Rock And Roll (2021)


*Artist: The Pretty Reckless
*Album: Death By Rock And Roll
*Year: 2021
*Genre: Alternative Rock, Hard Rock, Post-Grunge
*Country: United States
*Format: mp3@CBR320kbps
*Size: 115MB

Tracklist:
01. Death by Rock and Roll (3:54)
02. Only Love Can Save Me Now (5:12)
03. And So It Went (4:30)
04. 25 (5:27)
05. My Bones (4:47)
06. Got So High (3:20)
07. Broomsticks (0:39)
08. Witches Burn (4:54)
09. Standing at the Wall (3:58)
10. Turning Gold (4:10)
11. Rock and Roll Heaven (5:12)
12. Harley Darling (4:19)
******************************
Total playing time: 50:22


Youtube

[more=Technical info]
Input File: 03. And So It Went.mp3
Channels : 2
Sample Rate : 44100
Precision : 16-bit
Duration : 00:04:30.31 = 11920539 samples = 20273 CDDA sectors
File Size : 10.9M
Bit Rate : 321k
Sample Encoding: MPEG audio (layer I, II or III)
Comments :
Title=And So It Went
Artist=The Pretty Reckless
Album=Death By Rock And Roll
Tracknumber=3/12
Year=2021
Genre=Alternative Rock / Hard Rock / Post-Grunge
Discnumber=1/1

[/more]

Register
(2) METALHUNTER, Orionica,
Jan 8 2021, 13:40:39 Konquest - The Night Goes On (2021)
Вокал слабый, как будто Росси сейчас задохнется, музыка вторична. Я хз, чем там восхищаться
(2) Andrew, infiltrator,
Dec 28 2020, 12:06:42 Valentine Wolfe - Only Gossamer My Gown (2020)
ЦИТАТА(Narasimha @ Dec 28 2020, 13:24:25) *
Stuff like this is why Goth has a bad reputation among Metal listeners


Why? I'm not a fan of such music and I dunno many gothic bands, so them sound ok to me. As a gothic band.

However, something wrong in track construction. Each track looks a bit unfinished. Like the band has a good idea how to start, but has no idea how to finish. Drums also sounds weird. It's ok but also kinda unfinished
(2) infiltrator, Taakeferd,
Dec 2 2020, 12:50:27 Foothill Roots - Through The Night (2020)
даже понравилось. очень цепляюще атмосферное произведение. под 2е серое декабря вообще идеально
(1) noxspiritus,
Oct 15 2020, 10:51:09 Shield Anvil - Towards Utopia (2020)
По превью, там где чистый вокал, такой смешной эпик повер crazy.gif
(2) Andrew, Metalass,
Aug 20 2020, 14:29:06 Nihillin - Sociokat (2020)
И здесь, и на ютубе сама группа себя позиционирует как блэк метал комманду, но я слышу дез метал: риффы, вокал, структура, - всё дезня. ИНогда вкрапления блэковой структуры проскакивают. Но это death, имо
(1) judaz,
Aug 20 2020, 14:25:11 Bestiarum - Entropy (2020)
Modern бы еще в тэги добавить
(2) cesar, Metalass,
Jul 27 2020, 10:32:22 In Flames - I, The Mask (2019)
ЦИТАТА(assonik @ Feb 3 2020, 13:04:57) *
[youtube]YFhpGcQfGSA[/youtube]



Вот только этот ФредГитарист - ремесленник, он офигенно всех разносит, имеет хорошую технику игры на гитаре, но в сонграйтинг он уже не может. Группа в которой он играет - JASE - блеклый клон Louna, вокалистка изо всех сил старается петь так же, ну и музон - альтернатива.
В этом и разница, - одни не умеют играть (по мнению экспертов), но умеют создавать, другие - виртуозно повторяют написанные/сыгранные рифы с отточенной до микрона техникой, но придумать что-то новое - это титанический труд для них
(3) BleedingSun, SAPOGi, Starseeker,
Jun 17 2020, 12:59:12 Firelink - Firelink (2020)
Удивительно рваное построение композиций. "Вот это - классный риффак, мне нравится. А вот еще вот так можно сыграть. А вот я так умею! Зацените мой соляк! Я гроулить могу - слушайте" И так все треки.

Но альбом скачаю и послушаю. Всё же что-то есть во всей этой мешанине.
(1) Metalass,
Apr 11 2020, 14:44:32 группа Behemoth
Именно на Бегемотов я в первый раз сходил на концерт. Они у нас в клубе выступали. Шикарное шоу и звук. Ну и после концерта еще где-то полчасика с ними протусили, пока техники паковали их стафф для продолжения тура. Это было лет 12 назад, наверное.
Лично мне они нравятся, от альбома к альбому звучат всё лучше.
По поводу пОзерства, это тема для 14-15 летних спермотоксикозников у которых абсолютизм - возрастная черта. Время чистого блека, образца Бурзум, Батори, Ранних Дарктронов и Иммортала осталось в 90х, там, где он зародился. Звук и музыка должны развиваться. Если этого нет - у группы большие проблемы с творческой жилкой. Рубить одно и тоже - много ума не надо.
Мне еще Септик Флеш последние альбомы нравятся именно за счёт экспериментов со звучанием, мощный симфо блек напор. И какая-то чистая ярость, смешанная с тоской.

ЦИТАТА
но у меня ощущение, что такие группы, как Behemoth несут людям свет.

Светоносные, ага 25.gif
(4) BleedingSun, Foneg, infiltrator, plfan93,
Apr 3 2020, 10:07:52 Kaatayra - Só Quem Viu O Relâmpago À Sua Direita Sabe (2020)
Категорически не согласен со стилем. Это не мелодик блек!

Мне кажется,они довольно точно сами определили свой стиль - acoustic black metal. Там присутствуют ещё амбиент вставки и атмосфера. Но это ни разу не мелодик блек.

Вообще что-то интересное в превью услышалось. Надо будет стянуть и послушать нормально. На удивление что-то интересное из латинской америки
(1) MetalGavno,
Mar 18 2020, 21:12:48 Rawrorr - Cynism (2020)
Жанр в тегах заценил. И ведь есть что-то, в этом определении, близкое к слышимому
(2) infiltrator, Фо,
Mar 1 2020, 08:43:11 Five Finger Death Punch - F8 (2020)


*Artist: Five Finger Death Punch
*Album: F8
*Year: 2020
*Genre: Groove/Alternative Metal
*Country: United States
*Format: mp3@CBR320kbps
*Size: 128MB

Tracklist:
01. F8 1:15
02. Inside Out 3:47
03. Full Circle 3:24
04. Living The Dream 3:38
05. A Little Bit Off 3:13
06. Bottom Of The Top 3:31
07. To Be Alone 3:45
08. Mother May I (Tic Toc) 3:56
09. Darkness Settles In 4:44
10. This Is War 3:14
11. Leave It All Behind 3:33
12. Scar Tissue 2:56
13. Brighter Side Of Grey 4:32
14. Making Monsters (Bonus) 3:05
15. Death Punch Therapy (Bonus) 3:10
16. Inside Out [Radio Edit] (Bonus) 4:18
******************************
Total playing time: 56:01



[more=Extended info]Айвен Муди — вокал
Золтан Батори — ритм-гитара
Джейсон Хук — соло-гитара, бэк-вокал
Крис Кейл — бас-гитара, бэк-вокал
Чарли Энген — ударные
[youtube]https://youtu.be/FsNzdKLKsKQ[/youtube]
[youtube]https://youtu.be/6JLv8FTO_R8[/youtube][/more]

[more=Technical info]
Input File: 03 Full Circle.mp3
Channels : 2
Sample Rate : 44100
Precision : 16-bit
Duration : 00:03:24.43 = 9015495 samples = 15332.5 CDDA sectors
File Size : 8.48M
Bit Rate : 332k
Sample Encoding: MPEG audio (layer I, II or III)
Comments :
Title=Full Circle
Artist=Five Finger Death Punch
Album=F8
Tracknumber=3/16
Year=2020
Genre=Groove Metal / Alternative Metal
Discnumber=1/1

[/more]

Register
(11) Brann, canadaspaceman, Faust2016, Fuezl, infiltrator, lyukon, Noxius, Olethros, VadimBerkut, veselchak_u, zerger,
Feb 16 2020, 12:55:28 Ihsahn - Telemark [ep] (2020)
ЦИТАТА(Battaleon @ Feb 16 2020, 15:10:22) *
Я что-то пропустил походу..когда тут начался НС-симпозиум?))

Волосы русые глаза серые - за арийца сойду если что. crazy.gif


За арейца

З.Ы. ну мне альбом на пару раз послушать можно. Я за музыкальные эксперименты
(2) Ghostb, infiltrator,

4 Pages V   1 2 3 > » 
- Lo-Fi Version Support form
Copyrights and abuse reports form
Time is now: 11th August 2022 - 06:16:59