Welcome Guest ( Log In | Register )

История благодарностей участнику ingram ::: Спасибо сказали: 135 раз(а)
Дата поста: В теме: За сообщение: Спасибо сказали:
Mar 20 2021, 19:57:58 Monte Penumbra & Half Visible Presence - As Blades In The Firmament [split] (2014)
год релиза не 2021, а 2014


released December 11, 2014
(3) infiltrator, Velmi, WOLAND,
Mar 6 2021, 16:32:25 Asbjorn Daemonium De Noctis - Primordial Forest (2020)
очень даже интересно!
(1) WOLAND,
Feb 11 2021, 21:19:40 Today Needed
ЦИТАТА(Occultas @ Feb 10 2021, 10:56:49) *
Ghast (Gbr) - Club Bearer (Single) 2011 https://www.discogs.com/ru/Ghast-Club-Bearer/release/3609038


m4a с добрячими спектрами и не упомянутым на дискогсе бонус треком:

Register
(2) infiltrator, Occultas,
Feb 9 2021, 17:55:25 Ignis Gehenna - Rites Of Transvaluation (2020)
Register


320 kbps
(1) Occultas,
Jan 6 2021, 18:34:39 Morbid Sphere - Demo I [demo] (2021)
В составе проекта музыканты из Ruin Lust, Vanum, Vorde, Vilkacis, Anicon, Yellow Eyes
(1) smysl,
Dec 19 2020, 00:59:04 Denouncement Pyre - Under The Aegis Of Damnation [ep] (2006)
Register
(2) varlam4, Wail,
Dec 7 2020, 16:09:08 Glass Coffin & One Master - Split [split] (2010)
Register
(4) kim666, Lanceatum, noel666, varlam4,
Oct 27 2020, 17:54:19 Abysmal Lord - Cathedral [ep] (2020)


*Artist: Abysmal Lord
*Album: Cathedral [ep]
*Year: 2020
*Genre: Black/Death Metal
*Country: United States
*Format: mp3@VBR128kbps
*Size: 21MB

Tracklist:
1. Introitus 01:12
2. Narthex 01:18
3. Nave 02:02
4. Transept 01:32
5. Choir 01:52
6. Altar 02:17
******************************
Total playing time: 10:13



[more=Technical info]
Input File: 03 Nave.mp3
Channels : 2
Sample Rate : 44100
Precision : 16-bit
Duration : 00:02:00.87 = 5330279 samples = 9065.1 CDDA sectors
File Size : 4.45M
Bit Rate : 295k
Sample Encoding: MPEG audio (layer I, II or III)
Comments :
Title=Nave
Artist=Abysmal Lord
Album=Cathedral
Tracknumber=03/6
Year=2020
Genre=Black/Death Metal
Discnumber=1/1

[/more]

Register
(25) Antichrist, babanguida, Boozer, Bzth, Corpuscul, Doooomed, IncendiaryMight, infiltrator, infozahist, killingod, kim666, Leshiy666, Luminous, Metalass, Occultas, Olethros, Rosen, Rotten_, RUSP73, sacrut, satanist666, thenecromancer, vmdrums, Wail, wanderer73,
Oct 25 2020, 18:42:56 Eternal Torment & Obscurity - New York Split Of Death [split] (2020)
лютейший сплит двух малоизвестных команд!
(2) infiltrator, Proteus_666,
Sep 27 2020, 20:08:47 The Ocean Collective - Phanerozoic Ii: Mesozoic | Cenozoic (2020)
Один из лучших альбомов этого года и лучший у The Ocean

инструментальная версия альбома:

Register
(2) dimitriusk, gena,
Jun 18 2020, 15:40:23 Thorybos - Monuments Of Doom Revolved (2016)
FLAC

Register
(1) Occultas,
Jun 16 2020, 16:31:40 Ringarë - Where Cold Dwells And Winter Once Lay [demo] (2019)


*Artist: Ringarë
*Album: Where Cold Dwells And Winter Once Lay [demo]
*Year: 2019
*Genre: Ambient
*Country: United States
*Format: mp3@CBR320kbps
*Size: 91MB

Tracklist:
1. O'er Winters Shroud 18:40
2. A Paean for Endless Snow 19:41
******************************
Total playing time: 38:21



[more=Technical info]
Input File: 01 - O'er Winters Shroud.mp3
Channels : 2
Sample Rate : 44100
Precision : 16-bit
Duration : 00:18:40.12 = 49397160 samples = 84008.8 CDDA sectors
File Size : 45.0M
Bit Rate : 321k
Sample Encoding: MPEG audio (layer I, II or III)
Comments :
Title=o'er winters shroud
Artist=Ringarë
Album=Where Cold Dwells And Winter Once Lay (demo)
Tracknumber=1/2
Year=2019
Genre=Atmospheric black metal

[/more]

Register
(12) dermarsoran, grimoir, Ildjarn, infiltrator, Maximvs, NappyRob, Occultas, Olethros, Rikardo90, stub888, thenecromancer, zargonath,
Jun 15 2020, 18:16:15 Chaos Echœs - Remains [compilation] (2019)


*Artist: Chaos Echœs
*Album: Remains [compilation]
*Year: 2019
*Genre: Death/Doom Metal
*Country: France
*Format: mp3@VBR279kbps
*Size: 208MB

Tracklist:
Disc 1 - Ecstasy with the Nonexistents
1. Senses of the Nonexistent 05:23
2. Through Kaleidoscopic Haze of Unexpected Extents 02:43
3. 享楽主義 06:23
4. Black Mantra 09:00
5. Interzone VIII 10:16
6. Surrounded and Amazed by These Unplumbed Abysses of the Inverted Sea 03:41
7. Soul Ruiner 07:33
8. Shine on Obsidian! Ego! Ego! Echo Back to the Yearning of the Self! 09:14

Disc 2 - IIIII
1. 享楽主義 09:54
2. I 00:56
3. Pasto nudo (Interzona) 07:26
4. II 00:02
5. Advent of My Genesis 10:54
6. III 00:30
7. Perspectives 03:22
8. IIII 00:57
9. Kaetamine 06:05
10. IIIII 00:32
11. Soul Ruiner 07:19
******************************
Total playing time: 1:42:10



[more=Extended info]"Remains" is a collection of live recordings. The first disc, "Ecstasy with the Nonexistents", is a soundboard recording of a full live set from 2018. Assembled with great care, this set list was only performed in concert once, reinventing the songs, re-arranging pieces from Transient and Mouvement. The second disc, "IIIII", is a compilation of studio outtakes, alternate versions, and live recordings spanning 2012 to 2016.[/more]

[more=Technical info]
Input File: 02. Through Kaleidoscopic Haze of Unexpected Extents.mp3
Channels : 2
Sample Rate : 44100
Precision : 16-bit
Duration : 00:02:43.81 = 7224153 samples = 12286 CDDA sectors
File Size : 6.27M
Bit Rate : 306k
Sample Encoding: MPEG audio (layer I, II or III)
Comments :
Title=Through Kaleidoscopic Haze of Unexpected Extents
Artist=Chaos Echœs
Album=Remains
Tracknumber=02
Year=2019

[/more]

Register
(18) Ainar, Boozer, Doooomed, Hell_Is_Here, Hipgnosis, infiltrator, killingod, marilin, Mogozoz, Morthal, Olethros, Ostinato, quarantine, Rosen, stumpheavyrock, VALERY, vyacheslav, Wail,
Jun 15 2020, 13:47:39 Chaos Echœs - The Unfathomable [ep] (2017)
flac of 16:00 version

Register


anyone has idea where 15:38 version comes from? is it someone's rip or what?
as it's 16:00 in all official sources
(1) milosdjor,
Jun 15 2020, 11:29:28 Kruelty - Immortal Nightmare [ep] (2020)
Anatomia, Coffins, Transgressor наглядно свидетельствуют, что никаких проблем у японцев с дум/детом нет.
(3) AHBAnep, Dargaud, infiltrator,
Jun 13 2020, 17:26:18 200 Stab Wounds - Piles Of Festering Decomposition [ep] (2020)


*Artist: 200 Stab Wounds
*Album: Piles Of Festering Decomposition [ep]
*Year: 2020
*Genre: Death Metal
*Country: United States
*Format: mp3@CBR320kbps
*Size: 22MB

Tracklist:
1. Maggot Casket 02:31
2. Body in the Basement 02:43
3. She Was Already Dead 02:28
******************************
Total playing time: 7:42



[more=Extended info]Свежий релиз от лейбла Maggot Stomp

Lance Buckley Guitars
See also: Subtype Zero, ex-Cringe

Steve Buhl Guitars
See also: Subtype Zero, ex-Cringe

Ezra Cook Bass (2019-present)
See also: ex-Homewrecker

Owen Pooley Drums (2020-present)
See also: Assault, Subtype Zero[/more]

[more=Technical info]
Input File: 01 Maggot Casket.mp3
Channels : 2
Sample Rate : 44100
Precision : 16-bit
Duration : 00:02:31.65 = 6687853 samples = 11373.9 CDDA sectors
File Size : 6.88M
Bit Rate : 363k
Sample Encoding: MPEG audio (layer I, II or III)
Comments :
Title=Maggot Casket
Artist=200 Stab Wounds
Album=Piles of Festering Decomposition
Tracknumber=1/3
Year=2020-04-10
Genre=Death Metal
Discnumber=1/1

[/more]

Register
(13) grimoir, Hell_Is_Here, infiltrator, killingod, Metalass, METALHUNTER, Olethros, Pentium.Disel, Rosen, satanist666, VALERY, varlam4, vyacheslav,
Jun 10 2020, 17:58:34 Lykotonon - Only Our Eyes Are Alive [demo] (2020)


*Artist: Lykotonon
*Album: Only Our Eyes Are Alive [demo]
*Year: 2020
*Genre: Avant-Garde Black/Death Metal
*Country: United States
*Format: mp3@CBR320kbps
*Size: 49MB

Tracklist:
1. Thrown into the World 06:53
2. Algopsychalia 04:20
3. Codex Novum 09:47
******************************
Total playing time: 21:00



[more=Extended info]Shane McCarthy Bass, Vocals
See also: Wayfarer, Cobalt (live)

Isaac Faulk Drums, Electronic percussion
See also: Abysmal Dimensions, Blood Incantation, Stoic Dissention, Wayfarer, Chthonic Deity (live), ex-Centimani, ex-Velnias (live)

Eric van Langenhoven Guitars, Samples, Synths
See also: ex-Centimani, ex-Ninth Empire

Jamie Hansen Guitars, Vocals
See also: Wayfarer, ex-Centimani[/more]

[more=Technical info]
Input File: Lykotonon - Only Our Eyes Are Alive - 02 Algopsychalia.mp3
Channels : 2
Sample Rate : 44100
Precision : 16-bit
Duration : 00:04:20.12 = 11471072 samples = 19508.6 CDDA sectors
File Size : 10.6M
Bit Rate : 325k
Sample Encoding: MPEG audio (layer I, II or III)
Comments :
Title=Algopsychalia
Artist=Lykotonon
Album=Only Our Eyes Are Alive
Tracknumber=2
Year=2020

[/more]

Register
(18) cist, El_Chibo, Hell_Is_Here, infiltrator, jelly_kt, Ludwig Hagen, marilin, metala, milosdjor, Occultas, Olethros, Ostinato, robertho777, Rosen, satanist666, VALERY, vasiljev_sergej, yuratroll,
Apr 24 2020, 19:15:49 Today Needed
ЦИТАТА(AHBAnep @ Apr 24 2020, 15:53:57) *


done 9.gif
(1) AHBAnep,
Apr 24 2020, 19:15:10 Bones - Awaiting Rebirth [ep] (2014)
FLAC

Register
(2) AHBAnep, Boozer,
Apr 24 2020, 15:25:59 Outer Heaven - Live At Saint Vitus, 02​-​22​-​20 [live] (2020)


*Artist: Outer Heaven
*Album: Live At Saint Vitus, 02​-​22​-​20 [live]
*Year: 2020
*Genre: Death Metal
*Country: United States
*Format: mp3@CBR320kbps
*Size: 82MB

Tracklist:
1. Vortex Of Thought 03:59
2. What Lies Beneath 02:11
3. Multicellular Savagery 03:26
4. Echoes From Beyond 03:07
5. Death Worship 04:00
6. Tortured Winds 02:21
7. Bloodspire 04:58
8. Pulsating Swarm 03:45
9. Decaying Realms 05:42
******************************
Total playing time: 33:29



[more=Technical info]
Input File: 02 - What Lies Beneath (Live).mp3
Channels : 2
Sample Rate : 48000
Precision : 16-bit
Duration : 00:02:11.52 = 6312960 samples ~ 9864 CDDA sectors
File Size : 5.27M
Bit Rate : 320k
Sample Encoding: MPEG audio (layer I, II or III)
Comments :
Title=What Lies Beneath (Live)
Artist=Outer Heaven
Album=Live at Saint Vitus Bar, 02-22-20
Tracknumber=2/9
Year=2020
Genre=Metal

[/more]

Register
(5) Dark Sage, infiltrator, Olethros, Rosen, varlam4,
Feb 2 2020, 00:01:20 Dawn Ray'd - Behold Sedition Plainsong (2019)
such funny butthurt in last three comments 1488.gif
(3) Forest, Old Vyaine, Vertigo,
Jan 30 2020, 23:54:46 Today Needed (1) thenecromancer,
Nov 24 2019, 19:37:35 Cenotafio - Larvae Tedeum Teratos (2019)
почему тема в low bitrate болтается, если тут 320?
(1) Occultas,
Oct 31 2019, 10:45:06 Sankara - Total Abolition Of All Hierarchy (2019)
демка была просто ядерной силы, посмотрим, на что они на полноформатнике сподобились
(1) Occultas,
Sep 30 2019, 17:42:42 Inoculation - Anatomize [ep] (2019)
Permission Denied по ссылке вместо файла
(3) Ambercandle, infiltrator, Wolfmirovich,

2 Pages V   1 2 >
- Lo-Fi Version Support form
Copyrights and abuse reports form
Time is now: 2nd August 2021 - 13:51:59