Welcome Guest ( Log In | Register )

История благодарностей участнику KINO ::: Спасибо сказали: 9967 раз(а)
Дата поста: В теме: За сообщение: Спасибо сказали:
Nov 3 2017, 02:48:39 Moratory - Конфронтация (2017)


*Artist: Moratory
*Album: Конфронтация
*Year: 2017
*Genre: Crossover/Metalpunk/D-beat
*Country: Russian Federation
*Format: mp3@CBR320kbps
*Size: 143MB

Tracklist:
1. Headhunter 03:43
2. Страдаем Мы/We Suffer 02:36
3. Хватит!/Enough! 01:44
4. Родина Ждет/The Homeland Awaits 01:45
5. Дети Войны/Children of War (feat. Alex Distress) 03:04
6. Свободу Политзаключенным/Free the Political Prisoners 03:15
7. Спасибо Вам/Thank You All 02:18
8. Welcome to Hell 02:19
9. Конфронтация/Confrontation 03:04
10. Поколение Рабов/Generation of the Slaves 02:11
11. Год за Годом/Year after Year (Bonus Track) 02:00
******************************
Total playing time: 27:59


vk.com

[more=Technical info]
Input File: 01_Headhunter.mp3
Channels : 2
Sample Rate : 44100
Precision : 16-bit
Duration : 00:03:43.56 = 9858776 samples = 16766.6 CDDA sectors
File Size : 15.9M
Bit Rate : 569k
Sample Encoding: MPEG audio (layer I, II or III)
Comments :
Title=Headhunter
Artist=Moratory
Album=Конфронтация
Tracknumber=01/11
Year=2017
Genre=Metal/Punk
Discnumber=1/1

[/more]

Register
(5) AndreFrancis, coraxo, DMIYUR, gwar, infiltrator,
Sep 20 2017, 10:51:14 Siberian Meat Grinder - Metal Bear Stomp (2017)


*Artist: Siberian Meat Grinder
*Album: Metal Bear Stomp
*Year: 2017
*Genre: Crossover/Thrash Metal/Hardcore
*Country: Russian Federation
*Format: mp3@CBR320kbps
*Size: 93MB

Tracklist:
01. Ruder Than Thou
02. Hunt the Steel
03. Metal Bear Stomp
04. Can't Stop Won't Stop
05. No Way Back
06. Enter Bearface
07. No Sleep Till Hell
08. Style
09. Get Busy
10. Face the Clan 2017
11. Eternal Crusade
12. Walking Tall 2017
******************************
Total playing time: 39:43

vk.com


[more=Technical info]
Input File: 01 - Ruder Than Thou.mp3
Channels : 2
Sample Rate : 44100
Precision : 16-bit
Duration : 00:03:19.44 = 8795392 samples = 14958.1 CDDA sectors
File Size : 8.15M
Bit Rate : 327k
Sample Encoding: MPEG audio (layer I, II or III)
Comments :
Title=Ruder Than Thou
Artist=Siberian Meat Grinder
Album=Metal Bear Stomp
Tracknumber=1/12
Year=2017

[/more]

Register
(15) Aresson, Boozer, DarkHorde, ExeThrash, Kalnasra, Kasper969, KVRT, lldma, metala, METALHUNTER, oldvarg, Rosen, TeamatSE, varlam4, wreak,
Sep 7 2017, 21:18:31 Corrupt Vision - Corrupt Vision [ep] (2017)


*Artist: Corrupt Vision
*Album: Corrupt Vision [ep]
*Year: 2017
*Genre: Crack Rock Steady/Powerviolence/Crust
*Country: United States
*Format: mp3@CBR320kbps
*Size: 29MB

Tracklist:
1. Death and Taxes 03:25
2. Brick By Brick 01:35
3. Uncertain 02:31
4. Blood In, Blood Out 01:31
5. Steadfast 02:56
******************************
Total playing time: 11:58



[more=Technical info]
Input File: Corrupt Vision - Corrupt Vision - 01 Death and Taxes.mp3
Channels : 2
Sample Rate : 44100
Precision : 16-bit
Duration : 00:03:25.24 = 9050952 samples = 15392.8 CDDA sectors
File Size : 8.42M
Bit Rate : 328k
Sample Encoding: MPEG audio (layer I, II or III)
Comments :
Title=Death and Taxes
Artist=Corrupt Vision
Album=Corrupt Vision
Tracknumber=1
Year=2017

[/more]

Register
(1) morbidangelo,
Sep 7 2017, 21:04:38 Agorhy - Infrator [ep] (2017)


*Artist: Agorhy
*Album: Infrator [ep]
*Year: 2017
*Genre: Death Metal/Grindcore
*Country: Brazil
*Format: mp3@CBR128kbps
*Size: 17MB

Tracklist:
1. Apoteose Encarniçada 02:48
2. Infrator 02:55
3. Maquila Infernal 02:37
4. Amazônia Nunca Mais* 03:36
5. Stressofrenia 02:33
6. Capitalist Perversion** 04:10
******************************
Total playing time: 18:39



[more=Extended info]All music & lyrics by Agorhy except:
* by Gordo, Jão, Jabá & Spaghetti
℗1989 Estúdio Eldorado.
©1989 Roadrunner Productions B.V.
** by William Fernandez, Patrick & Waldner Fernandez
℗1989 Morte Pacífica B.V.[/more]

Register
(3) Rosen, satanist666, varlam4,
Sep 7 2017, 20:37:21 Drawn In - Voluntary Slavery [ep] (2017)


*Artist: Drawn In
*Album: Voluntary Slavery [ep]
*Year: 2017
*Genre: Crossover/Thrash Metal/Hardcore
*Country: United Kingdom
*Format: mp3@CBR320kbps
*Size: 37MB

Tracklist:
1. worldwide genocide 04:24
2. injustice for all 02:43
3. voluntary slavery 03:24
4. certain death 03:29
******************************
Total playing time: 14:00



[more=Technical info]
Input File: Drawn In - voluntary slavery - 01 worldwide genocide.mp3
Channels : 2
Sample Rate : 44100
Precision : 16-bit
Duration : 00:04:24.25 = 11653557 samples = 19819 CDDA sectors
File Size : 10.8M
Bit Rate : 326k
Sample Encoding: MPEG audio (layer I, II or III)
Comments :
Title=worldwide genocide
Artist=Drawn In
Album=voluntary slavery
Tracknumber=1
Year=2017

[/more]

Register
(5) ExeThrash, METALHUNTER, Rosen, varlam4, wreak,
Sep 7 2017, 20:18:26 Komma' - Mental Paralysis (2017)


*Artist: Komma'
*Album: Mental Paralysis
*Year: 2017
*Genre: Sludgecore/Mathgrind/Post-Metal
*Country: Russian Federation
*Format: mp3@CBR320kbps
*Size: 69MB

Tracklist:
1. Shlam 03:13
2. Dog's Head 03:17
3. Bad Time To Die 02:37
4. Karma -/+ 01:00
5. Uroboros(AMMOK) 05:38
6. Burn, Salamandra!(AMMOK) 05:02
7. Parable(AMMOK) 04:43
8. Fever(AMMOK) 04:06
******************************
Total playing time: 29:36


vk.com

[more=Extended info]Female vocal[/more]

[more=Technical info]
Input File: KOMMA\' - Mental Paralysis - 01 Shlam.mp3
Channels : 2
Sample Rate : 44100
Precision : 16-bit
Duration : 00:03:11.63 = 8450707 samples = 14372 CDDA sectors
File Size : 7.78M
Bit Rate : 325k
Sample Encoding: MPEG audio (layer I, II or III)
Comments :
Title=Shlam
Artist=KOMMA'
Album=Mental Paralysis
Tracknumber=1
Year=2017

[/more]

Register
(5) Hell_Is_Here, metala, Rosen, TAKATAEL, varlam4,
Sep 7 2017, 20:07:36 White Moth Throne - Behead The Oppressors [ep] (2017)


*Artist: White Moth Throne
*Album: Behead The Oppressors [ep]
*Year: 2017
*Genre: Blackened Hardcore/Doom/Grind
*Country: United States
*Format: mp3@CBR320kbps
*Size: 32MB

Tracklist:
1. Circling Pack of Nocturnes 05:10
2. Tendons and Marrow 02:33
3. Dead Moss Hanging from Trees 01:58
4. Hooves and Fangs 03:35
******************************
Total playing time: 13:16



[more=Technical info]
Input File: White Moth Throne - Behead the Oppressors - 01 Circling Pack of Nocturnes.mp3
Channels : 2
Sample Rate : 44100
Precision : 16-bit
Duration : 00:05:10.68 = 13700856 samples = 23300.8 CDDA sectors
File Size : 12.5M
Bit Rate : 323k
Sample Encoding: MPEG audio (layer I, II or III)
Comments :
Title=Circling Pack of Nocturnes
Artist=White Moth Throne
Album=Behead the Oppressors
Tracknumber=1
Year=2016

[/more]

Register
(6) Doooomed, Hell_Is_Here, Rosen, VALERY, varlam4, wreak,
Sep 7 2017, 19:58:11 Love/Lust - Sorrows (2017)


*Artist: Love/Lust
*Album: Sorrows
*Year: 2017
*Genre: Post-Black Metal/Screamo
*Country: Germany
*Format: mp3@CBR320kbps
*Size: 60MB

Tracklist:
1. wrapped in bedsheets 08:35
2. i lie awake 04:46
3. and drift away 11:25
******************************
Total playing time: 24:46



[more=Extended info]fuck nsbm.
fuck nazi sympathy.
ACAB.[/more]

[more=Technical info]
Input File: LOVE-LUST - sorrows - 01 wrapped in bedsheets.mp3
Channels : 2
Sample Rate : 44100
Precision : 16-bit
Duration : 00:08:35.13 = 22717233 samples = 38634.8 CDDA sectors
File Size : 20.7M
Bit Rate : 322k
Sample Encoding: MPEG audio (layer I, II or III)
Comments :
Title=wrapped in bedsheets
Artist=LOVE/LUST
Album=sorrows
Tracknumber=1
Year=2017

[/more]

Register
(10) 1968_janeart, Bloodn Lord, Buregon, Rosen, Sanc, satanist666, stone88, TAKATAEL, TodesGott, varlam4,
Sep 7 2017, 19:16:36 Terrorian - Demo [demo] (2017)


*Artist: Terrorian
*Album: Demo [demo]
*Year: 2017
*Genre: Grindcore/Powerviolence/Hardcore Punk
*Country: United States
*Format: mp3@CBR320kbps
*Size: 18MB

Tracklist:
1. Same Shit, New War 01:23
2. Bystander 01:19
3. By The Throat 01:14
4. Under The Influence 01:01
5. Americanized Is To Be Dehumanized 00:42
6. Feel Like A Man (Negative FX) 01:48
******************************
Total playing time: 7:27



[more=Technical info]
Input File: TERRORAIN - Demo 2017 - 01 Same Shit, New War.mp3
Channels : 2
Sample Rate : 44100
Precision : 16-bit
Duration : 00:01:23.63 = 3687863 samples = 6271.88 CDDA sectors
File Size : 3.45M
Bit Rate : 330k
Sample Encoding: MPEG audio (layer I, II or III)
Comments :
Title=Same Shit, New War
Artist=TERRORAIN
Album=Demo 2017
Tracknumber=1
Year=2017

[/more]

Register
(3) Rosen, varlam4, wgs73,
Aug 28 2017, 09:57:40 Terminator 666 - Death Of All [demo] (2017)


*Artist: Terminator 666
*Album: Death Of All [demo]
*Year: 2017
*Genre: Grindcore/Powerviolence/Mincecore
*Country: Russian Federation
*Format: mp3@CBR320kbps
*Size: 18MB

Tracklist:
1. Spinner 01:07
2. Total Mincecore Worshipper 01:35
3. Stench Of Mankind 01:47
4. Death Of Mankind 00:06
5. Psychodelic Warrior 666 02:28
******************************
Total playing time: 7:03


vk.com

[more=Technical info]
Input File: Terminator 666 - DEATH OF ALL DEMO 2017 - 01 Spinner.mp3
Channels : 2
Sample Rate : 44100
Precision : 16-bit
Duration : 00:01:07.69 = 2985085 samples = 5076.68 CDDA sectors
File Size : 2.87M
Bit Rate : 339k
Sample Encoding: MPEG audio (layer I, II or III)
Comments :
Title=Spinner
Artist=Terminator 666
Album=DEATH OF ALL DEMO 2017
Tracknumber=1
Year=2017

[/more]

Register
(1) Rosen,
Aug 24 2017, 17:40:37 Anthropocide - Demo [demo] (2017)


*Artist: Anthropocide
*Album: Demo [demo]
*Year: 2017
*Genre: Grindcore/Powerviolence/Fastcore
*Country: Germany
*Format: mp3@CBR320kbps
*Size: 16MB

Tracklist:
1. Intro 00:51
2. Ignorance 00:35
3. Considering Bloodshed 00:20
4. Profit Palliates 00:27
5. Fuck Tradition 00:33
6. Circus of Reality 00:33
7. Death by Drone 00:30
8. Empire of Dust 00:40
9. Concept:[CHAOS] 00:48
10. Nonation 01:19
******************************
Total playing time: 6:36



[more=Technical info]
Input File: Anthropocide - Demo - 01 Intro.mp3
Channels : 2
Sample Rate : 44100
Precision : 16-bit
Duration : 00:00:51.23 = 2259243 samples = 3842.25 CDDA sectors
File Size : 2.11M
Bit Rate : 330k
Sample Encoding: MPEG audio (layer I, II or III)
Comments :
Title=Intro
Artist=Anthropocide
Album=Demo
Tracknumber=1
Year=2017

[/more]

Register
(2) necromasochist, Rosen,
Aug 24 2017, 17:34:30 Askevault - Demo [demo] (2017)


*Artist: Askevault
*Album: Demo [demo]
*Year: 2017
*Genre: Death Metal/Crust/D-beat
*Country: United States
*Format: mp3@CBR320kbps
*Size: 70MB

Tracklist:
1. Hall of Mirrors 03:05
2. Denizens Decline 04:40
3. Termites in The Woodpile 03:22
4. Nothing Ever Changes 04:15
5. Marauding Cruelty 04:00
6. Blacken The Skies 04:02
7. Trench Teeth 06:50
******************************
Total playing time: 30:14



[more=Technical info]
Input File: Askevault - Demo 2017 - 01 Hall of Mirrors.mp3
Channels : 2
Sample Rate : 44100
Precision : 16-bit
Duration : 00:03:05.75 = 8191443 samples = 13931 CDDA sectors
File Size : 7.58M
Bit Rate : 326k
Sample Encoding: MPEG audio (layer I, II or III)
Comments :
Title=Hall of Mirrors
Artist=Askevault
Album=Demo 2017
Tracknumber=1
Year=2017

[/more]

Register
(3) coraxo, necromasochist, Rosen,
Aug 24 2017, 17:24:27 DER - Rancor [ep] (2017)


*Artist: DER
*Album: Rancor [ep]
*Year: 2017
*Genre: Grindcore
*Country: Brazil
*Format: mp3@CBR320kbps
*Size: 25MB

Tracklist:
1. Amargo 00:53
2. Mágoa 01:34
3. Má Vontade 01:07
4. Rancor 01:14
5. Ressentimento 01:48
6. Raiva 03:10
******************************
Total playing time: 9:46



[more=Technical info]
Input File: DER - Rancor - 01 Amargo.mp3
Channels : 2
Sample Rate : 44100
Precision : 16-bit
Duration : 00:00:54.03 = 2382547 samples = 4051.95 CDDA sectors
File Size : 2.30M
Bit Rate : 341k
Sample Encoding: MPEG audio (layer I, II or III)
Comments :
Title=Amargo
Artist=DER
Album=Rancor
Tracknumber=1
Year=2017

[/more]

Register
(4) Grinder999, necromasochist, Rosen, satanist666,
Aug 24 2017, 17:17:00 Justinhate - Marrow (2017)


*Artist: Justinhate
*Album: Marrow
*Year: 2017
*Genre: Dark Metallic Hardcore
*Country: Denmark
*Format: mp3@CBR320kbps
*Size: 86MB

Tracklist:
1. Infantem 03:59
2. Ignis 03:41
3. Wittenoom 04:13
4. Apostasy 03:15
5. Evigheden skal knuses 04:24
6. Apophis 03:44
7. Nepenthe 02:48
8. Marrow 03:32
9. Cloacina 03:17
10. Nyctophilia 04:10
******************************
Total playing time: 37:03



[more=Technical info]
Input File: JUSTINHATE - 1 Infantem.mp3
Channels : 2
Sample Rate : 44100
Precision : 16-bit
Duration : 00:03:59.95 = 10581575 samples = 17995.9 CDDA sectors
File Size : 9.72M
Bit Rate : 324k
Sample Encoding: MPEG audio (layer I, II or III)
Comments :
Title=Infantem
Artist=JUSTINHATE
Album=Marrow
Tracknumber=1/10
Year=2017

[/more]

Register
(9) A.L.Rapsod, AndreFrancis, Buregon, DMIYUR, metala, Oath19, Ostinato, scrollbar, Victim of fate,
Aug 24 2017, 15:45:58 Gloryhole Guillotine - Amalgamation [ep] (2017)


*Artist: Gloryhole Guillotine
*Album: Amalgamation [ep]
*Year: 2017
*Genre: Grindcore
*Country: United States
*Format: mp3@CBR320kbps
*Size: 12MB

Tracklist:
1. 撲殺 (Bokusatsu) 00:50
2. Earthbound Plague 00:47
3. Pigs 01:12
4. Buried But Not Dead 00:52
5. Guillotine 00:47
******************************
Total playing time: 4:28



[more=Technical info]
Input File: Gloryhole Guillotine - Amalgamation - 01 ?? (Bokusatsu).mp3
Channels : 2
Sample Rate : 44100
Precision : 16-bit
Duration : 00:00:50.89 = 2244293 samples = 3816.82 CDDA sectors
File Size : 2.13M
Bit Rate : 334k
Sample Encoding: MPEG audio (layer I, II or III)
Comments :
Title=ж’Іж®є (Bokusatsu)
Artist=Gloryhole Guillotine
Album=Amalgamation
Tracknumber=1
Year=2017

[/more]

Register
(4) Rosen, satanist666, uk82, varlam4,
Aug 24 2017, 15:29:51 Kriegsmann - Kriegsmann Noise Terror [ep] (2017)


*Artist: Kriegsmann
*Album: Kriegsmann Noise Terror [ep]
*Year: 2017
*Genre: Death Metal/Crust
*Country: Poland
*Format: mp3@CBR128kbps
*Size: 10MB

Tracklist:
1. Towebah 02:19
2. Jom Hara 01:26
3. Jom Szoa 01:32
4. Jom Szofar 01:58
5. Szeol 02:12
6. Jom Szoa-Noise Version 01:32
******************************
Total playing time: 10:59



Register
(1) Rosen,
Aug 19 2017, 19:26:00 Eat The Dark - Lord Muc [ep] (2017)


*Artist: Eat The Dark
*Album: Lord Muc [ep]
*Year: 2017
*Genre: Blackened Sludge/Doom Metal
*Country: Ireland
*Format: mp3@CBR320kbps
*Size: 32MB

Tracklist:
1. In The Way Of 05:32
2. Egregious Path 03:40
3. Come Reap 04:11
******************************
Total playing time: 13:23



[more=Technical info]
Input File: Eat The Dark - Lord Muc - 01 In The Way Of.mp3
Channels : 2
Sample Rate : 44100
Precision : 16-bit
Duration : 00:05:32.13 = 14646713 samples = 24909.4 CDDA sectors
File Size : 13.5M
Bit Rate : 324k
Sample Encoding: MPEG audio (layer I, II or III)
Comments :
Title=In The Way Of
Artist=Eat The Dark
Album=Lord Muc
Tracknumber=1
Year=2017

[/more]

Register
(8) marilin, Rosen, Sabbathian, Sanc, stub888, VALERY, vasiljev_sergej, wreak,
Aug 19 2017, 18:50:10 Comity - A Long, Eternal Fall (2017)


*Artist: Comity
*Album: A Long, Eternal Fall
*Year: 2017
*Genre: Mathcore/Dark Hardcore/Grindcore
*Country: France
*Format: mp3@CBR128kbps
*Size: 43MB

Tracklist:
1. I 03:39
2. II 04:05
3. III 05:20
4. IV 05:24
5. V 05:19
6. VI 06:30
7. VII 11:30
8. VIII 05:09
******************************
Total playing time: 46:56

bandcamp.com

Register
(3) metala, Rosen, Sanc,
Aug 19 2017, 18:26:31 Strick - Monotonie [ep] (2017)


*Artist: Strick
*Album: Monotonie [ep]
*Year: 2017
*Genre: Black Metal/Grindcore
*Country: Germany
*Format: mp3@CBR320kbps
*Size: 56MB

Tracklist:
1. Monotonie 01:46
2. Eisenkreuz 01:27
3. Worte wie Hallen 00:35
4. Capitalist Society 02:36
5. Live Set 17:01
******************************
Total playing time: 23:25



[more=Technical info]
Input File: STRICK - Monotonie - 01 Monotonie.mp3
Channels : 2
Sample Rate : 44100
Precision : 16-bit
Duration : 00:01:46.67 = 4704015 samples = 8000.03 CDDA sectors
File Size : 4.38M
Bit Rate : 329k
Sample Encoding: MPEG audio (layer I, II or III)
Comments :
Title=Monotonie
Artist=STRICK
Album=Monotonie
Tracknumber=1
Year=2017

[/more]

Register
(5) Buregon, METALHUNTER, Rosen, Sanc, satanist666,
Aug 19 2017, 17:44:21 Cynosure - Vitriol [ep] (2017)


*Artist: Cynosure
*Album: Vitriol [ep]
*Year: 2017
*Genre: Technical Death Metal
*Country: United States
*Format: mp3@CBR320kbps
*Size: 46MB

Tracklist:
1.Postnatal Cremation 03:27
2. Children of Dust And Ash 05:57
3. Immolation Parade 05:30
4. Nicaea 04:41
******************************
Total playing time: 19:35



[more=Technical info]
Input File: Cynosure - Vitriol EP - 01 Postnatal Cremation.mp3
Channels : 2
Sample Rate : 44100
Precision : 16-bit
Duration : 00:03:27.09 = 9132757 samples = 15531.9 CDDA sectors
File Size : 8.54M
Bit Rate : 330k
Sample Encoding: MPEG audio (layer I, II or III)
Comments :
Title=Postnatal Cremation
Artist=Cynosure
Album=Vitriol EP
Tracknumber=1
Year=2017

[/more]

Register
(15) Buregon, Corpuscul, Hell_Is_Here, KeeLs, Korpse, metala, MMMMM, morbidangelo, Rosen, satanist666, StabWound, SymbyoticEntity, VALERY, vyacheslav, wreak,
Aug 19 2017, 17:30:01 Vex - Tunes Of Our Life (2017)


*Artist: Vex
*Album: Tunes Of Our Life
*Year: 2017
*Genre: Hardcore Punk
*Country: Hungary
*Format: mp3@CBR320kbps
*Size: 27MB

Tracklist:
1. Riot 01:52
2. Burn 01:12
3. King orbán 01:05
4. Hypochondria 01:40
5. Can you feel it? 01:10
6. Borders 01:14
7. My choice 01:02
8. Véget ér 02:01
******************************
Total playing time: 11:16



[more=Extended info]Female Vocal[/more]

[more=Technical info]
Input File: Vex - Tunes of our life - 01 Riot.mp3
Channels : 2
Sample Rate : 44100
Precision : 16-bit
Duration : 00:01:53.07 = 4986299 samples = 8480.1 CDDA sectors
File Size : 4.63M
Bit Rate : 328k
Sample Encoding: MPEG audio (layer I, II or III)
Comments :
Title=Riot
Artist=Vex
Album=Tunes of our life
Tracknumber=1
Year=2017

[/more]

Register
(1) AndreFrancis,
Aug 19 2017, 17:21:03 Blackseer - Dawn Of Death [ep] (2017)


*Artist: Blackseer
*Album: Dawn Of Death [ep]
*Year: 2017
*Genre: Crossover/Thrash/Groove Metal
*Country: United States
*Format: mp3@CBR320kbps
*Size: 46MB

Tracklist:
1. War Hungry 03:32
2. Ceaseless Destruction 02:48
3. Covenant of the Damned 03:33
4. The Devil's Artifice (featuring Don Gordon of Swing Low) 03:28
5. Dawn of Death 04:31
******************************
Total playing time: 17:52



[more=Technical info]
Input File: blackseer - Dawn of Death EP - 01 War Hungry.mp3
Channels : 2
Sample Rate : 44100
Precision : 16-bit
Duration : 00:03:33.07 = 9396563 samples = 15980.5 CDDA sectors
File Size : 8.72M
Bit Rate : 327k
Sample Encoding: MPEG audio (layer I, II or III)
Comments :
Title=War Hungry
Artist=blackseer
Album=Dawn of Death EP
Tracknumber=1
Year=2017

[/more]

Register
(5) boby9052, metala, METALHUNTER, Rosen, wreak,
Aug 19 2017, 16:35:08 LULU - We're About To Throw Up [ep] (2017)


*Artist: LULU
*Album: We're About To Throw Up [ep]
*Year: 2017
*Genre: Hardcore Punk/Fastcore
*Country: Italy
*Format: mp3@CBR320kbps
*Size: 14MB

Tracklist:
1. Wait in Vain 00:48
2. Biting Flesh 00:46
3. Barrio 01:12
4. Can't Last 00:42
5. Pig 00:35
6. Diy 00:42
7. Fast 'Till The Day 01:04
******************************
Total playing time: 5:49



[more=Extended info]Female Vocal[/more]

[more=Technical info]
Input File: LULU - We\'re About To Throw Up - 01 Wait in Vain.mp3
Channels : 2
Sample Rate : 44100
Precision : 16-bit
Duration : 00:00:48.78 = 2150978 samples = 3658.13 CDDA sectors
File Size : 1.99M
Bit Rate : 327k
Sample Encoding: MPEG audio (layer I, II or III)
Comments :
Title=Wait in Vain
Artist=LULU
Album=We're About To Throw Up
Tracknumber=1
Year=2017

[/more]

Register
(1) DarkHorde,
Aug 16 2017, 17:20:35 Стахановцы - Ништяк (2017)


*Artist: Стахановцы
*Album: Ништяк
*Year: 2017
*Genre: Thrash Metal
*Country: Russian Federation
*Format: mp3@CBR320kbps
*Size: 90MB

Tracklist:
1. час испытания 03:34
2. Ништяк 02:33
3. Мы 03:23
4. Прогресс 02:44
5. Алёшка 02:45
6. Как лентяй работу искал 03:02
7. Арматур Бетонович 02:30
8. Шахтёр! Шахтёр! 03:08
9. Что не следует раскопали 02:28
10. Гонки на вагонетках 02:55
11. Пост ШахтКор 04:02
12. Memories Of Non Forgiveness (Manic Depression cover) 05:11
******************************
Total playing time: 38:15


vk.com

[more=Technical info]
Input File: 01-Стахановцы-Час испытания.mp3
Channels : 2
Sample Rate : 44100
Precision : 16-bit
Duration : 00:03:34.55 = 9461479 samples = 16091 CDDA sectors
File Size : 8.57M
Bit Rate : 320k
Sample Encoding: MPEG audio (layer I, II or III)
Comments :
Title=×àñ Èñïûòàíèÿ
Artist=Ñòàõàíîâöû
Album=ГЌГЁГёГІГїГЄ
Tracknumber=1
Year=2017

[/more]

Register
(30) akym, andreikun, Aresson, avkruchinin, boby9052, DarkHorde, Diflock, Foneg, Kasper969, LightWizard, METALHUNTER, metaljan, Mplast, Old Vyaine, oldvarg, postal67, Rosen, russ777, Saalingurth, Samaritianin, SatanicPanzer, scrollbar, SymbyoticEntity, Tular, varlam4, victorinox, wgs73, wreak, zaqxsw, Язва,
Aug 14 2017, 17:17:23 Selkäsauna - Pyromaani (2017)


*Artist: Selkäsauna
*Album: Pyromaani
*Year: 2017
*Genre: Crust/Hardcore Punk
*Country: Finland
*Format: mp3@CBR320kbps
*Size: 46MB

Tracklist:
1. Haista vittu 00:38
2. Pyromaani 01:28
3. En Tunne Kipua 02:47
4. Satanan Juopot 01:18
5. Selvinpäin 01:43
6. Herää Kuleman 01:34
7. Heikko Veikko 01:43
8. Tuomipäivä 01:14
9. Jumala Sanoi 01:22
10. Sinun Elämää Minun Vankila 02:02
11. 7 Päivät 01:30
12. Jokela 00:49
13. Sodan Sankarit 01:26
******************************
Total playing time: 19:34



[more=Technical info]
Input File: Selk?sauna - Pyromaani - 01 Haista vittu.mp3
Channels : 2
Sample Rate : 44100
Precision : 16-bit
Duration : 00:00:38.33 = 1690133 samples = 2874.38 CDDA sectors
File Size : 1.63M
Bit Rate : 341k
Sample Encoding: MPEG audio (layer I, II or III)
Comments :
Title=Haista vittu
Artist=Selkäsauna
Album=Pyromaani
Tracknumber=1
Year=2017

[/more]

Register
(3) AndreFrancis, Buregon, DarkHorde,

106 Pages V   1 2 3 > » 
- Lo-Fi Version Support form
Copyrights and abuse reports form
Time is now: 27th September 2020 - 06:05:31