Welcome Guest ( Log In | Register )

История благодарностей участнику Velmi ::: Спасибо сказали: 51422 раз(а)
Дата поста: В теме: За сообщение: Спасибо сказали:
Yesterday, 11:36:15 Vampiric Funeral - Imperialism (2021)


*Artist: Vampiric Funeral
*Album: Imperialism
*Year: 2021
*Genre: Black Metal
*Country: Mexico
*Format: mp3@CBR320kbps
*Size: 94MB

Tracklist:
1. Black Orchestra 01:21
2. Dark Imperial Blood 03:02
3. Morbid Palace of Cain 03:16
4. Under a Mantle of Blood 03:28
5. Mictlan 05:14
6. On the Treshold of the Night 03:47
7. Dark Blood Vlad Tepes 03:27
8. Astral Cosmogony 07:56
9. Lord of the Shadows 05:32
10. Main Temple 02:34
******************************
Total playing time: 39:37

Preview 1

[more=Technical info]
Input File: 03. Morbid Palace of Cain.mp3
Channels : 2
Sample Rate : 44100
Precision : 16-bit
Duration : 00:03:16.30 = 8656742 samples = 14722.4 CDDA sectors
File Size : 8.09M
Bit Rate : 330k
Sample Encoding: MPEG audio (layer I, II or III)
Comments :
Title=Morbid Palace of Cain
Artist=Vampiric Funeral
Album=Imperialism
Tracknumber=03/10
Year=2021
Genre=Black Metal

[/more]

Register
(15) aleon, AlexSmith, artscald, Carcharoth, deadterror, judaz, kim666, Ostinato, robertho777, stormhatt, supremo, VALERY, varlam4, Wail, Абигор,
Yesterday, 08:25:42 Orlok - The Dark Knell (2021)


*Artist: Orlok
*Album: The Dark Knell
*Year: 2021
*Genre: Raw Black Metal
*Country: Finland
*Format: mp3@CBR320kbps
*Size: 98MB

Tracklist:
1. Strigoi Metal Holocaust 07:30
2. In Transylvania 03:32
3. Vampirized 03:53
4. Demons of Darkness 06:51
5. The Dark Knell 02:18
6. Imperial Grail of Satan 04:48
7. Catafalque 05:40
8. Black Spells of Funeral 08:07
******************************
Total playing time: 42:39

[more=Extended info]Werewolf Records - EVIL-079[/more]

[more=Technical info]
Input File: 03. Vampirized.mp3
Channels : 2
Sample Rate : 44100
Precision : 16-bit
Duration : 00:03:53.90 = 10314770 samples = 17542.1 CDDA sectors
File Size : 9.43M
Bit Rate : 323k
Sample Encoding: MPEG audio (layer I, II or III)
Comments :
Title=Vampirized
Artist=Orlok
Album=The Dark Knell
Tracknumber=03/08
Year=2021
Genre=Black Metal

[/more]

Register
(32) acerbus, Alexis The Best, AlexSmith, ambre, artscald, ChaosArcana, dcatagua, ent404, Hexer, judaz, kim666, metala, Narasimha, NathanSS, Occultas, Ostinato, postal67, pwoods, Qliphoth, robertho777, sagratan, stormhatt, Strygaldwir, stub888, supremo, tim47, varlam4, vosmidesijatye, Wail, WOLAND, yarrsuaa, Абигор,
Nov 27 2021, 14:13:52 Nimbifer - Demo I & II [compilation] (2020)


*Artist: Nimbifer
*Album: Demo I & II [compilation]
*Year: 2020
*Genre: Raw Black Metal
*Country: Germany
*Format: mp3@CBR320kbps
*Size: 89MB

Tracklist:
1. Geister 04:20
2. Im fahlen Schein 04:08
3. Krone 04:04
4. Kadaver 06:06
5. Der Herrscher 05:12
6. Die Diener 04:22
7. Im Dickicht 08:29
******************************
Total playing time: 36:41



[more=Technical info]
Input File: 02. Im fahlen Schein.mp3
Channels : 2
Sample Rate : 44100
Precision : 16-bit
Duration : 00:04:08.08 = 10940108 samples = 18605.6 CDDA sectors
File Size : 10.0M
Bit Rate : 323k
Sample Encoding: MPEG audio (layer I, II or III)
Comments :
Title=Im fahlen Schein
Artist=Nimbifer
Album=Demo I & II
Tracknumber=02/07
Year=2020
Genre=Black Metal

[/more]

Register
(17) artscald, Carcharoth, grimoir, julianotidre, kim666, Ostinato, raaf, rammmirez, rickzammuto, stormhatt, supremo, thenecromancer, VALERY, varlam4, Wail, wreak, Абигор,
Nov 27 2021, 12:23:42 Burning Apparition Of The Master - The Bellowing Echoes Of Absurdity - Demo III [demo] (2021)


*Artist: Burning Apparition Of The Master
*Album: The Bellowing Echoes Of Absurdity - Demo III [demo]
*Year: 2021
*Genre: Raw Black Metal
*Country: United States
*Format: mp3@CBR320kbps
*Size: 87MB

Tracklist:
Plague Transcending All Barriers
A. Part I - VII
The Unfaltered Flames Of Torture
B. Part VIII - XI
******************************
Total playing time: 35:03

[more=Extended info]Perverse Homage - 077
Tape-rip.[/more]

[more=Technical info]
Input File: 02. Plague Transcending All Barriers - Part II.mp3
Channels : 2
Sample Rate : 48000
Precision : 16-bit
Duration : 00:02:44.35 = 7888896 samples ~ 12326.4 CDDA sectors
File Size : 7.08M
Bit Rate : 345k
Sample Encoding: MPEG audio (layer I, II or III)
Comments :
Title=II
Artist=Burning Apparition of the Master
Album=The Bellowing Echoes of Absurdity
Tracknumber=02/11
Year=2021
Genre=Raw Black Metal

[/more]

Register
(11) Alexis The Best, artscald, Carcharoth, grimoir, julianotidre, kim666, stormhatt, varlam4, Wail, wreak, Абигор,
Nov 27 2021, 10:36:21 Entrancement & Midnight Betrothed - Entrancement/Midnight Betrothed [split] (2021)


*Artist: Entrancement & Midnight Betrothed
*Album: Entrancement/Midnight Betrothed [split]
*Year: 2021
*Genre: Raw Black Metal | Raw Black Metal
*Country: United States | Australia
*Format: mp3@VBR245kbps
*Size: 51MB

Tracklist:
Entrancement:
01. Passion of Necrophilia
02. Lost in The Dismal Haze
03. Psychic Relief
Midnight Betrothed:
04. The Throes Of Nocturnal Delight
05. Where Gaunt Willows Stand In Bloom
******************************
Total playing time: 26:41

[more=Extended info]Perverse Homage - 083
Tape-rip by Zero[/more]

[more=Technical info]
Input File: 04. Midnight Betrothed - The Throes Of Nocturnal Delight.mp3
Channels : 2
Sample Rate : 44100
Precision : 16-bit
Duration : 00:07:19.69 = 19390461 samples = 32977 CDDA sectors
File Size : 13.9M
Bit Rate : 252k
Sample Encoding: MPEG audio (layer I, II or III)
Comments :
Title=The Throes Of Nocturnal Delight
Artist=Midnight Betrothed
Album=Entrancement/Midnight Betrothed
Tracknumber=04/05
Year=2021
Genre=Black Metal

[/more]

Register
(10) artscald, Carcharoth, grimoir, julianotidre, kim666, nemx, Ostinato, stormhatt, varlam4, wreak,
Nov 27 2021, 10:22:59 Nightgoat Invokate The Stars - Nightgoat Invokate The Stars [demo] (2021)


*Artist: Nightgoat Invokate The Stars
*Album: Nightgoat Invokate The Stars [demo]
*Year: 2021
*Genre: Raw Black Metal
*Country: United States
*Format: mp3@VBR245kbps
*Size: 57MB

Tracklist:
1. Taogthgin Esir
2. To Soar Above
3. Mother Infinity
4. Kcalbehtthgil Njagaeldnac
******************************
Total playing time: 28:47

[more=Extended info]Perverse Homage - 084
Tape-rip by Zero + Scans[/more]

[more=Technical info]
Input File: 02. To Soar Above.mp3
Channels : 2
Sample Rate : 44100
Precision : 16-bit
Duration : 00:05:41.26 = 15049698 samples = 25594.7 CDDA sectors
File Size : 11.6M
Bit Rate : 271k
Sample Encoding: MPEG audio (layer I, II or III)
Comments :
Title=To Soar Above
Artist=Nightgoat Invokate The Stars
Album=Nightgoat Invokate The Stars
Tracknumber=02/04
Year=2021
Genre=Black Metal

[/more]

Register
(9) artscald, Carcharoth, grimoir, julianotidre, kim666, nemx, stormhatt, varlam4, wreak,
Nov 27 2021, 09:35:29 Hand Of Glory - Ceaseless Negation Of Color & Joy (2021)


*Artist: Hand Of Glory
*Album: Ceaseless Negation Of Color & Joy
*Year: 2021
*Genre: Raw Black Metal
*Country: United States
*Format: mp3@VBR245kbps
*Size: 75MB

Tracklist:
AI. Dream Invasion
AII. No Victims In Life, Only Prey
AIII. Sculpted By Mishappen Hands
BI. Between Her Thighs A Feast For Flies
BII. Dream Invasion II
BIII. Lascia Ch'io Pianga
******************************
Total playing time: 38:16

[more=Extended info]Unseen Forest Patriot – UFP 002, Livor Mortis – LM 069.
Vinyl-rip by Zero.[/more]

[more=Technical info]
Input File: 02. No Victims In Life, Only Prey.mp3
Channels : 2
Sample Rate : 44100
Precision : 16-bit
Duration : 00:07:51.30 = 20784374 samples = 35347.6 CDDA sectors
File Size : 14.6M
Bit Rate : 248k
Sample Encoding: MPEG audio (layer I, II or III)
Comments :
Title=No Victims In Life, Only Prey
Artist=Hand Of Glory
Album=Ceaseless Negation Of Color & Joy
Tracknumber=02/06
Year=2021
Genre=Black Metal

[/more]

Register
(14) Alexis The Best, artscald, grimoir, julianotidre, kim666, lordsloth, Nascutmort, nemx, stormhatt, supremo, Tyrone, VALERY, varlam4, wreak,
Nov 27 2021, 09:11:38 Zarabanda Moon - Unseen Forest Patriot (2021)


*Artist: Zarabanda Moon
*Album: Unseen Forest Patriot
*Year: 2021
*Genre: Raw Black Metal
*Country: United States
*Format: mp3@VBR245kbps
*Size: 60MB

Tracklist:
A1. A Rock Formed By Lightning
A2. First Ancestor
A3. Marching Tombs
B1. Honorbound Vengeance
B2. Unseen Forest Patriot
******************************
Total playing time: 29:23

[more=Extended info]Unseen Forest Patriot – UFP 001, Livor Mortis – LM 068.
Vinyl-rip by Zero.[/more]

[more=Technical info]
Input File: 02. First Ancestor.mp3
Channels : 2
Sample Rate : 44100
Precision : 16-bit
Duration : 00:04:51.76 = 12866660 samples = 21882.1 CDDA sectors
File Size : 9.80M
Bit Rate : 269k
Sample Encoding: MPEG audio (layer I, II or III)
Comments :
Title=First Ancestor
Artist=Zarabanda Moon
Album=Unseen Forest Patriot
Tracknumber=02/05
Year=2021
Genre=Black Metal

[/more]

Register
(15) AlexSmith, artscald, Carcharoth, grimoir, igore2911, julianotidre, kim666, Nascutmort, nemx, Ostinato, stormhatt, supremo, VALERY, varlam4, wreak,
Nov 27 2021, 05:59:51 Phantom Staircase - Mystic Isolations [demo] (2021)


*Artist: Phantom Staircase
*Album: Mystic Isolations [demo]
*Year: 2021
*Genre: Raw Black Metal
*Country: United States
*Format: mp3@CBR320kbps
*Size: 51MB

Tracklist:
1. Passage 02:15
2. Isle of Isolation 05:17
3. Grand Image of Benevolence 05:19
4. Palace of Crimson 00:53
5. A Tale of Mourning 02:14
6. Entrace to Windsor 05:14
******************************
Total playing time: 21:12



[more=Extended info]Witchcult Records - WC037[/more]

[more=Technical info]
Input File: 02. Isle of Isolation.mp3
Channels : 2
Sample Rate : 44100
Precision : 16-bit
Duration : 00:05:17.48 = 14001000 samples = 23811.2 CDDA sectors
File Size : 12.9M
Bit Rate : 325k
Sample Encoding: MPEG audio (layer I, II or III)
Comments :
Title=Isle of Isolation
Artist=Phantom Staircase
Album=Mystic Isolations
Tracknumber=02/06
Year=2021
Genre=Raw Black Metal

[/more]

Register
(11) artscald, Carcharoth, Hell_Is_Here, julianotidre, kim666, nemx, stormhatt, Tyrone, varlam4, wreak, Абигор,
Nov 27 2021, 05:55:50 Daetven - Daetven (2021)


*Artist: Daetven
*Album: Daetven
*Year: 2021
*Genre: Black Metal
*Country: Poland
*Format: mp3@CBR320kbps
*Size: 97MB

Tracklist:
1. DAETVEN I 05:36
2. DAETVEN II 03:27
3. DAETVEN III 04:06
4. DAETVEN IV 05:42
5. DAETVEN V 04:40
6. DAETVEN VI 05:06
7. DAETVEN VII 08:22
8. DAETVEN VIII 04:29
******************************
Total playing time: 41:28



[more=Technical info]
Input File: 02. DAETVEN II.mp3
Channels : 2
Sample Rate : 44100
Precision : 16-bit
Duration : 00:03:27.53 = 9151985 samples = 15564.6 CDDA sectors
File Size : 8.40M
Bit Rate : 324k
Sample Encoding: MPEG audio (layer I, II or III)
Comments :
Title=DAETVEN II
Artist=DAETVEN
Album=DAETVEN
Tracknumber=02/08
Year=2021
Genre=Black Metal

[/more]

Register
(15) AlexSmith, artscald, Carcharoth, Chasm, judaz, julianotidre, kim666, Marek, Mencae77, robertho777, stormhatt, supremo, VALERY, varlam4, wreak,
Nov 27 2021, 05:51:01 Nocturnal Tyrant - Drowned In Eternal Desolation (2021)


*Artist: Nocturnal Tyrant
*Album: Drowned In Eternal Desolation
*Year: 2021
*Genre: Raw Black Metal
*Country: International
*Format: mp3@CBR320kbps
*Size: 86MB

Tracklist:
1. And the Forest Calls 02:23
2. Carnivorous Submission 05:19
3. Forgotten Heritage 05:25
4. Howling of Condemnation 04:55
5. The Way of the Abyss 04:54
6. Penitent Rumination 06:29
7. A Moonlit Elegy 03:04
******************************
Total playing time: 32:29



[more=Technical info]
Input File: 02. Carnivorous Submission.mp3
Channels : 2
Sample Rate : 44100
Precision : 16-bit
Duration : 00:05:19.57 = 14093169 samples = 23968 CDDA sectors
File Size : 13.0M
Bit Rate : 325k
Sample Encoding: MPEG audio (layer I, II or III)
Comments :
Title=Carnivorous Submission
Artist=Nocturnal Tyrant
Album=Drowned in Eternal Desolation
Tracknumber=02/07
Year=2021
Genre=Black Metal

[/more]

Register
(15) AlexSmith, artscald, Carcharoth, GorAtheist, Hell_Is_Here, julianotidre, kim666, Mencae77, nemx, Ostinato, stormhatt, supremo, VALERY, varlam4, wreak,
Nov 20 2021, 17:16:13 Argyle - Nuestra Herencia (2021)


*Artist: Argyle
*Album: Nuestra Herencia
*Year: 2021
*Genre: Black Metal
*Country: Puerto Rico
*Format: mp3@CBR320kbps
*Size: 106MB

Tracklist:
1. The Starless All 05:56
2. Excoriate All Hope 04:41
3. Crown of Mud and Tears 05:54
4. We As Vessels of Them 05:29
5. Terraemortus 04:37
6. Nuestra Herencia 06:05
7. Adoration of Ruin 05:51
8. Por los siglos de los siglos... 06:13
******************************
Total playing time: 44:46



[more=Technical info]
Input File: 02. Excoriate All Hope.mp3
Channels : 2
Sample Rate : 44100
Precision : 16-bit
Duration : 00:04:41.09 = 12396201 samples = 21082 CDDA sectors
File Size : 11.3M
Bit Rate : 322k
Sample Encoding: MPEG audio (layer I, II or III)
Comments :
Title=Excoriate All Hope
Artist=Argyle
Album=Nuestra Herencia
Tracknumber=02/08
Year=2021
Genre=Black Metal

[/more]

Register
(12) AlexSmith, artscald, caro, julianotidre, kim666, Olethros, SadistikSlayer, stormhatt, supremo, VALERY, varlam4, wreak,
Nov 20 2021, 17:11:50 Charca - Font Of Ruination/Uncinariasis [compilation] (2021)


*Artist: Charca
*Album: Font Of Ruination/Uncinariasis [compilation]
*Year: 2021
*Genre: Black Metal
*Country: Puerto Rico
*Format: mp3@CBR320kbps
*Size: 65MB

Tracklist:
1. Credo 1894 03:28
2. Font of Ruination / Fuente de Ruinación 07:41
3. Fati Nostri 05:33
4. Precipicio 02:31
5. Uncinariasis 08:34
******************************
Total playing time: 27:47



[more=Technical info]
Input File: 02. Font of Ruination Fuente de Ruinación.mp3
Channels : 2
Sample Rate : 44100
Precision : 16-bit
Duration : 00:07:42.03 = 20375391 samples = 34652 CDDA sectors
File Size : 18.6M
Bit Rate : 322k
Sample Encoding: MPEG audio (layer I, II or III)
Comments :
Title=Font of Ruination / Fuente de Ruinación
Artist=Charca
Album=Font of Ruination / Uncinariasis
Tracknumber=02/05
Year=2021
Genre=Black Metal

[/more]

Register
(11) artscald, caro, julianotidre, kim666, Olethros, Ostinato, robertho777, stormhatt, VALERY, varlam4, wreak,
Nov 20 2021, 14:44:20 Abyssal Temple - Demo II [demo] (2021)


*Artist: Abyssal Temple
*Album: Demo II [demo]
*Year: 2021
*Genre: Raw Black Metal
*Country: Brazil
*Format: mp3@VBR245kbps
*Size: 36MB

Tracklist:
1. Rise Of Necromantical Pyre
2. Ignis Foetur Mortis
3. The Landscape Underground
4. Abysmus Templum
5. Moon Of Blood
6. Noctis Blasphema
******************************
Total playing time: 17:21

[more=Extended info]Blud Auk Tapes - BA-30
Tape-rip by Zero[/more]

[more=Technical info]
Input File: 02. Ignis Foetur Mortis.mp3
Channels : 2
Sample Rate : 44100
Precision : 16-bit
Duration : 00:02:28.24 = 6537560 samples = 11118.3 CDDA sectors
File Size : 5.23M
Bit Rate : 282k
Sample Encoding: MPEG audio (layer I, II or III)
Comments :
Title=Ignis Foetur Mortis
Artist=Abyssal Temple
Album=Demo II
Tracknumber=02/06
Year=2021
Genre=Black Metal

[/more]

Register
(11) artscald, caro, Hell_Is_Here, julianotidre, kim666, Olethros, raaf, rickzammuto, stormhatt, varlam4, wreak,
Nov 20 2021, 06:08:00 Stormkeep - Tales Of Othertime (2021)


Stormkeep - 2021 - Tales Of Othertime

24bit FLAC @Mediafire / MP3 320 Kbps @Yadi.sk
Register
(9) ALBIGON, Carcharoth, isvili, kimkayoung, Occultas, Olethros, Piob, Taragorm, WillyWonka,
Nov 19 2021, 17:00:49 Skinliv - Ind I Skoven Til Evig Tid (2021)


*Artist: Skinliv
*Album: Ind I Skoven Til Evig Tid
*Year: 2021
*Genre: Black Metal
*Country: Denmark
*Format: mp3@VBR245kbps
*Size: 74MB

Tracklist:
A1. Træd Ind I Dødens Skygge
A2. Had Som Kraft
A3. Spøgeri I Mørke Kamre
A4. En Tager Sig Af Dage
A5. Sagnomspunden Hæder
A6. Angerfuld Dødsdag
A7. Vovestykke
B1. Hug For Hug
B2. I Sorte Ravnes Følge
B3. Ind I Skoven Til Evig Tid
B4. Der Grædes For Livslede
B5. Det Var Aldrig Meget Håb
B6. Den Sidste Afsked
******************************
Total playing time: 35:22

[more=Extended info]Nattetale, tape.
Tape-rip by Zero[/more]

[more=Technical info]
Input File: 02. Had Som Kraft.mp3
Channels : 2
Sample Rate : 44100
Precision : 16-bit
Duration : 00:02:04.97 = 5511133 samples = 9372.68 CDDA sectors
File Size : 4.94M
Bit Rate : 316k
Sample Encoding: MPEG audio (layer I, II or III)
Comments :
Title=Had Som Kraft
Artist=Skinliv
Album=Ind I Skoven Til Evig Tid
Tracknumber=02/13
Year=2021
Genre=Black Metal

[/more]

Register
(29) AlexSmith, artscald, Carcharoth, caro, dermarsoran, Gonzo49ers, Hell_Is_Here, judaz, julianotidre, kim666, lordsloth, Marek, Mencae77, Nascutmort, nemx, obituarydark, Olethros, Ostinato, rammmirez, Reverend, SilentNidhogg, stormhatt, stub888, supremo, thenecromancer, unit731, VALERY, varlam4, wreak,
Nov 19 2021, 16:59:13 Krigstjørn - Skikkelser [ep] (2021)


*Artist: Krigstjørn
*Album: Skikkelser [ep]
*Year: 2021
*Genre: Black Metal
*Country: Denmark
*Format: mp3@VBR245kbps
*Size: 35MB

Tracklist:
1. Skikkelser 04:48
2. Skiulersken 03:23
3. Slangscirkel 05:17
4. Sortflammet Sol 04:37
******************************
Total playing time: 18:05

[more=Extended info]Nattetale, tape.
Tape-rip by Zero[/more]

[more=Technical info]
Input File: 02. Skiulersken.mp3
Channels : 2
Sample Rate : 44100
Precision : 16-bit
Duration : 00:03:23.39 = 8969455 samples = 15254.2 CDDA sectors
File Size : 6.93M
Bit Rate : 273k
Sample Encoding: MPEG audio (layer I, II or III)
Comments :
Title=Skiulersken
Artist=Krigstjørn
Album=Skikkelser
Tracknumber=02/04
Year=2021
Genre=Black Metal

[/more]

Register
(22) aleon, artscald, caro, IncendiaryMight, julianotidre, kim666, Marek, Mencae77, murian, Nascutmort, obituarydark, Olethros, Ostinato, rammmirez, SilentNidhogg, stormhatt, stub888, SyncestrA, unit731, VALERY, varlam4, wreak,
Nov 13 2021, 11:33:16 Nächtlich - Satanas Solum Initium Est (2021)


Nächtlich - 2021 - Satanas Solum Initium Est
Black Gangrene Productions

CD-rip 320 Kbps @Yadi.sk
Register
(3) Alexis The Best, elsunga, ent404,
Nov 9 2021, 19:43:46 Avsolutized... - Så Som Ovan, Så Är Svärtan [ep] (2021)


*Artist: Avsolutized...
*Album: Så Som Ovan, Så Är Svärtan [ep]
*Year: 2021
*Genre: Raw Black Metal
*Country: Japan
*Format: mp3@CBR320kbps
*Size: 74MB

Tracklist:
01. Magitation For Liberation 01:59
02. Så Som Ovan 09:59
03. Kristallklar Vinternatt (Thy Primordial Cover) 04:56
04. The Forgotten Dawn 00:43
05. Så Är Svärtan 13:39
******************************
Total playing time: 31:16



[more=Extended info]Those Opposed Records[/more]

[more=Technical info]
Input File: 02. Så som ovan.mp3
Channels : 2
Sample Rate : 44100
Precision : 16-bit
Duration : 00:10:01.35 = 26519491 samples = 45101.2 CDDA sectors
File Size : 24.3M
Bit Rate : 323k
Sample Encoding: MPEG audio (layer I, II or III)
Comments :
Title=Så som ovan
Artist=Avsolutized...
Album=Så som ovan, så är svärtan
Tracknumber=02
Year=2021
Genre=Black metal

[/more]

Register
(15) artscald, caro, ent404, Hell_Is_Here, INDARKNESS, julianotidre, kefka, Occultas, Olethros, Ostinato, sethurius, SilentNidhogg, stormhatt, the_cleanser, wreak,
Nov 9 2021, 18:14:00 Veštac & Mäleficentt - Soul's Exhumation on the Pyres of Trascension / Legends of the Ancient Ones (2021)


*Artist: Veštac & Mäleficentt
*Album: Soul's Exhumation on the Pyres of Trascension / Legends of the Ancient Ones
*Year: 2021
*Genre: Raw Black Metal | Raw Black Metal
*Country: Serbia | United States
*Format: mp3@CBR320kbps
*Size: 80MB

Tracklist:
Veštac:
1. The Eye Within the Serpent's Cross 09:05
2. Where the Hydra Screams and Mounts 10:30
Mäleficentt:
3. The Kingdom of the Ahuizotl 06:41
4. Eternal Flight of the Kamazotz 06:29
******************************
Total playing time: 32:45

[more=Extended info]ASRAR - ASR136
FLAC-rip + Scans[/more]

[more=Technical info]
Input File: 02. Mäleficentt - Eternal Flight of the Camazotz.mp3
Channels : 2
Sample Rate : 44100
Precision : 16-bit
Duration : 00:06:29.69 = 17185461 samples = 29227 CDDA sectors
File Size : 15.9M
Bit Rate : 327k
Sample Encoding: MPEG audio (layer I, II or III)
Comments :
Title=Eternal Flight of the Camazotz
Artist=Mäleficentt
Album=Legends of the Ancient Ones
Tracknumber=02/04
Year=2021
Genre=Black Metal

[/more]

Register
(12) Alexis The Best, artscald, caro, Hell_Is_Here, Hexer, julianotidre, kim666, nemx, SilentNidhogg, stormhatt, Wilczygniew Strzygoń, wreak,
Nov 9 2021, 17:59:07 Veštac - Ključ Na Nebu, Katanac U Moru (2020)


*Artist: Veštac
*Album: Ključ Na Nebu, Katanac U Moru
*Year: 2020
*Genre: Raw Black Metal
*Country: Serbia
*Format: mp3@CBR320kbps
*Size: 82MB

Tracklist:
1. Crevne lobanje 06:53
2. Nepoznati grob 10:07
3. Hrana za mrtve 09:46
4. Izvor moći 07:23
******************************
Total playing time: 34:09

[more=Extended info]ASRAR - ASR111
FLAC-rip + Scans[/more]

[more=Technical info]
Input File: 02. Nepoznati Grob.mp3
Channels : 2
Sample Rate : 44100
Precision : 16-bit
Duration : 00:07:34.45 = 20041421 samples = 34084 CDDA sectors
File Size : 18.3M
Bit Rate : 322k
Sample Encoding: MPEG audio (layer I, II or III)
Comments :
Title=Nepoznati Grob
Artist=Veštac
Album=Kljuc Na Nebu, Katanac U Moru
Tracknumber=02/04
Year=2020
Genre=Black Metal

[/more]

Register
(13) Alexis The Best, AlexSmith, artscald, caro, Hell_Is_Here, julianotidre, kim666, Olethros, SilentNidhogg, stormhatt, supremo, Wilczygniew Strzygoń, wreak,
Oct 31 2021, 11:08:07 Ancestral Shadows - Eldritch Illuminations [ep] (2021)


*Artist: Ancestral Shadows
*Album: Eldritch Illuminations [ep]
*Year: 2021
*Genre: Black Metal
*Country: United States
*Format: mp3@CBR320kbps
*Size: 77MB

Tracklist:
1. I. Introduction - Tragedies Befell 02:37
2. II. Eldritch Illuminations (Of Immolated Witches) 11:51
3. III. Iron Emissaries of Elite Darkness 14:57
******************************
Total playing time: 29:25



[more=Extended info]Dark Adversary Productions, CD.[/more]

[more=Technical info]
Input File: 02. II. Eldritch Illuminations (Of Immolated Witches).mp3
Channels : 2
Sample Rate : 44100
Precision : 16-bit
Duration : 00:11:51.20 = 31363744 samples = 53339.7 CDDA sectors
File Size : 28.8M
Bit Rate : 324k
Sample Encoding: MPEG audio (layer I, II or III)
Comments :
Title=II. Eldritch Illuminations (Of Immolated Witches)
Artist=Ancestral Shadows
Album=Eldritch Illuminations
Tracknumber=02/03
Year=2021
Genre=Black Metal

[/more]

Register
(22) Alexis The Best, artscald, blacky66, Carcharoth, caro, ent404, Hell_Is_Here, Hexer, igore2911, julianotidre, kim666, Marek, Olethros, Ostinato, SaintVitus, SilentNidhogg, Storky, stormhatt, suseka, Taakeferd, VALERY, wreak,
Oct 31 2021, 10:54:28 Carpathian Wrath - The Son Of The Dragon [demo] (2021)


*Artist: Carpathian Wrath
*Album: The Son Of The Dragon [demo]
*Year: 2021
*Genre: Raw Black Metal
*Country: United States
*Format: mp3@CBR320kbps
*Size: 36MB

Tracklist:
1. Targoviste (Intro) 00:51
2. Dreams of Impalement and Vampirism 06:25
3. The Mystical Meeting (Interlude) 01:27
4. The Son Of The Dragon 04:38
5. Outro 01:32
******************************
Total playing time: 14:53



[more=Technical info]
Input File: 02. Dreams of Impalement and Vampirism.mp3
Channels : 2
Sample Rate : 44100
Precision : 16-bit
Duration : 00:06:25.28 = 16990760 samples = 28895.9 CDDA sectors
File Size : 15.7M
Bit Rate : 326k
Sample Encoding: MPEG audio (layer I, II or III)
Comments :
Title=Dreams of Impalement and Vampirism
Artist=Carpathian Wrath
Album=The Son Of The Dragon
Tracknumber=02/05
Year=2021

[/more]

Register
(12) Alexis The Best, artscald, caro, deadterror, julianotidre, kim666, Olethros, SilentNidhogg, stormhatt, stub888, Taakeferd, wreak,
Oct 31 2021, 07:41:49 Garmr - Dubgaill [ep] (2021)


*Artist: Garmr
*Album: Dubgaill [ep]
*Year: 2021
*Genre: Viking Metal
*Country: United States
*Format: mp3@CBR320kbps
*Size: 51MB

Tracklist:
1. Intro - Dauðra Dura 02:06
2. Dubgaill 03:36
3. Lord of the Isles 04:37
4. Noregsgard (Storm Cover) 08:04
5. Celestial Divination 03:37
******************************
Total playing time: 22:00



[more=Technical info]
Input File: 02. Dubgaill.mp3
Channels : 2
Sample Rate : 44100
Precision : 16-bit
Duration : 00:03:36.25 = 9536757 samples = 16219 CDDA sectors
File Size : 8.72M
Bit Rate : 323k
Sample Encoding: MPEG audio (layer I, II or III)
Comments :
Title=Dubgaill
Artist=Garmr
Album=Dubgaill - EP
Tracknumber=02/05
Year=2021
Genre=Viking Metal

[/more]

Register
(14) artscald, caro, Cartman223, chipsgott, HMHamster, julianotidre, Marek, Mogozoz, noel666, Olethros, sergsazan, Taakeferd, Vitald, wreak,
Oct 31 2021, 06:46:02 Wampyric Rites & Akhansha - The Misanthropic Songs Of An Unholy Spirit [split] (2021)


*Artist: Wampyric Rites & Akhansha
*Album: The Misanthropic Songs Of An Unholy Spirit [split]
*Year: 2021
*Genre: Raw Black Metal | Raw Black Metal
*Country: Ecuador | Ecuador
*Format: mp3@CBR320kbps
*Size: 104MB

Tracklist:
Akhansha:
1. Buried And Forgotten 07:46
2. The Path Of The Black Cult 05:26
3. Less And Less Human 05:37
4. Possessed By Hate 02:50
Wampyric Rites:
5. Intro 02:18
6. In The Mystical Night Of The Full Moon 05:44
7. Majestic Vampire Empire 05:54
8. The Blood of the Ancient Dragon 05:30
9. Outro 02:14
******************************
Total playing time: 43:19



[more=Extended info]Harvest of Death, tape.[/more]

[more=Technical info]
Input File: 06. Wampyric Rites - In The Mystical Night Of The Full Moon.mp3
Channels : 2
Sample Rate : 44100
Precision : 16-bit
Duration : 00:05:44.08 = 15173796 samples = 25805.8 CDDA sectors
File Size : 14.0M
Bit Rate : 325k
Sample Encoding: MPEG audio (layer I, II or III)
Comments :
Title=In The Mystical Night Of The Full Moon
Artist=Wampyric Rites
Album=The Misanthropic Songs Of An Unholy Spirit
Tracknumber=06/09
Year=2021
Genre=Raw Black Metal

[/more]

Register
(12) artscald, caro, Hell_Is_Here, julianotidre, kim666, Lanceatum, nemx, raaf, SilentNidhogg, stormhatt, Taakeferd, wreak,

87 Pages V   1 2 3 > » 
- Lo-Fi Version Support form
Copyrights and abuse reports form
Time is now: 29th November 2021 - 22:19:34