Welcome Guest ( Log In | Register )

История благодарностей участнику Velmi ::: Спасибо сказали: 47754 раз(а)
Дата поста: В теме: За сообщение: Спасибо сказали:
May 16 2021, 06:23:02 Diaboli - Awakening Of Nordic Storm (2021)


*Artist: Diaboli
*Album: Awakening Of Nordic Storm
*Year: 2021
*Genre: Black Metal
*Country: Finland
*Format: mp3@CBR320kbps
*Size: 84MB

Tracklist:
1. The End Of Abrahamic Lies 3:08
2. Pestilence Of The Chosen 2:51
3. Kansanruumiin Myrkyttäjät 4:12
4. The Age Of Revisionism 5:51
5. Vihollisen Manaaminen Kalmistoon 3:04
6. Vultures 4:36
7. Eternal Return Of The Sun Wheel 6:12
8. Ancient Gods Walk The Earth 6:13
******************************
Total playing time: 36:07

[more=Extended info]Northern Heritage - NH-108
CD-rip[/more]

[more=Technical info]
Input File: 02. Pestilence Of The Chosen.mp3
Channels : 2
Sample Rate : 44100
Precision : 16-bit
Duration : 00:02:50.85 = 7534617 samples = 12814 CDDA sectors
File Size : 6.99M
Bit Rate : 327k
Sample Encoding: MPEG audio (layer I, II or III)
Comments :
Title=Pestilence Of The Chosen
Artist=Diaboli
Album=Awakening of Nordic Storm
Tracknumber=02/08
Year=2021
Genre=Black Metal

[/more]

Register
(25) 666days, acerbus, AlexSmith, Antichrist, atavist, Borderline1991, cancer1974, ent404, Evgen79, gattometal, Haunting, Kaotik, kim666, kipelov999, korovakaska, lordbathor, NSGM, Panacea, Pinhead666, rimfrost, sabr, satanist666, thenecromancer, tim47, vov7609,
May 16 2021, 06:11:40 Ancient Gate - Forgotten Dark Age [ep] (2021)


*Artist: Ancient Gate
*Album: Forgotten Dark Age [ep]
*Year: 2021
*Genre: Black Metal
*Country: Argentina
*Format: mp3@CBR320kbps
*Size: 63MB

Tracklist:
1. Mist of the centuries (Intro) 00:55
2. Midwinter sorrow 05:06
3. Forgotten dark age 07:04
4. Beneath the crimson moon 05:40
5. Black eternal tides 06:10
6. Towards R'lyeh (Outro) 01:22
******************************
Total playing time: 26:17



[more=Technical info]
Input File: 02. Midwinter sorrow.mp3
Channels : 2
Sample Rate : 44100
Precision : 16-bit
Duration : 00:05:06.09 = 13498701 samples = 22957 CDDA sectors
File Size : 12.5M
Bit Rate : 326k
Sample Encoding: MPEG audio (layer I, II or III)
Comments :
Title=Midwinter sorrow
Artist=Ancient Gate
Album=Forgotten Dark Age (E.P.)
Tracknumber=02/06
Year=2021
Genre=Black Metal

[/more]

Register
(11) kim666, korovakaska, Marek, nemx, Reverend, satanist666, thenecromancer, VALERY, varlam4, vasiljev_sergej, Wail,
May 16 2021, 04:36:43 Clandestine Blaze - Secrets Of Laceration (2021)


*Artist: Clandestine Blaze
*Album: Secrets Of Laceration
*Year: 2021
*Genre: Black Metal
*Country: Finland
*Format: mp3@CBR320kbps
*Size: 100MB

Tracklist:
1. The Eyes of the Saint 06:36
2. Wastelands of Revelation 07:03
3. The Human Moth 06:24
4. Disinter the Remains of Prophets 05:07
5. Stripe in the Sediment 07:20
6. Unmourned Crimes 04:20
7. Secrets of Laceration 05:11
******************************
Total playing time: 42:01

[more=Extended info]Nothern Heritage - NH-110[/more]

[more=Technical info]
Input File: 02. Wastelands Of Revelation.mp3
Channels : 2
Sample Rate : 44100
Precision : 16-bit
Duration : 00:07:03.37 = 18670485 samples = 31752.5 CDDA sectors
File Size : 17.1M
Bit Rate : 323k
Sample Encoding: MPEG audio (layer I, II or III)
Comments :
Title=Wastelands Of Revelation
Artist=Clandestine Blaze
Album=Secrets Of Laceration
Tracknumber=02/07
Year=2021
Genre=Black Metal

[/more]

Register
(29) acerbus, AlexSmith, andeimon, Aresson, atavist, Constantinus I, Demonologist, ent404, Evgen79, Femto, gena, grimoir, Haunting, Infidel, judaz, Kaotik, Kazoth, kim666, kimkayoung, korovakaska, nemx, Panacea, recber, ripper33, satanist666, SortVokter, VALERY, VECTOR, vov7609,
May 14 2021, 20:03:22 Midnight Betrothed - Dreamless (2021)


*Artist: Midnight Betrothed
*Album: Dreamless
*Year: 2021
*Genre: Black Metal
*Country: Australia
*Format: mp3@CBR320kbps
*Size: 74MB

Tracklist:
1. A House In The Distance... (Intro) 01:50
2. A Snow-Crested Heart 06:05
3. Stop Visiting My Grave 06:29
4. Bygone Fortunes 05:29
5. It Was Once Just A Glimpse 06:04
6. What Quietly Arose In His Soul 06:13
******************************
Total playing time: 32:10



[more=Technical info]
Input File: 02. A Snow-Crested Heart.mp3
Channels : 2
Sample Rate : 44100
Precision : 16-bit
Duration : 00:06:05.66 = 16125562 samples = 27424.4 CDDA sectors
File Size : 14.7M
Bit Rate : 321k
Sample Encoding: MPEG audio (layer I, II or III)
Comments :
Title=A Snow-Crested Heart
Artist=Midnight Betrothed
Album=Dreamless
Tracknumber=02/06
Year=2021
Genre=Black metal

[/more]

Register
(24) AlexSmith, craP_cillA, ent404, grimoir, kim666, kimkayoung, Lucju, Lunaris, Marek, multizwilling, nemx, Olethros, Ostinato, Reverend, ripper33, satanist666, SileniusLegard, SilentNidhogg, Taakeferd, VALERY, varlam4, vasiljev_sergej, ZambuL, zargonath,
May 14 2021, 19:57:36 Vaal - Het Vagevuur [ep] (2021)


*Artist: Vaal
*Album: Het Vagevuur [ep]
*Year: 2021
*Genre: Black Metal
*Country: Netherlands
*Format: mp3@CBR320kbps
*Size: 55MB

Tracklist:
1. Umbra 02:24
2. Oude gedachten 04:02
3. Lijkendal 03:52
4. Wolfsmaan 03:49
5. Het vagevuur 04:31
6. Vergankelijkheid 02:31
******************************
Total playing time: 21:09



[more=Technical info]
Input File: 04. Wolfsmaan.mp3
Channels : 2
Sample Rate : 44100
Precision : 16-bit
Duration : 00:03:50.05 = 10145205 samples = 17253.8 CDDA sectors
File Size : 9.30M
Bit Rate : 323k
Sample Encoding: MPEG audio (layer I, II or III)
Comments :
Title=Wolfsmaan
Artist=Vaal
Album=Het vagevuur
Tracknumber=04/06
Year=2021
Genre=Black Metal

[/more]

Register
(23) Antichrist, doomTemplar, elsunga, eternald, helvetestoner, Karnstein, kim666, Lunaris, Marek, multizwilling, nemx, nsk2008, Olethros, rammmirez, ripper33, satanist666, sethurius, SilentNidhogg, Taakeferd, undeadlich, VALERY, varlam4, ZA670,
May 13 2021, 17:00:24 Balmog - Eve (2021)


*Artist: Balmog
*Album: Eve
*Year: 2021
*Genre: Black Metal
*Country: Spain
*Format: mp3@CBR320kbps
*Size: 95MB

Tracklist:
1. Horror in Circuitu 01:28
2. Birth of Feral 04:44
3. Senreira 05:25
4. Slander 05:06
5. Agnus Dei 03:34
6. Desacougo 05:02
7. Zohar 04:50
8. Carrion Heart 07:00
9. Lume 02:53
******************************
Total playing time: 40:02



[more=Technical info]
Input File: 02. Birth of Feral Master.mp3
Channels : 2
Sample Rate : 44100
Precision : 16-bit
Duration : 00:04:44.10 = 12528810 samples = 21307.5 CDDA sectors
File Size : 11.4M
Bit Rate : 321k
Sample Encoding: MPEG audio (layer I, II or III)
Comments :
Title=Birth of Feral Master
Artist=Balmog
Album=Eve
Tracknumber=02/09
Year=2021
Genre=Black Metal
Discnumber=1/1

[/more]

Register
(22) AlexSmith, alikkon, atavist, Constantinus I, El_Chibo, Karnstein, kim666, Marek, nadin85, nemx, Occultas, robertho777, Rover, satanist666, scorpiothekiller, SilentNidhogg, smes, supremo, VALERY, varlam4, vasiljev_sergej, yuratroll,
May 13 2021, 16:15:10 Djevel - Tanker Som Rir Natten (2021)


*Artist: Djevel
*Album: Tanker Som Rir Natten
*Year: 2021
*Genre: Black Metal
*Country: Norway
*Format: mp3@CBR320kbps
*Size: 132MB

Tracklist:
01. Englene Som Falt Ned I Min Seng, Skal Jeg Sette Fri Med Brukne Vinger Og Torneglorier 09:42
02. Maanen Skal Være Mine Øine, Den Skinnende Stierne Mine Ben, Og Her Skal Jeg Vandre Til Evig Tid 09:52
03. En Krone For Et Øie Som Ser Alt, Tusind Torner For En Sønn Som Var Alt 09:52
04. Tanker Som Rir Natten 03:54
05. Naar Maanen Formørker Solen I En Dødelig Dans, Ber Jeg Moder Jord Opp Til En Siste Vals 10:47
06. Vinger Som Tok Oss Over En Brennende Himmel, Vinger Som Tok Oss Hjem 12:40
******************************
Total playing time: 56:47

[more=Technical info]
Input File: 02. Maanen skal være mine øine, den skinnende stierne mine ben, og her skal jeg vandre til evig tid.mp3
Channels : 2
Sample Rate : 44100
Precision : 16-bit
Duration : 00:09:52.75 = 26140451 samples = 44456.5 CDDA sectors
File Size : 24.0M
Bit Rate : 324k
Sample Encoding: MPEG audio (layer I, II or III)
Comments :
Title=Maanen skal være mine øine, den skinnende stierne mine ben, og her skal jeg vandre til evig tid
Artist=Djevel
Album=Tanker Som Rir Natten
Tracknumber=02/06
Year=2021
Genre=Black Metal

[/more]

Register
(55) AlexSmith, alikkon, andeimon, andivi, Antichrist, as71, atavist, Bitchkiller, Black Cat, cancer1974, CvaRo, dermarsoran, dromord, elsunga, El_Chibo, Femto, gena, Golodomor, igore2911, Infidel, JD666Hellion, Kazoth, kim666, kryptor, LEGION69, Marek, Metalass, multizwilling, NappyRob, nemx, nsk2008, nsmetalhead, obituarydark, Occultas, Olrak, Ostinato, Panacea, recber, Reverend, ripper33, sabr, SaintVitus, sandr666, satanist666, Shadechaser, SilentNidhogg, smes, squall8fr, Taakeferd, talismanFS, thenecromancer, undeadlich, VALERY, varlam4, Vidder242,
May 9 2021, 08:58:38 Luring - Inimicitias Veteres Vulneribus Desperatione (2021)


*Artist: Luring
*Album: Inimicitias Veteres Vulneribus Desperatione
*Year: 2021
*Genre: Black Metal
*Country: United States
*Format: mp3@CBR320kbps
*Size: 87MB

Tracklist:
1. Deep Festering Wounds 12:25
2. Cast Into Chambers of Seclusion 05:53
3. Invoking Master's Will 05:18
4. Slit the Throat of Every Angel 12:56
******************************
Total playing time: 36:32



[more=Technical info]
Input File: 04. Slit The Throat Of Every Angel.mp3
Channels : 2
Sample Rate : 44100
Precision : 16-bit
Duration : 00:12:56.69 = 34251985 samples = 58251.7 CDDA sectors
File Size : 31.2M
Bit Rate : 321k
Sample Encoding: MPEG audio (layer I, II or III)
Comments :
Title=Slit The Throat Of Every Angel
Artist=Luring
Album=Inimicitias Veteres Vulneribus Desperatione
Tracknumber=04/04
Year=2021
Genre=Black Metal

[/more]

Register
(17) 666DarkReaper666, AlexSmith, alikkon, infiltrator, kim666, murian, nemx, Olethros, Ostinato, Panacea, robertho777, Rover, satanist666, smysl, Vidder242, Waldemar666, Абигор,
May 9 2021, 07:29:02 Germanen Blut - Wandelnd In Der Einsamkeit Abgrundtiefer Gedanken (2008)


Germanen Blut - 2008 - Wandelnd In Der Einsamkeit Abgrundtiefer Gedanken

320 Kbps + Scans @ Yadi.sk
Register

(1) dalex,
May 8 2021, 08:35:43 Sulfurous Presence - Demo I [demo] (2021)


*Artist: Sulfurous Presence
*Album: Demo I [demo]
*Year: 2021
*Genre: Raw Black Metal
*Country: United States
*Format: mp3@CBR320kbps
*Size: 48MB

Tracklist:
1. Spiritual Trauma Beyond our Reality (Part I-III) 10:32
2. Spiritual Trauma Beyond our Reality (Part IV-V) 08:41
******************************
Total playing time: 19:13



[more=Extended info]Banner of Blood[/more]

[more=Technical info]
Input File: 01. Spiritual Trauma Beyond our Reality (Part I-III).flac
Channels : 2
Sample Rate : 44100
Precision : 16-bit
Duration : 00:10:32.38 = 27887782 samples = 47428.2 CDDA sectors
File Size : 53.2M
Bit Rate : 673k
Sample Encoding: 16-bit FLAC
Comments :
TITLE=Spiritual Trauma Beyond our Reality (Part I-III)
ARTIST=Sulfurous Presence
ALBUM=Demo I
DATE=2021
GENRE=Raw Black Metal
COMMENT=Visit https://sulfurouspresence.bandcamp.com
TRACKNUMBER=01/02
ALBUM ARTIST=Sulfurous Presence
ALBUMARTIST=Sulfurous Presence

[/more]

Register
(7) infiltrator, kim666, Olethros, SilentNidhogg, smysl, VALERY, Waldemar666,
May 5 2021, 17:57:20 Ifrinn - Caledonian Black Magick [ep] (2021)


*Artist: Ifrinn
*Album: Caledonian Black Magick [ep]
*Year: 2021
*Genre: Black Metal
*Country: United Kingdom
*Format: mp3@CBR320kbps
*Size: 57MB

Tracklist:
01. Caledonian Black Magick 08:39
02. Silent Seas of Sorcery 07:56
03. Stellar Zephyrs 07:55
******************************
Total playing time: 24:30




[more=Extended info]The Sinister Flame. <br /Ifrinn - Caledonian Black Magick [ep] (2021) - youtube rip[/more]

[more=Technical info]
Input File: 02. Silent Seas of Sorcery.mp3
Channels : 2
Sample Rate : 44100
Precision : 16-bit
Duration : 00:07:56.48 = 21012592 samples = 35735.7 CDDA sectors
File Size : 19.2M
Bit Rate : 322k
Sample Encoding: MPEG audio (layer I, II or III)
Comments :
Title=Silent Seas of Sorcery
Artist=Ifrinn
Album=Caledonian Black Magick
Tracknumber=02/03
Year=2021
Genre=Black Metal

[/more]

Register
(14) aleon, Bzth, cesar, infiltrator, judaz, kim666, Marek, Olethros, Ostinato, SilentNidhogg, smysl, VALERY, Waldemar666, yuratroll,
May 4 2021, 17:48:59 Empire Of Tharaphita - Distant Echoes Through Blood Infinite [compilation] (2018)


*Artist: Empire Of Tharaphita
*Album: Distant Echoes Through Blood Infinite [compilation]
*Year: 2018
*Genre: Black Metal
*Country: Finland
*Format: mp3@CBR320kbps
*Size: 163MB

Tracklist:
1. Beyond The Astral Seas - Kältas Ekwä 6:37
2. Golden Pillar Of The Northern Star 4:31
3. Nightly Veils Reveal The One 5:09
4. Lunar Cult Empire 6:01
5. Wandering The Garden Of Stars 8:33
6. Opening Of The Bounded Serpent 10:04
7. Gates To The Realm Of Tharaphita 7:54
8. Beyond The Astral Seas - Kältas Ekwä 6:13
9. Nightly Veils Reveal The One 5:25
10. The Star Obsessed Spirit 5:58
11. The Star Obsessed Spirit 4:10
******************************
Total playing time: 1:10:35

[more=Extended info]Out of the Dungeon ‎– DUNGEON002
pre-Mooncitadel[/more]

[more=Technical info]
Input File: 06. Opening of the Bounded Serpent.mp3
Channels : 2
Sample Rate : 44100
Precision : 16-bit
Duration : 00:10:04.35 = 26651967 samples = 45326.5 CDDA sectors
File Size : 24.3M
Bit Rate : 322k
Sample Encoding: MPEG audio (layer I, II or III)
Comments :
Title=Opening of the Bounded Serpent
Artist=Empire of Tharaphita
Album=Distant Echoes Through Blood Infinite
Tracknumber=06/11
Year=2018
Genre=Black Metal
Discnumber=1

[/more]

Register
(15) acerbus, Boozer, infiltrator, kim666, Moonshtook, Olethros, Ostinato, Reverend, satanist666, SilentNidhogg, smysl, supremo, thenecromancer, VALERY, Абигор,
May 4 2021, 17:34:20 Moorgeist - Moorgeist & Hymnen Der Nacht [compilation] (2021)


*Artist: Moorgeist
*Album: Moorgeist & Hymnen Der Nacht [compilation]
*Year: 2021
*Genre: Raw Black Metal
*Country: Germany
*Format: mp3@CBR320kbps
*Size: 130MB

Tracklist:
1. Im Kerker Des Modrigen Sumpfes 5:31
2. Vom Zauber Der Nacht & Dem Fluch Der Dunkelheit 6:46
3. Moorgeist 4:59
4. Der Sieg Der Natur Über Den Menschen 6:32
5. Entering The Elder Forest (Einklang) 1:30
6. Mitternacht 5:31
7. Ruinen Der Draugr 5:51
8. Hræsvelgr 6:28
9. Svartalfheim 10:52
10. Spectral Path (Ausklang) 1:50
******************************
Total playing time: 55:50




[more=Extended info]Narbentage Produktionen ‎– NT-CD 51[/more]

[more=Technical info]
Input File: 01. Im Kerker des modrigen Sumpfes.mp3
Channels : 2
Sample Rate : 44100
Precision : 16-bit
Duration : 00:05:31.23 = 14607155 samples = 24842.1 CDDA sectors
File Size : 13.4M
Bit Rate : 323k
Sample Encoding: MPEG audio (layer I, II or III)
Comments :
Title=Im Kerker des modrigen Sumpfes
Artist=Moorgeist
Album=Moorgeist & Hymnen der Nacht
Tracknumber=01/10
Year=2020
Genre=Black Metal

[/more]

Register
(12) craP_cillA, Fallen Soul, infiltrator, kim666, Olethros, Ostinato, satanist666, SilentNidhogg, smysl, supremo, VALERY, Waldemar666,
May 3 2021, 05:24:58 Ildskær - Den Rædsomste Nat (2020)


Ildskær - 2020 - Den Rædsomste Nat

320 Kbps + Scans @Yadi.sk

Register
(1) kimkayoung,
May 2 2021, 16:21:57 Ildskær - Paa Dækket Kalder De Døde [ep] (2021)


*Artist: Ildskær
*Album: Paa Dækket Kalder De Døde [ep]
*Year: 2021
*Genre: Black Metal
*Country: Denmark
*Format: mp3@CBR320kbps
*Size: 67MB

Tracklist:
1. Natten er Tyst 09:35
2. Blodrøde Bølger 07:37
3. Den Sidste Orlogsmand 10:28
******************************
Total playing time: 27:40



[more=Technical info]
Input File: 02. Blodrøde bølger.mp3
Channels : 2
Sample Rate : 44100
Precision : 16-bit
Duration : 00:07:37.96 = 20195816 samples = 34346.6 CDDA sectors
File Size : 18.4M
Bit Rate : 321k
Sample Encoding: MPEG audio (layer I, II or III)
Comments :
Title=Blodrøde bølger
Artist=Ildskær
Album=Paa dækket kalder de døde
Tracknumber=02/03
Year=2021
Genre=Black Metal

[/more]

Register
(20) cesar, Cyrci, dermarsoran, El_Chibo, HMHamster, infiltrator, kim666, nemx, Olethros, Ostinato, rammmirez, runawaycyborg, satanist666, SilentNidhogg, Sjelekval, squall8fr, VALERY, varlam4, Waldemar666, Авел,
May 2 2021, 13:39:57 А За Солнцем Луна... - На Метле К Звёздам (On A Broom To The Stars) (2021)


*Artist: А За Солнцем Луна...
*Album: На Метле К Звёздам (On A Broom To The Stars)
*Year: 2021
*Genre: Black Metal
*Country: Russian Federation
*Format: mp3@CBR320kbps
*Size: 104MB

Tracklist:
1. Вступлeние (Intro) 01:49
2. Ночь Смертельного Маскарада (Night of the Deadly Masquerade) 04:42
3. Лунный Охотник (The Moon Hunter) 05:30
4. Вслед за Тенями (Following the Shadows) 01:15
5. Сумрачный Ритуал Волчицы (Shadow Ritual of the She-Wolf) 05:07
6. Гибель Звезды Перед Падением (Death of a Star Before Fall) 01:07
7. На Метле к Звёздам (On a Broom to the Stars) 04:31
8. Венок Скорби (Wreath of Sorrow) 05:03
9. Наблюдающий из Чёрных Туч (Observing from the Black Clouds) 03:03
10. Лес Ведьм Призывает (Forest of Witches Summons) 04:01
11. Тайный Орден Злого Полумесяца (Secret Order of the Evil Crescent) 05:00
12. Формула Постоянства Outro (Constancy Formula) 02:41
******************************
Total playing time: 43:49



[more=Extended info]Hexencave Productions - hex017[/more]

[more=Technical info]
Input File: 02. Ночь Смертельного Маскарада (Night Of The Deadly Masquerade).mp3
Channels : 2
Sample Rate : 44100
Precision : 16-bit
Duration : 00:04:42.79 = 12471083 samples = 21209.3 CDDA sectors
File Size : 11.4M
Bit Rate : 323k
Sample Encoding: MPEG audio (layer I, II or III)
Comments :
Title=Ночь Смертельного Маскарада (Night Of The Deadly Masquerade)
Artist=А за Солнцем Луна...
Album=На Метле к Звёздам
Tracknumber=02/12
Year=2021
Genre=Black Metal

[/more]

Register
(19) alikkon, Aresson, Bekkerev, caro, cesar, El_Chibo, Golodomor, infiltrator, judaz, kim666, Olethros, Ostinato, Phlebotomized, rammstein888, satanist666, VALERY, varlam4, Wail, Сварог Барг,
May 2 2021, 13:28:29 Cresset - Obscurantism (2021)


*Artist: Cresset
*Album: Obscurantism
*Year: 2021
*Genre: Black Metal
*Country: Slovakia
*Format: mp3@CBR320kbps
*Size: 82MB

Tracklist:
1. Rapture 04:19
2. Iuste Iudicate Filii Hominum 04:37
3. Offering 06:36
4. Nameless Idolatry 05:17
5. Reliquary 07:21
6. Il Sangue Dei Monaci Guerrieri (Fraternity of Voluntary Flagellation) 07:01
******************************
Total playing time: 35:11



[more=Technical info]
Input File: 01. Rapture.mp3
Channels : 2
Sample Rate : 44100
Precision : 16-bit
Duration : 00:04:20.04 = 11467632 samples = 19502.8 CDDA sectors
File Size : 10.5M
Bit Rate : 323k
Sample Encoding: MPEG audio (layer I, II or III)
Comments :
Title=Rapture
Artist=Cresset
Album=Obscurantism
Tracknumber=01/05
Year=2021
Genre=Black Metal

[/more]

Register
(17) AlexSmith, atavist, cesar, El_Chibo, infiltrator, kim666, legion01, Olethros, Ostinato, Reverend, Rover, satanist666, SilentNidhogg, VALERY, varlam4, Waldemar666, Абигор,
May 2 2021, 13:22:41 Cresset - Conqueror Worm [ep] (2017)


*Artist: Cresset
*Album: Conqueror Worm [ep]
*Year: 2017
*Genre: Black Metal
*Country: Slovakia
*Format: mp3@CBR320kbps
*Size: 87MB

Tracklist:
1. The Pit 05:46
2. The Dead Drummer 04:33
3. Nyarlathotep 04:25
4. Dance of Bayonets 04:46
5. Necrocracy 06:19
6. Chained Coffin 03:52
7. Seelendorf 06:51
******************************
Total playing time: 36:32



[more=Technical info]
Input File: 02. The Dead Drummer.mp3
Channels : 2
Sample Rate : 44100
Precision : 16-bit
Duration : 00:04:33.07 = 12042519 samples = 20480.5 CDDA sectors
File Size : 11.0M
Bit Rate : 323k
Sample Encoding: MPEG audio (layer I, II or III)
Comments :
Title=The Dead Drummer
Artist=Cresset
Album=Conqueror Worm EP
Tracknumber=02/07
Year=2017
Genre=Black Metal

[/more]

Register
(11) El_Chibo, infiltrator, kim666, obituarydark, Olethros, Ostinato, Reverend, satanist666, SilentNidhogg, VALERY, varlam4,
May 2 2021, 13:08:28 Vanhelga - Enfin Morte [ep] (2021)


*Artist: Vanhelga
*Album: Enfin Morte [ep]
*Year: 2021
*Genre: Depressive Black Metal
*Country: Sweden
*Format: mp3@CBR320kbps
*Size: 57MB

Tracklist:
01. Sjuklig Samhörighet 03:43
02. Totalt Jävla Urspårad 02:18
03. Dagar Som Denna 05:43
04. Time Is Cancer 06:02
05. Finally Dead 04:28
******************************
Total playing time: 22:14


Preview 2

[more=Technical info]
Input File: 02. Totalt Jävla Urspårad.mp3
Channels : 2
Sample Rate : 44100
Precision : 16-bit
Duration : 00:02:18.72 = 6117596 samples = 10404.1 CDDA sectors
File Size : 5.94M
Bit Rate : 342k
Sample Encoding: MPEG audio (layer I, II or III)
Comments :
Title=Totalt jävla urspårad
Artist=Vanhelga
Album=Enfin Morte
Tracknumber=02/05
Year=2021
Genre=Black Metal

[/more]

Register
(18) BERZERK, Bitchkiller, dermarsoran, infiltrator, kim666, kimkayoung, kryptor, Olethros, Ostinato, randumbum, robertho777, Sanctus, satanist666, SilentNidhogg, Sjelekval, varlam4, yuratroll, ZA670,
May 2 2021, 12:07:05 Blessings Cremation (Кремация Блаженных) - Sozhzhenie (Сожжение) (1993)


*Artist: Blessings Cremation (Кремация Блаженных)
*Album: Sozhzhenie (Сожжение)
*Year: 1993
*Genre: Death Metal
*Country: Russian Federation
*Format: mp3@VBR245kbps
*Size: 81MB

Tracklist:
1. Пролог 1:44
2. Алтари освещённые жертвенным безумием 3:49
3. Отхаркнутый выкидыш 5:03
4. Умервщляя плоть 3:26
5. Сожжение 3:45
6. Брюхо богов (кормушка рода псов) 7:25
7. Сквозь шторм стен огня 3:21
8. Расщепление 4:08
9. Кремация блаженных 4:15
******************************
Total playing time: 36:56

[more=Extended info]Scene / GRAVEWISH
Ragnarok Rec ‎– ragnarok 007, bootleg 2020.[/more]

[more=Technical info]
Input File: 02-kremaciya_blazhennyh-altari_osveshchyonnye_zhertvennym_bezumiem.mp3
Channels : 2
Sample Rate : 44100
Precision : 16-bit
Duration : 00:03:49.27 = 10110631 samples = 17195 CDDA sectors
File Size : 8.80M
Bit Rate : 307k
Sample Encoding: MPEG audio (layer I, II or III)
Comments :
Title=Altari Osveshchyonnye Zhertvennym Bezumiem
Artist=Kremaciya Blazhennyh
Album=Sozhzhenie
Tracknumber=2/9
Year=2020-00-00
Genre=Death Metal

[/more]

Register
(17) acerbus, Boozer, caro, chipsgott, Evilded, infiltrator, jollo, Morra, Olethros, stumpheavyrock, Svafrlami, VALERY, varlam4, vyacheslav, Wail, wanderer73, Xtohar,
May 2 2021, 11:48:00 Spectral Corruption - Promo 2021 [demo] (2021)


*Artist: Spectral Corruption
*Album: Promo 2021 [demo]
*Year: 2021
*Genre: Raw Black Metal
*Country: Slovakia
*Format: mp3@CBR320kbps
*Size: 50MB

Tracklist:
1. Cold Of Deepest Corners 06:51
2. Creations Of The Night 07:03
3. Colorless Rays Of The Sun 07:29
******************************
Total playing time: 21:23



[more=Extended info]Signal Rex, tape.[/more]

[more=Technical info]
Input File: 02. Creations Of The Night.mp3
Channels : 2
Sample Rate : 44100
Precision : 16-bit
Duration : 00:07:03.44 = 18673792 samples = 31758.1 CDDA sectors
File Size : 17.0M
Bit Rate : 321k
Sample Encoding: MPEG audio (layer I, II or III)
Comments :
Title=Creations Of The Night
Artist=Spectral Corruption
Album=Promo 2021
Tracknumber=02/03
Year=2021
Genre=Black Metal

[/more]

Register
(13) Cramloth, infiltrator, killingod, kim666, legion01, nemx, Olethros, Ostinato, Pinhead666, satanist666, SileniusLegard, varlam4, Waldemar666,
May 2 2021, 09:29:41 Ruohtta - Gutna (2021)


*Artist: Ruohtta
*Album: Gutna
*Year: 2021
*Genre: Black Metal
*Country: Finland
*Format: mp3@CBR320kbps
*Size: 83MB

Tracklist:
1. Taulatikku 03:19
2. Vašše 03:17
3. Kuolevissa ruuhmiissa 03:09
4. Liekin ääni 04:36
5. Tuli vie, tuli antaa 04:28
6. Dollii 03:29
7. Ákšu ja niibi 03:45
8. Paikkojen huuot 04:33
9. Gutna 04:40
******************************
Total playing time: 35:16



[more=Technical info]
Input File: 03. Kuolevissa Ruuhmiissa.mp3
Channels : 2
Sample Rate : 44100
Precision : 16-bit
Duration : 00:03:09.09 = 8338737 samples = 14181.5 CDDA sectors
File Size : 7.62M
Bit Rate : 322k
Sample Encoding: MPEG audio (layer I, II or III)
Comments :
Title=Kuolevissa Ruuhmiissa
Artist=Ruohtta
Album=Gutna
Tracknumber=03/09
Year=2021
Genre=Black Metal

[/more]

Register
(32) AlexSmith, antonyamanov00, atavist, Bitchkiller, cesar, grimoir, infiltrator, kim666, kimkayoung, legion01, LEGION69, multizwilling, nadin85, nemx, nsk2008, Olethros, Ostinato, Qliphoth, rimfrost, robertho777, Rover, runawaycyborg, sabr, SaintVitus, satanist666, SilentNidhogg, undeadlich, VALERY, varlam4, Waldemar666, Абигор, Авел,
May 2 2021, 07:11:33 Spectral Knight - Demo MMXXI [demo] (2021)


*Artist: Spectral Knight
*Album: Demo MMXXI [demo]
*Year: 2021
*Genre: Raw Black Metal
*Country: Poland
*Format: mp3@CBR320kbps
*Size: 34MB

Tracklist:
1. Demo MMXXI 14:35
******************************
Total playing time: 14:35



[more=Technical info]
Input File: 01. Demo MMXXI (cassette rip).mp3
Channels : 2
Sample Rate : 44100
Precision : 16-bit
Duration : 00:14:36.09 = 38635613 samples = 65706.8 CDDA sectors
File Size : 35.2M
Bit Rate : 322k
Sample Encoding: MPEG audio (layer I, II or III)
Comments :
Title=Demo MMXXI (cassette rip)
Artist=Spectral Knight
Album=Demo MMXXI
Tracknumber=01/01
Year=2021

[/more]

Register
(16) Bzth, grimoir, infiltrator, killingod, kim666, legion01, Morra, nemx, Olethros, Ostinato, satanist666, SilentNidhogg, uk82grind, VALERY, varlam4, vasiljev_sergej,
May 2 2021, 07:06:25 Daemonlust - Death, The Heart Of Satan (2020)


*Artist: Daemonlust
*Album: Death, The Heart Of Satan
*Year: 2020
*Genre: Black Metal
*Country: Finland
*Format: mp3@CBR320kbps
*Size: 112MB

Tracklist:
1. Evil (Intro I) 01:24
2. Tuhotun jumalan unohdettu valtakunta 05:49
3. Lifeless & Stainless 07:57
4. Pentagram Manifest 05:24
5. Blasphemous Glossolalia (Gospel of the Antichrist) 05:06
6. Curse (Intro II) 02:07
7. Uhrauksia 08:42
8. Towards the Absolute 04:58
9. Triumph of the End 07:21
******************************
Total playing time: 48:48

[more=Extended info]Out of the Dungeon - DUNGEON025[/more]

[more=Technical info]
Input File: 02. Tuhotun Jumalan Unohdettu Valtakunta.mp3
Channels : 2
Sample Rate : 44100
Precision : 16-bit
Duration : 00:05:49.03 = 15392267 samples = 26177.3 CDDA sectors
File Size : 14.0M
Bit Rate : 321k
Sample Encoding: MPEG audio (layer I, II or III)
Comments :
Title=Tuhotun Jumalan Unohdettu Valtakunta
Artist=Daemonlust
Album=Death, The Heart Of Satan
Tracknumber=02/09
Year=2021
Genre=Black Metal

[/more]

Register
(26) AlexSmith, atavist, Bitchkiller, cesar, GorAtheist, grimoir, infiltrator, kim666, Korpse, legion01, Marek, Morra, murian, Olethros, Ostinato, robertho777, Rover, sabr, satanist666, SilentNidhogg, stormhatt, tim47, VALERY, varlam4, Waldemar666, Абигор,
May 2 2021, 06:49:16 Sirpinmurtaja - Sirpinmurtaja (2021)


*Artist: Sirpinmurtaja
*Album: Sirpinmurtaja
*Year: 2021
*Genre: Black Metal
*Country: Finland
*Format: mp3@CBR320kbps
*Size: 78MB

Tracklist:
1. Intro 02:14
2. Sodasta ja verenluomasta vihanpidosta 14:44
3. Kuolema on kallisarvoinen 11:05
4. Kyynlaulu 05:33
******************************
Total playing time: 33:36

[more=Extended info]Out of the Dungeon - DUNGEON029
ex-Demogorgon
[/more]

[more=Technical info]
Input File: 02. Sodasta Ja Verenluomasta Vihanpidosta.mp3
Channels : 2
Sample Rate : 44100
Precision : 16-bit
Duration : 00:14:44.62 = 39011786 samples = 66346.6 CDDA sectors
File Size : 35.5M
Bit Rate : 321k
Sample Encoding: MPEG audio (layer I, II or III)
Comments :
Title=Sodasta Ja Verenluomasta Vihanpidosta
Artist=Sirpinmurtaja
Album=Sirpinmurtaja
Tracknumber=02/04
Year=2021
Genre=Black Metal

[/more]

Register
(28) ALBIGON, AlexSmith, alikkon, atavist, Bitchkiller, cesar, cryptal, grimoir, infernallord, infiltrator, kim666, kimkayoung, Marek, Morra, murian, nemx, Old Vyaine, Olethros, Ostinato, robertho777, rominow, Rover, satanist666, SilentNidhogg, tim47, VALERY, varlam4, Waldemar666,

82 Pages V   1 2 3 > » 
- Lo-Fi Version Support form
Copyrights and abuse reports form
Time is now: 18th May 2021 - 02:34:06