Welcome Guest ( Log In | Register )

История благодарностей участнику Velmi ::: Спасибо сказали: 40776 раз(а)
Дата поста: В теме: За сообщение: Спасибо сказали:
Jul 4 2020, 07:29:39 Ages Of Blood - Pagan Medieval Aristocracy [ep] (2020)


*Artist: Ages Of Blood
*Album: Pagan Medieval Aristocracy [ep]
*Year: 2020
*Genre: Raw Black Metal
*Country: Argentina
*Format: mp3@CBR320kbps
*Size: 62MB

Tracklist:
1. Frozen Castle in the Mist 02:05
2. Pagan Medieval Aristocracy 08:04
3. Feeble Whispers from an Old Witch 07:10
4. Forest of Dark Spirits 02:02
5. Black Harvest 06:00
******************************
Total playing time: 25:21




[more=Extended info]Death Kvlt Productions - DKP-74[/more]

[more=Technical info]
Input File: 02. Pagan Medieval Aristocracy.mp3
Channels : 2
Sample Rate : 44100
Precision : 16-bit
Duration : 00:08:04.18 = 21352338 samples = 36313.5 CDDA sectors
File Size : 19.5M
Bit Rate : 321k
Sample Encoding: MPEG audio (layer I, II or III)
Comments :
Title=Pagan Medieval Aristocracy
Artist=Ages of Blood
Album=Pagan Medieval Aristocracy
Tracknumber=02/05
Year=2020
Genre=Black Metal

[/more]

Register
(15) 1968_janeart, grimoir, infiltrator, kim666, Lukittaz, Maximvs, multizwilling, Olethros, Ostinato, randumbum, scorn33, SilentNidhogg, thenecromancer, VALERY, vasiljev_sergej,
Jul 3 2020, 17:50:21 Trépas - L'héritage Du Monde (2020)


*Artist: Trépas
*Album: L'héritage Du Monde
*Year: 2020
*Genre: Black Metal
*Country: Canada
*Format: mp3@CBR320kbps
*Size: 90MB

Tracklist:
1. Rivages Sombres 07:12
2. L'aube 05:00
3. L'héritage du monde 06:43
4. Charognes 05:57
5. Trépas 05:42
6. Errance 08:00
******************************
Total playing time: 38:34

[more=Extended info]Sepulchral Productions - SP055[/more]

[more=Technical info]
Input File: 02. L\'aube.mp3
Channels : 2
Sample Rate : 44100
Precision : 16-bit
Duration : 00:05:00.61 = 13256901 samples = 22545.8 CDDA sectors
File Size : 12.1M
Bit Rate : 323k
Sample Encoding: MPEG audio (layer I, II or III)
Comments :
Title=L'aube
Artist=Trépas
Album=L'héritage du monde
Tracknumber=02/06
Year=2019
Genre=Atmospheric Black Metal

[/more]

Register
(19) 1968_janeart, alikkon, atavist, exorcist1969, infiltrator, kim666, Lukittaz, Maximvs, multizwilling, randumbum, Reverend, robertho777, SadistikSlayer, SilentNidhogg, stub888, supremo, VALERY, vasiljev_sergej, Нигилист,
Jun 20 2020, 18:12:28 Witch Ward - Sacrificial Monolith [demo] (2020)


*Artist: Witch Ward
*Album: Sacrificial Monolith [demo]
*Year: 2020
*Genre: Raw Black Metal/Punk
*Country: United States
*Format: mp3@CBR320kbps
*Size: 33MB

Tracklist:
1. Sacrificial Monolith 02:54
2. Cannibalistic Tendencies 01:21
3. Orbital Devourment 01:23
4. Selective Extinction 01:27
5. Life.Death.Ascension. 03:11
******************************
Total playing time: 10:16



[more=Extended info]Caligari Records ‎– CAL 170[/more]

[more=Technical info]
Input File: 02. Cannibalistic Tendencies.mp3
Channels : 2
Sample Rate : 44100
Precision : 16-bit
Duration : 00:01:21.09 = 3576113 samples = 6081.82 CDDA sectors
File Size : 3.49M
Bit Rate : 344k
Sample Encoding: MPEG audio (layer I, II or III)
Comments :
Title=Cannibalistic Tendencies
Artist=Witch Ward
Album=Sacrificial Monolith
Tracknumber=02/05
Year=2020
Genre=Raw Black Metal / Punk

[/more]

Register
(15) Alexis The Best, gena, grimoir, infiltrator, kim666, Lamby90, nemx, Ostinato, randumbum, SilentNidhogg, stub888, varlam4, vasiljev_sergej, Wail, wgs73,
Jun 17 2020, 17:15:24 Malign - Demo 1​/​95 [demo] (1995)


*Artist: Malign
*Album: Demo 1​/​95 [demo]
*Year: 1995
*Genre: Black Metal
*Country: Sweden
*Format: mp3@CBR320kbps
*Size: 82MB

Tracklist:
1. Blod Skall Flöda 03:32
2. Extirpation of the Feeble 04:00
3. The Wanderer 04:07
4. Covenant of Black Souls 04:53
5. Blod Skall Flöda (alternative) 03:21
6. Extirpation of the Feeble (alternative) 04:14
7. The Wanderer (alternative) 04:18
8. Covenant of Black Souls (alternative) 04:35
******************************
Total playing time: 33:00



[more=Extended info]The full version of their classic 4 track 1995 demo, also including alternative versions of each song. 1-4 tracks recorded at Skärholmens Ungdomsgård during two days in December of 1995. 5-8 - various recordings made between 1994 and 1996

Reissue by Shadow Records, June 15th, 2020[/more]

[more=Technical info]
Input File: 02. Extirpation of the Feeble.mp3
Channels : 2
Sample Rate : 44100
Precision : 16-bit
Duration : 00:04:00.94 = 10625586 samples = 18070.7 CDDA sectors
File Size : 9.70M
Bit Rate : 322k
Sample Encoding: MPEG audio (layer I, II or III)
Comments :
Title=Extirpation of the Feeble
Artist=Malign
Album=Demo 1/95
Tracknumber=02/08
Year=1995
Genre=Black Metal

[/more]

Register
(32) 1968_janeart, acerbus, Daale, dsp, grimoir, heinz88, Hell_Is_Here, Ildjarn, infiltrator, Kazoth, kefka, kim666, lestllk, milosdjor, Mortuusinfernus, Olethros, Ostinato, randumbum, robertho777, soulskinner681, stub888, stumpheavyrock, thenecromancer, varlam4, vasiljev_sergej, vovenom, Wail, wgs73, wolverine, wtk.412, Xutun, Абигор,
Jun 17 2020, 16:59:57 Nexion - Seven Oracles (2020)


Nexion - 2020 - Seven Oracles
Avantgarde Music - AV390

320 Kbps @Yadi.sk
Register
(11) abob, acerbus, Lamby90, Lunaris, milosdjor, Mortuusinfernus, nemx, satanist666, SatanMy_Master, Vitner, wolverine,
Jun 17 2020, 16:51:45 I'm In A Coffin - Waste Of Skin (2020)


*Artist: I'm In A Coffin
*Album: Waste Of Skin
*Year: 2020
*Genre: Depressive Black Metal
*Country: United States
*Format: mp3@CBR320kbps
*Size: 84MB

Tracklist:
1. Solipsistic Dry Heaves 05:31
2. Ending Soon Now 04:38
3. Slave to My Skin 05:31
4. Dust Spirit 03:22
5. Dawn Goes Down Today 02:18
6. Suicide Eyes 05:23
7. Life Never Was (Waste of Skin) 08:13
******************************
Total playing time: 34:56



[more=Technical info]
Input File: 02. Ending Soon Now.mp3
Channels : 2
Sample Rate : 48000
Precision : 16-bit
Duration : 00:04:38.57 = 13371408 samples ~ 20892.8 CDDA sectors
File Size : 11.4M
Bit Rate : 326k
Sample Encoding: MPEG audio (layer I, II or III)
Comments :
Title=Ending Soon Now
Artist=I'm In A Coffin
Album=Waste of Skin
Tracknumber=02/07
Year=2020
Genre=Depressive Black Metal

[/more]

Register
(29) 1968_janeart, A.L.Rapsod, AlexSmith, Femto, gena, grimoir, Ildjarn, infiltrator, kim666, lestllk, Lukittaz, metala, multizwilling, murian, Olethros, Ostinato, randumbum, robertho777, SameMan, senecazm, SilentNidhogg, sok, supremo, Tyrone, VALERY, varlam4, vasiljev_sergej, Yorker, Абигор,
Jun 13 2020, 18:24:17 Burgfried - 1631 [demo] (2020)


*Artist: Burgfried
*Album: 1631 [demo]
*Year: 2020
*Genre: Raw Black Metal
*Country: Germany
*Format: mp3@CBR320kbps
*Size: 47MB

Tracklist:
1. 1631 (Intro) 01:04
2. Wachtfeuer 04:19
3. Der Löwe aus Mitternacht 04:36
4. Teufelsschlund (Interlude) 03:12
5. Zu Feldern 05:45
******************************
Total playing time: 18:56



[more=Technical info]
Input File: 02. Wachtfeuer.mp3
Channels : 2
Sample Rate : 44100
Precision : 16-bit
Duration : 00:04:19.85 = 11459561 samples = 19489 CDDA sectors
File Size : 10.6M
Bit Rate : 327k
Sample Encoding: MPEG audio (layer I, II or III)
Comments :
Title=Wachtfeuer
Artist=Burgfried
Album=1631
Tracknumber=02/05
Year=2020
Genre=Black Metal

[/more]

Register
(15) 1968_janeart, craP_cillA, infiltrator, kim666, Olethros, Ostinato, raaf, randumbum, robertho777, SilentNidhogg, stub888, VALERY, varlam4, vasiljev_sergej, V_H_H_V,
Jun 13 2020, 18:19:03 Kyriss - Olden Ruins & Miry Depths [demo] (2020)


*Artist: Kyriss
*Album: Olden Ruins & Miry Depths [demo]
*Year: 2020
*Genre: Raw Black Metal
*Country: Germany
*Format: mp3@CBR320kbps
*Size: 52MB

Tracklist:
1. Spectres Above The Mire 06:32
2. A Boggy Death 03:24
3. Breathless Between Black Branches 04:48
4. Ruinous Yet Triumphant 06:12
******************************
Total playing time: 20:56



[more=Technical info]
Input File: 03. Breathless Between Black Branches.mp3
Channels : 2
Sample Rate : 44100
Precision : 16-bit
Duration : 00:04:48.07 = 12703799 samples = 21605.1 CDDA sectors
File Size : 11.6M
Bit Rate : 323k
Sample Encoding: MPEG audio (layer I, II or III)
Comments :
Title=Breathless Between Black Branches
Artist=Kyriss
Album=Olden Ruins & Miry Depths
Tracknumber=03/04
Year=2020
Genre=Raw Black Metal

[/more]

Register
(12) 1968_janeart, Evilded, grimoir, infiltrator, kim666, murian, Olethros, robertho777, SilentNidhogg, stub888, VALERY, vasiljev_sergej,
Jun 13 2020, 06:55:32 Snorri - The Devil Carved [ep] (2018)


*Artist: Snorri
*Album: The Devil Carved [ep]
*Year: 2018
*Genre: Black Metal
*Country: Australia
*Format: mp3@CBR320kbps
*Size: 41MB

Tracklist:
1. ~ 01:17
2. Endless Darkness 03:05
3. The Devil Carved 04:39
4. Black Tongue Hymn 03:41
5. Satanas 01:08
******************************
Total playing time: 13:50



[more=Extended info]Signal Rex ‎– SIGNAL74[/more]

[more=Technical info]
Input File: 02. Endless Darkness.mp3
Channels : 2
Sample Rate : 44100
Precision : 16-bit
Duration : 00:03:05.09 = 8162337 samples = 13881.5 CDDA sectors
File Size : 7.45M
Bit Rate : 322k
Sample Encoding: MPEG audio (layer I, II or III)
Comments :
Title=Endless Darkness
Artist=Snorri
Album=The Devil Carved
Tracknumber=02/05
Year=2018
Genre=Raw Black Metal

[/more]

Register
(16) 1968_janeart, cairn, cist, El_Chibo, Hell_Is_Here, infiltrator, kim666, Olethros, robertho777, Rosen, SilentNidhogg, smysl, stub888, VALERY, vasiljev_sergej, Wail,
Jun 13 2020, 06:18:45 The Ninth Departure - Demo I [demo] (2020)


*Artist: The Ninth Departure
*Album: Demo I [demo]
*Year: 2020
*Genre: Black Metal
*Country: Australia
*Format: mp3@CBR320kbps
*Size: 43MB

Tracklist:
1. . 01:12
2. I 02:03
3. II 05:21
4. III 02:41
5. IV 02:36
6. Ancient Queen (Emperor cover) 04:33
******************************
Total playing time: 18:26



[more=Extended info]Esfinge de la Calavera[/more]

[more=Technical info]
Input File: 03. II.mp3
Channels : 2
Sample Rate : 44100
Precision : 16-bit
Duration : 00:05:21.09 = 14160157 samples = 24081.9 CDDA sectors
File Size : 13.0M
Bit Rate : 325k
Sample Encoding: MPEG audio (layer I, II or III)
Comments :
Title=II
Artist=The Ninth Departure
Album=Demo I
Tracknumber=03/06
Year=2020
Genre=Black metal

[/more]

Register
(12) 1968_janeart, Hell_Is_Here, infiltrator, kim666, Olethros, robertho777, Rosen, SilentNidhogg, smysl, stub888, VALERY, vasiljev_sergej,
May 31 2020, 06:52:44 Askefruer - A Far Light In Deep Woods [demo] (2019)


*Artist: Askefruer
*Album: A Far Light In Deep Woods [demo]
*Year: 2019
*Genre: Depressive Black Metal
*Country: United States
*Format: mp3@CBR320kbps
*Size: 69MB

Tracklist:
1. Black Heavens Over Earthbound Masochism 08:43
2. Blood Moon Illness 09:52
3. Meditations On Astorian Altars 11:23
******************************
Total playing time: 29:58




[more=Extended info]Stench Ov Death Prod. - SDP-15[/more]

[more=Technical info]
Input File: 02. Blood Moon Illness.mp3
Channels : 2
Sample Rate : 44100
Precision : 16-bit
Duration : 00:09:52.49 = 26128765 samples = 44436.7 CDDA sectors
File Size : 23.8M
Bit Rate : 321k
Sample Encoding: MPEG audio (layer I, II or III)
Comments :
Title=Blood Moon Illness
Artist=Askefruer
Album=A Far Light In Deep Woods
Tracknumber=2
Year=2019
Genre=Depressive Black Metal

[/more]

Register
(17) 1968_janeart, andivi, craP_cillA, infiltrator, kim666, Olethros, randumbum, Rosen, senecazm, SilentNidhogg, smysl, stub888, thenecromancer, Tyrone, VALERY, varlam4, vasiljev_sergej,
May 25 2020, 16:33:43 Nothing - The Perfection Of Nothingness (2020)


*Artist: Nothing
*Album: The Perfection Of Nothingness
*Year: 2020
*Genre: Black Metal
*Country: Russian Federation
*Format: mp3@CBR320kbps
*Size: 113MB

Tracklist:
1. I 08:11
2. II 08:15
3. III 06:23
4. IV 05:03
5. V 03:59
6. VI 05:30
7. VII 07:04
8. VIII 04:44
******************************
Total playing time: 49:09



[more=Extended info]Barbatos Productions[/more]

[more=Technical info]
Input File: 05. Nothing Five.mp3
Channels : 2
Sample Rate : 44100
Precision : 16-bit
Duration : 00:03:59.35 = 10555203 samples = 17951 CDDA sectors
File Size : 9.68M
Bit Rate : 323k
Sample Encoding: MPEG audio (layer I, II or III)
Comments :
Title=Nothing Five
Artist=Nothing
Album=The Perfection of Nothingness
Tracknumber=05/08
Year=2020
Genre=Black Metal

[/more]

Register
(29) 1968_janeart, AlexSmith, alikkon, andeimon, atavist, cesar, GodDethroned, Hell_Is_Here, HMHamster, Ildjarn, infiltrator, kim666, Moonshtook, multizwilling, nsk2008, Olethros, Ostinato, pahail, randumbum, robertho777, Rosen, SilentNidhogg, squall8fr, supremo, toly1917, VALERY, varlam4, vasiljev_sergej, Wail,
May 25 2020, 14:54:53 Pagan - Rehearsal Tape '19 [demo] (2019)


*Artist: Pagan
*Album: Rehearsal Tape '19 [demo]
*Year: 2019
*Genre: Black Metal
*Country: Turkey
*Format: mp3@CBR320kbps
*Size: 93MB

Tracklist:
1. The Longing and the Ancient Ones/Marching of the Hordes 06:56
2. The Quest of the Chronomancer 06:20
3. Shamanic Flames 07:22
4. The Wyrmweaver 06:58
5. Elenyr 03:55
6. The Ascending 08:02
******************************
Total playing time: 39:33

[more=Extended info]Saturnal Records[/more]

[more=Technical info]
Input File: 02. The Quest of the Chronomancer.mp3
Channels : 2
Sample Rate : 44100
Precision : 16-bit
Duration : 00:06:20.65 = 16786841 samples = 28549 CDDA sectors
File Size : 15.3M
Bit Rate : 322k
Sample Encoding: MPEG audio (layer I, II or III)
Comments :
Title=The Quest of the Chronomancer
Artist=Pagan
Album=Rehearsal Tape '19
Tracknumber=02/06
Year=2019
Genre=Black Metal

[/more]

Register
(16) 1968_janeart, Ildjarn, infiltrator, kim666, lestllk, Olethros, Ostinato, PLamenism, randumbum, Rosen, Slavas, smysl, VALERY, varlam4, vasiljev_sergej, Wail,
May 22 2020, 16:45:02 Ancient Hatred - Glorification Of The End (2020)


*Artist: Ancient Hatred
*Album: Glorification Of The End
*Year: 2020
*Genre: Black Metal
*Country: Finland
*Format: mp3@CBR320kbps
*Size: 103MB

Tracklist:
1. All Hail Death
2. Ruins of the Old World
3. Death Swallows the Earth
4. Epoch
5. Wyrdmungandr
6. Decrepit Path
7. Glorification of the End
******************************
Total playing time: 41:37



[more=Extended info]Astral Nightmare Productions - ANP 027[/more]

[more=Technical info]
Input File: 03. Death Swallows the Earth.mp3
Channels : 2
Sample Rate : 44100
Precision : 16-bit
Duration : 00:05:50.26 = 15446422 samples = 26269.4 CDDA sectors
File Size : 14.1M
Bit Rate : 323k
Sample Encoding: MPEG audio (layer I, II or III)
Comments :
Title=Death Swallows the Earth
Artist=Ancient Hatred
Album=Glorification of the End
Tracknumber=03/07
Year=2020
Genre=Black Metal

[/more]

Register
(35) 1968_janeart, AlexSmith, alikkon, andivi, atavist, ent404, infozahist, kim666, Mares, MMMMM, multizwilling, nemx, nsk2008, Oath19, Occultas, Olethros, Ostinato, pahail, randumbum, robertho777, Rosen, Sanctus, sandr666, SilentNidhogg, stub888, thenecromancer, toly1917, VALERY, varlam4, vasiljev_sergej, vovenom, Wail, yuratroll, zhol, Абигор,
May 21 2020, 14:42:38 Armagedda - Svindeldjup Ättestup (2020)


*Artist: Armagedda
*Album: Svindeldjup Ättestup
*Year: 2020
*Genre: Black Metal
*Country: Sweden
*Format: mp3@CBR320kbps
*Size: 115MB

Tracklist:
1. Det sjuttonde året 01:22
2. Ond Spiritism 06:36
3. Likvaka 07:11
4. Djupens djup 08:02
5. Guds kadaver (En falsk Messias) 07:38
6. Flod av smuts 06:56
7. Evigheten i en obrytbar cirkel 11:06
******************************
Total playing time: 48:51



[more=Extended info]Nordvis Produktion - NVP317[/more]

[more=Technical info]
Input File: 04. Djupens djup.mp3
Channels : 2
Sample Rate : 44100
Precision : 16-bit
Duration : 00:00:00.48 = 21212 samples = 36.0748 CDDA sectors
File Size : 19.5M
Bit Rate : 324M
Sample Encoding: MPEG audio (layer I, II or III)
Comments :
Title=Djupens djup
Artist=Armagedda
Album=Svindeldjup Ättestup
Tracknumber=04/07
Year=2020
Genre=Black Metal

[/more]

Register
(140) 1968_janeart, acerbus, alikkon, andeimon, atavist, babanguida, biroutios, Black Cat, blackmetalmilitia, bloodwind, Boozer, bowelled, Branis, BrutalHero, cesar, Corpse_Of_The_Christ, craP_cillA, Daale, dan22, DarkHorde, Deathconnect, dermarsoran, Der_Hexer, Dirt_ORFEY, Dmitry1977, donnar, DrStan, dsp, elsunga, El_Chibo, Femto, Frozenkult, Fryz, FUDEDOR, FullofHate, fuoco, garmonbozia, gav-gafi, gena, Golodomor, gowniarz, heinz88, Hell_Is_Here, Ice Gnoll, igore2911, Ildjarn, Infidel, infiltrator, Interfides, JD666Hellion, judaz, Kazoth, kefka, kim666, Korpse, kupiszcze, Lafii, lafuma, laTERNentrager, Legacy100, LEGION69, Lord Noctua, LordHaart, lucifix, Lukittaz, Lunaris, Mares, marilin, Mencae77, MetalAreola, Metalass, milosdjor, Mist13Signifier, MMMMM, mondblut, multizwilling, murian, Necromag, nemx, NOMIDIMON, nsk2008, nsmetalhead, Occultas, Old Vyaine, Olethros, Ostinato, Panacea, Phlebotomized, Pinhead666, Poison666, raaf, Radek, rammstein888, randumbum, rimfrost, ripper33, Rita, robertho777, Rosen, RUDACHUR, sabr, SaintVitus, satanist666, Scuns, serjred, Shadechaser, SilentNidhogg, Skog1349, Slavas, smes, squall8fr, StabWound, stub888, Surt, suseka, SyncestrA, tamerz, thenecromancer, Thiarnan, Thunderbird, Tino, toly1917, VALERY, varlam4, vasiljev_sergej, vosmidesijatye, vov7609, vovenom, V_H_H_V, westwall, wolverine, xska, yuratroll, ZambuL, zhol, Zoloft, Абигор, Келебрин, некрософ, Сварог Барг,
May 20 2020, 16:06:27 Ifernach - Waqan [ep] (2020)


Ifernach - 2020 - VII - Waqan

Bandcamp 320 Kbps @Yadi.sk
Register
(1) thenecromancer,
May 20 2020, 15:56:44 Iku-Turso - Pakana (2020)


Iku-Turso - 2020 - Pakana

Bandcamp 320 Kbps @Yadi.sk
Register
(1) acerbus,
May 19 2020, 17:23:58 Branikald - The Strings Of Inspiration Sing (2000)


Branikald - 2020 - The Strings Of Inspiration Sing
Der Schwarze Tod - TOD 73

FLAC Scene @Yadi.sk
Register
(9) aimtoknow, Brann, dalex, laTERNentrager, RUDACHUR, Sangreal, sethurius, varlam4, Wail,
May 19 2020, 16:50:34 Thanatomass - Darkest Conjurations [demo] (2020)


*Artist: Thanatomass
*Album: Darkest Conjurations [demo]
*Year: 2020
*Genre: Black Metal
*Country: Russian Federation
*Format: mp3@CBR320kbps
*Size: 60MB

Tracklist:
1. Darkest Conjurations 06:54
2. The Chalice & the Torch 04:46
3. The Seven Flames 07:20
4. Eschatonic Sacrifice 06:06
******************************
Total playing time: 25:06



[more=Extended info]LVX MorgenStern - [XVL004][/more]

[more=Technical info]
Input File: 02. The Chalice & The Torch.mp3
Channels : 2
Sample Rate : 44100
Precision : 16-bit
Duration : 00:04:47.00 = 12656700 samples = 21525 CDDA sectors
File Size : 11.6M
Bit Rate : 324k
Sample Encoding: MPEG audio (layer I, II or III)
Comments :
Title=The Chalice & The Torch
Artist=Thanatomass
Album=Darkest Conjurations
Tracknumber=02/04
Year=2019
Genre=Black Metal

[/more]

Register
(18) 1968_janeart, Boozer, El_Chibo, Hell_Is_Here, infiltrator, kim666, lestllk, multizwilling, obituarydark, Olethros, Ostinato, randumbum, robertho777, SilentNidhogg, VALERY, varlam4, vasiljev_sergej, Wail,
May 19 2020, 16:26:15 Forest Mysticism & Runespell - Wandering Forlorn [split] (2020)


Forest Mysticism & Runespell - 2020 - Wandering Forlorn
Iron Bonehead Productions

Bandcamp 320 Kbps @ Yadi.sk
Register
(7) acerbus, elsunga, Fatalist77791, infiltrator, sethurius, varlam4, wolverine,
May 18 2020, 17:27:48 Faustgeist - Cosmic Dance Of Entrophy [demo] (2020)


*Artist: Faustgeist
*Album: Cosmic Dance Of Entrophy [demo]
*Year: 2020
*Genre: Raw Black Metal
*Country: Chile
*Format: mp3@CBR320kbps
*Size: 48MB

Tracklist:
1. Earthwomb 02:12
2. Paradoxical Prose of Human Tragedy 08:43
3. Abyssic Evocation 02:26
4. A Throne of Human Remains (Black Cilice cover) 05:56
******************************
Total playing time: 19:17



[more=Technical info]
Input File: 02. Paradoxical Prose Of Human Tragedy.mp3
Channels : 2
Sample Rate : 44100
Precision : 16-bit
Duration : 00:08:43.52 = 23087320 samples = 39264.1 CDDA sectors
File Size : 21.1M
Bit Rate : 322k
Sample Encoding: MPEG audio (layer I, II or III)
Comments :
Title=Paradoxical Prose Of Human Tragedy
Artist=Faustgeist
Album=Cosmic Dance Of Entrophy
Tracknumber=02/04
Year=2020
Genre=Black Metal

[/more]

Register
(14) 1968_janeart, Bzth, infiltrator, kim666, lestllk, Olethros, Ostinato, Rosen, SilentNidhogg, Torolv, VALERY, varlam4, vasiljev_sergej, Wail,
May 17 2020, 13:36:38 Teufelsberg - Ancient Darkness Triumphant [demo] (2020)


*Artist: Teufelsberg
*Album: Ancient Darkness Triumphant [demo]
*Year: 2020
*Genre: Black Metal
*Country: Poland
*Format: mp3@CBR320kbps
*Size: 57MB

Tracklist:
1. Intro 00:39
2. At the Samhain Night 03:34
3. Forest Under Shadow 04:35
4. The Wrath 05:34
5. When the Light Dies 03:55
6. Kiss of the Devil 06:10
******************************
Total playing time: 24:27



[more=Extended info]Signal Rex[/more]

[more=Technical info]
Input File: 02. At the Samhain Night.mp3
Channels : 2
Sample Rate : 44100
Precision : 16-bit
Duration : 00:03:34.39 = 9454379 samples = 16078.9 CDDA sectors
File Size : 8.66M
Bit Rate : 323k
Sample Encoding: MPEG audio (layer I, II or III)
Comments :
Title=At the Samhain Night
Artist=Teufelsberg
Album=Ancient Darkness Triumphant
Tracknumber=02/06
Year=2020
Genre=Black Metal

[/more]

Register
(24) 1968_janeart, Boozer, craP_cillA, Fryz, Ildjarn, infiltrator, kim666, lestllk, multizwilling, obituarydark, Ostinato, Qacco, randumbum, robertho777, Rosen, RUSP73, SilentNidhogg, thenecromancer, varlam4, vasiljev_sergej, vovenom, Wail, wolverine, Абигор,
May 14 2020, 10:46:24 Ivar's Burial - Demo 2017 [demo] (2020)


*Artist: Ivar's Burial
*Album: Demo 2017 [demo]
*Year: 2020
*Genre: Raw Black Metal
*Country: United Kingdom
*Format: mp3@CBR320kbps
*Size: 52MB

Tracklist:
1. Vexation Of All Joy 05:20
2. Penda's Fen 02:41
3. Old World Torture 02:33
4. Obscure Carnage 03:45
5. In Praise Of Barbaric Slaughter 02:34
6. The Eternal Boiling Of Malefic War 05:07
******************************
Total playing time: 22:00



[more=Extended info]Legion Blotan ‎– BLOTTAPE103[/more]

[more=Technical info]
Input File: 02. Penda\'s Fen.mp3
Channels : 2
Sample Rate : 44100
Precision : 16-bit
Duration : 00:02:41.97 = 7142789 samples = 12147.6 CDDA sectors
File Size : 6.59M
Bit Rate : 325k
Sample Encoding: MPEG audio (layer I, II or III)
Comments :
Title=Penda's Fen
Artist=Ivar's Burial
Album=Demo 2017
Tracknumber=02/06
Year=2020
Genre=Black Metal

[/more]

Register
(17) 1968_janeart, acerbus, Alexis The Best, andivi, Daale, ent404, infiltrator, kim666, multizwilling, Olethros, Ostinato, randumbum, Rosen, stub888, VALERY, varlam4, vasiljev_sergej,
May 14 2020, 10:45:00 Caelum Nocte - Caelum Nocte [demo] (2020)


*Artist: Caelum Nocte
*Album: Caelum Nocte [demo]
*Year: 2020
*Genre: Raw Black Metal
*Country: United Kingdom
*Format: mp3@CBR320kbps
*Size: 57MB

Tracklist:
1. Enthrall The Astral
2. The Fog Below
3. Spear Of Triton
4. Epäolevaisen Hehku
******************************
Total playing time: 24:47



[more=Extended info]Legion Blotan ‎– BLOTTAPE095[/more]

[more=Technical info]
Input File: 02. The Fog Below.mp3
Channels : 2
Sample Rate : 44100
Precision : 16-bit
Duration : 00:05:10.24 = 13681496 samples = 23267.9 CDDA sectors
File Size : 12.5M
Bit Rate : 322k
Sample Encoding: MPEG audio (layer I, II or III)
Comments :
Title=The Fog Below
Artist=Caelum Nocte
Album=Caelum Nocte
Tracknumber=02/04
Year=2020
Genre=Black Metal

[/more]

Register
(14) 1968_janeart, Hell_Is_Here, infiltrator, kim666, multizwilling, Olethros, Ostinato, randumbum, Rosen, SilentNidhogg, stub888, VALERY, varlam4, vasiljev_sergej,
May 12 2020, 07:43:46 Poems Of The Elder - Reawakening Of Germanic Spirit (2019)


Poems Of The Elder - 2019 - Reawakening Of Germanic Spirit
Darker Than Black / Nebelklang

CD-rip 320 kbps @Yadi.sk

Register
(2) varlam4, Verhasst,

73 Pages V   1 2 3 > » 
- Lo-Fi Version Support form
Copyrights and abuse reports form
Time is now: 9th July 2020 - 12:05:10