Welcome Guest ( Log In | Register )

История благодарностей участнику Velmi ::: Спасибо сказали: 50119 раз(а)
Дата поста: В теме: За сообщение: Спасибо сказали:
Sep 12 2021, 18:06:20 Sombre Figures - Sombre Figures [demo] (2018)


*Artist: Sombre Figures
*Album: Sombre Figures [demo]
*Year: 2018
*Genre: Raw Black Metal
*Country: Finland
*Format: mp3@CBR320kbps
*Size: 54MB

Tracklist:
A1. From The Ashes
A2. Chain Of Command
A3. Burialsite
A4. Sombre Figures
******************************
Total playing time: 23:00

[more=Extended info]Tape-rip + Scans[/more]

[more=Technical info]
Input File: 02. Chain Of Command.mp3
Channels : 2
Sample Rate : 48000
Precision : 16-bit
Duration : 00:05:55.01 = 17040528 samples ~ 26625.8 CDDA sectors
File Size : 14.4M
Bit Rate : 324k
Sample Encoding: MPEG audio (layer I, II or III)
Comments :
Title=Chain Of Command
Artist=Sombre Figures
Album=Sombre Figures
Tracknumber=02/04
Year=2018
Genre=Raw Black Metal

[/more]

Register
(10) Alexis The Best, caro, Ildjarn, kim666, Oath19, smysl, Svafrlami, thenecromancer, varlam4, Wail,
Sep 12 2021, 17:36:29 Nigrum Tenebris - I Am The Serpent (2021)


*Artist: Nigrum Tenebris
*Album: I Am The Serpent
*Year: 2021
*Genre: Black Metal
*Country: Germany
*Format: mp3@CBR320kbps
*Size: 85MB

Tracklist:
1. Intro 01:08
2. The Beauty of suffering 05:59
3. I am the Serpent 07:46
4. False Prophets 08:07
5. Spit to our creeds 08:02
6. Ode to the nothingness 05:26
******************************
Total playing time: 36:28



[more=Extended info]Sol / Deviant[/more]

[more=Technical info]
Input File: 04. False Prophets.mp3
Channels : 2
Sample Rate : 44100
Precision : 16-bit
Duration : 00:08:07.56 = 21501396 samples = 36567 CDDA sectors
File Size : 19.7M
Bit Rate : 322k
Sample Encoding: MPEG audio (layer I, II or III)
Comments :
Title=False Prophets
Artist=Nigrum Tenebris
Album=I Am The Serpent
Tracknumber=04/06
Year=2021
Genre=Black Metal

[/more]

Register
(12) acerbus, AlexSmith, caro, GorAtheist, kim666, Ostinato, rimfrost, robertho777, supremo, Taakeferd, VALERY, Wail,
Sep 12 2021, 09:21:04 Ombrage - Blood & Prosperity [ep] (2021)


*Artist: Ombrage
*Album: Blood & Prosperity [ep]
*Year: 2021
*Genre: Raw Black Metal
*Country: Canada
*Format: mp3@CBR320kbps
*Size: 67MB

Tracklist:
1. Misanthropic Nature 08:30
2. Sculpted by the Tides 06:11
3. The Vulture Flies Above 07:27
4. Victorious Dead (Instrumental) 04:59
******************************
Total playing time: 27:07



[more=Technical info]
Input File: 02 Sculpted by the Tides.flac
Channels : 2
Sample Rate : 44100
Precision : 16-bit
Duration : 00:06:11.00 = 16361100 samples = 27825 CDDA sectors
File Size : 46.1M
Bit Rate : 994k
Sample Encoding: 16-bit FLAC
Comments :
TITLE=Sculpted by the Tides
ARTIST=Ombrage
ALBUM=Blood & Prosperity
GENRE=Black Metal
COMMENT=Visit
DATE=2021
TRACKNUMBER=2

[/more]

Register
(11) Alexis The Best, caro, Ildjarn, kim666, nemx, robertho777, SilentNidhogg, stub888, Taakeferd, VALERY, Wail,
Sep 10 2021, 15:33:40 Gauntlet Ring - Upon The Wings Of The Black Eagle (2021)


*Artist: Gauntlet Ring
*Album: Upon The Wings Of The Black Eagle
*Year: 2021
*Genre: Black Metal
*Country: United States
*Format: mp3@CBR329kbps
*Size: 70MB

Tracklist:
A1. Pantheon Of Black Light
A2. Upon The Wings Of The Black Eagle
A3. The Crimson Altar
A4. Path Of Blood
B1. Waves Of Blackest Misery
B2. Blood Cult And Suffering
B3. Ten Heads Of The Black Dragon
B4. Winter Rides Over The Land
******************************
Total playing time: 30:15

[more=Extended info]Blood And Crescent – CRESCENT-001[/more]

[more=Technical info]
Input File: 02. Upon The Wings Of The Black Eagle.mp3
Channels : 2
Sample Rate : 44100
Precision : 16-bit
Duration : 00:02:54.66 = 7702506 samples = 13099.5 CDDA sectors
File Size : 7.08M
Bit Rate : 324k
Sample Encoding: MPEG audio (layer I, II or III)
Comments :
Title=Upon The Wings Of The Black Eagle
Artist=Gauntlet Ring
Album=Upon The Wings Of The Black Eagle
Tracknumber=02/08
Year=2021
Genre=Black Metal

[/more]

Register
(13) AlexSmith, caro, Ildjarn, kim666, Krosis, robertho777, Sangreal, SilentNidhogg, stub888, supremo, Taakeferd, VALERY, Wail,
Sep 9 2021, 17:41:24 Gärgäntuäh - Urmystyk (2021)


*Artist: Gärgäntuäh
*Album: Urmystyk
*Year: 2021
*Genre: Black Metal
*Country: Netherlands
*Format: mp3@CBR320kbps
*Size: 93MB

Tracklist:
1. Skrattansfior 03:44
2. Iik 05:05
3. Nodfyr 05:58
4. Trolldskjoering 05:44
5. Hargu af Daudr 06:52
6. Nerþuz 06:12
7. De niugen daur til haljo 06:00
******************************
Total playing time: 39:35



[more=Extended info]New Era Productions, CD.[/more]

[more=Technical info]
Input File: 03. Nodfyr.mp3
Channels : 1
Sample Rate : 44100
Precision : 16-bit
Duration : 00:05:58.16 = 15794768 samples = 26861.9 CDDA sectors
File Size : 14.5M
Bit Rate : 323k
Sample Encoding: MPEG audio (layer I, II or III)
Comments :
Title=Nodfyr
Artist=Gärgäntuäh
Album=Urmystyk
Tracknumber=03/07
Year=2021
Genre=Black Metal

[/more]

Register
(26) Alexis The Best, AlexSmith, caro, cesar, craP_cillA, gena, grimoir, Ildjarn, judaz, kim666, Mencae77, nemx, nsk2008, Ostinato, rammmirez, rimfrost, SilentNidhogg, smes, smysl, stormhatt, stub888, supremo, Taakeferd, varlam4, Wail, witchfinder,
Sep 9 2021, 17:20:16 Abhartach - The Great Bloodletting Of The Dragonbeast Diabolism [demo] (2021)


*Artist: Abhartach
*Album: The Great Bloodletting Of The Dragonbeast Diabolism [demo]
*Year: 2021
*Genre: Raw Black Metal
*Country: United States
*Format: mp3@CBR320kbps
*Size: 69MB

Tracklist:
A1. Beastia Draco Sexualis 14:04
B1. Beastia Draco Immortalis 14:34
******************************
Total playing time: 28:38

[more=Extended info]Mortuus Vivens Imperium.
Tape-rip + Scans[/more]

[more=Technical info]
Input File: A1. Beastia Draco Sexualis.mp3
Channels : 2
Sample Rate : 48000
Precision : 16-bit
Duration : 00:14:04.35 = 40528656 samples ~ 63326 CDDA sectors
File Size : 34.6M
Bit Rate : 328k
Sample Encoding: MPEG audio (layer I, II or III)
Comments :
Title=Beastia Draco Sexualis
Artist=Abhartach
Album=The Great Bloodletting of the Dragonbeast Diabolism
Tracknumber=01/02
Year=2021
Genre=Black Metal

[/more]

Register
(14) Alexis The Best, caro, dcatagua, grimoir, Ildjarn, kim666, nemx, SilentNidhogg, smysl, stormhatt, stub888, Taakeferd, uk82grind, Wail,
Sep 4 2021, 12:00:11 Peste Noire - Le Retour Des Pastoureaux (2021)


*Artist: Peste Noire
*Album: Le Retour Des Pastoureaux
*Year: 2021
*Genre: Black Metal
*Country: France
*Format: mp3@CBR320kbps
*Size: 84MB

Tracklist:
1. La Bataille de Sarcelles 02:09
2. Chiendent 04:59
3. Cacatov 06:23
4. Les jolies cannes 03:49
5. Haut les schlass ! 05:04
6. Blues Arverne 06:07
7. Lettre à personne 06:16
******************************
Total playing time: 34:47

[more=Extended info]La Mesnie Herlequin – LMH 16

YT-rip preview, Opus > MP3[/more]

[more=Technical info]
Input File: 02. Chiendent.mp3
Channels : 2
Sample Rate : 44100
Precision : 16-bit
Duration : 00:04:59.40 = 13203408 samples = 22454.8 CDDA sectors
File Size : 12.1M
Bit Rate : 322k
Sample Encoding: MPEG audio (layer I, II or III)
Comments :
Title=Chiendent
Artist=Peste Noire
Album=Le Retour Des Pastoureaux
Tracknumber=02/07
Year=2021
Genre=Black Metal

[/more]

Register
(72) 666days, Alexis The Best, AlexSmith, BERZERK, Bitchkiller, Branis, caro, cesar, Chasm, Constantinus I, cryptal, dcatagua, Dirt_ORFEY, Fallen Soul, Femto, Forest Silence, Fyrlefanz, gena, grimoir, grobator, Hadnur, Hexer, HMHamster, JD666Hellion, JohnnyCrank, judaz, kimkayoung, KVRT, Lord Noctua, Lux, MadCarrot, maringlen, maxxxy, MMMMM, Moonshtook, Mortuusinfernus, morve, NachtWulf, NathanSS, nemx, neoatheist, nsk2008, nsmetalhead, Orgasmik, Orkkh, Paradayz, Penetralia, Phlebotomized, rammmirez, recber, rimfrost, sagratan, satanist666, scorpiothekiller, smysl, soulskinner681, stone88, Strygaldwir, supremo, Taakeferd, TeamatSE, thenecromancer, Thiarnan, Vidder242, Vitald, vov7609, vragh, Wail, yuratroll, Авел, дивин, Козлотролль,
Aug 31 2021, 19:31:49 Niedergang - Átkoskönyv (2021)


Niedergang - 2021 - Átkoskönyv

Bandcamp 320 Kbps @yadi.sk
Register
(2) CRUNCH, rickzammuto,
Aug 31 2021, 07:17:42 Brodequin - Perpetuation Of Suffering [ep] (2021)


*Artist: Brodequin
*Album: Perpetuation Of Suffering [ep]
*Year: 2021
*Genre: Brutal Death Metal
*Country: United States
*Format: mp3@CBR320kbps
*Size: 15MB

Tracklist:
1. VII Nails 02:18
2. Tenaillement 03:00
******************************
Total playing time: 5:18

[more=Technical info]
Input File: 02. Tenaillement.mp3
Channels : 2
Sample Rate : 44100
Precision : 16-bit
Duration : 00:02:60.00 = 7937824 samples = 13499.7 CDDA sectors
File Size : 7.82M
Bit Rate : 347k
Sample Encoding: MPEG audio (layer I, II or III)
Comments :
Title=Tenaillement
Artist=Brodequin
Album=Perpetuation of Suffering
Tracknumber=02/02
Year=2021
Genre=Brutal Death Metal

[/more]

Register
(35) 6666666, abob, ALEXSATHANAS, andreikun, BERZERK, biroutios, caro, cesar, craP_cillA, dcatagua, GorAtheist, HMHamster, JantoHadez, Konst, Mannard, martintrue, Metalass, MP101M, Occultas, Olethros, Orgasmik, Proteus_666, Reverend, rominow, smes, Taakeferd, VALERY, varlam4, VerminGhost, vyacheslav, wanderer73, WarmasterChorus, wreak, yuratroll, Луч,
Aug 30 2021, 07:56:58 Suša - Velike Zvijeri (2021)


*Artist: Suša
*Album: Velike Zvijeri
*Year: 2021
*Genre: Black Metal
*Country: Bosnia and Herzegovina
*Format: mp3@VBR245kbps
*Size: 90MB

Tracklist:
A1. Glad i gnoza 07:20
A2. Vjera u mit i očaj 06:19
A3. O dvojnuim magijama 07:22
B. Velike zvijeri čiji časovi će doći 19:20
******************************
Total playing time: 40:21

[more=Extended info]Black Gangrene Records, 12'' LP.
Vinyl-rip by Zero + Scans.[/more]

[more=Technical info]
Input File: 02. Vjera U Mit I Očaj.mp3
Channels : 2
Sample Rate : 44100
Precision : 16-bit
Duration : 00:06:19.01 = 16714341 samples = 28425.8 CDDA sectors
File Size : 13.0M
Bit Rate : 275k
Sample Encoding: MPEG audio (layer I, II or III)
Comments :
Title=Vjera u mit i očaj
Artist=Suša
Album=Velike Zvijeri
Tracknumber=02/04
Year=2021
Genre=Black Metal

[/more]

Register
(22) caro, cesar, Goryssimo, HviteGuden, kefka, kim666, Krosis, Metalass, murian, nemx, Olethros, Ostinato, robertho777, SilentNidhogg, smysl, supremo, Taakeferd, VALERY, varlam4, wreak, yuratroll, Авел,
Aug 29 2021, 12:52:22 Trhä - Endlhëtonëg (2021)


*Artist: Trhä
*Album: Endlhëtonëg
*Year: 2021
*Genre: Black Metal
*Country: United States
*Format: mp3@CBR320kbps
*Size: 126MB

Tracklist:
1. Lhaja Endlhëjëdahhe Nu Jahadlhjanva Gjëri Ha 09:14
2. Endlhëdëhaj 10:14
3. Endlhëturhën 09:36
4. Endlhëtonëg 24:36
******************************
Total playing time: 53:40



[more=Technical info]
Input File: 02. endlhëdëhaj.mp3
Channels : 2
Sample Rate : 44100
Precision : 16-bit
Duration : 00:10:15.09 = 27125469 samples = 46131.8 CDDA sectors
File Size : 24.7M
Bit Rate : 321k
Sample Encoding: MPEG audio (layer I, II or III)
Comments :
Title=endlhëdëhaj
Artist=Trhä
Album=Endlhëtonëg
Tracknumber=02/04
Year=2021
Genre=Black Metal

[/more]

Register
(25) AlexSmith, alikkon, Boozer, caro, craP_cillA, El_Chibo, gena, grimoir, kim666, lordbathor, Luminous, murian, nemx, Olethros, Ostinato, robertho777, Shadechaser, SilentNidhogg, smysl, supremo, Taakeferd, VALERY, varlam4, wreak, zargonath,
Aug 27 2021, 13:20:18 Moortrieder - When Death Appeared [demo] (2021)


*Artist: Moortrieder
*Album: When Death Appeared [demo]
*Year: 2021
*Genre: Black Metal
*Country: Germany
*Format: mp3@VBR245kbps
*Size: 27MB

Tracklist:
1. Hessia Gloria 00:30
2. When Death Appeared 05:53
3. Die Totenhöh' 03:51
4. The Black Knight's Curse 05:19
******************************
Total playing time: 15:33



[more=Technical info]
Input File: 02. When Death Appeared.mp3
Channels : 2
Sample Rate : 44100
Precision : 16-bit
Duration : 00:05:53.65 = 15595745 samples = 26523.4 CDDA sectors
File Size : 10.6M
Bit Rate : 241k
Sample Encoding: MPEG audio (layer I, II or III)
Comments :
Title=When Death Appeared
Artist=Moortrieder
Album=When Death Appeared
Tracknumber=02/04
Year=2021
Genre=Black Metal

[/more]

Register
(13) azar, caro, El_Chibo, gena, grimoir, Ildjarn, kim666, NachtWulf, Olethros, Ostinato, SilentNidhogg, Taakeferd, wreak,
Aug 26 2021, 07:05:17 Klanen & Μνήμα & Celestial Sword & The Oracle - Klanen​/​μνήμα​/​celestial Sword​/​the Oracle [split] (2021)


*Artist: Klanen & Μνήμα & Celestial Sword & The Oracle
*Album: Klanen​/​μνήμα​/​celestial Sword​/​the Oracle [split]
*Year: 2021
*Genre: Raw Black Metal | Raw Black Metal | Raw Black Metal | Raw Black Metal
*Country: United States | Greece | United States | United States
*Format: mp3@CBR320kbps
*Size: 101MB

Tracklist:
Klanen:
1. Fall From Grace 09:07
Μνήμα:
2. Intro 03:00
3. Reliquary of Grief and Loss 10:01
Celestial Sword:
4. The Gardens of Wallachia I​-​III 09:35
The Oracle:
5. Nephilim: Movements I & II 11:41
******************************
Total playing time: 43:24



[more=Extended info]Crown & Throne Ltd.[/more]

[more=Technical info]
Input File: 04. Celestial Sword - The Gardens of Wallachia I-III.mp3
Channels : 2
Sample Rate : 44100
Precision : 16-bit
Duration : 00:09:38.98 = 25533150 samples = 43423.7 CDDA sectors
File Size : 23.4M
Bit Rate : 323k
Sample Encoding: MPEG audio (layer I, II or III)
Comments :
Title=The Gardens Of Wallachia I-Iii
Artist=Celestial Sword
Album=Klanen​/​μνήμα​/Celestial Sword​/​the Oracle
Tracknumber=04/05
Year=2021
Genre=Black Metal

[/more]

Register
(13) Alexis The Best, artscald, caro, craP_cillA, grimoir, Hexer, kim666, Lanceatum, nemx, SilentNidhogg, smysl, VALERY, wreak,
Aug 26 2021, 06:53:23 Koreltsak - My Sword Leans Against The Sky [demo] (2021)


*Artist: Koreltsak
*Album: My Sword Leans Against The Sky [demo]
*Year: 2021
*Genre: Raw Black Metal
*Country: United States
*Format: mp3@CBR320kbps
*Size: 65MB

Tracklist:
1. Red Leaves 02:01
2. Fire And Stone 04:29
3. The Scroll Of Emptiness 06:31
4. Blow Like A Spark From A Stone 03:46
5. My Heart Is A Bottomless River 10:00
******************************
Total playing time: 26:47




[more=Extended info]Crown and Throne Ltd[/more]

[more=Technical info]
Input File: 03. the scroll of emptiness.mp3
Channels : 2
Sample Rate : 44100
Precision : 16-bit
Duration : 00:06:31.60 = 17269428 samples = 29369.8 CDDA sectors
File Size : 15.8M
Bit Rate : 323k
Sample Encoding: MPEG audio (layer I, II or III)
Comments :
Title=the scroll of emptiness
Artist=Koreltsak
Album=My Sword Leans Against the Sky
Tracknumber=03/05
Year=2021
Genre=Raw Black Metal

[/more]

Register
(6) caro, kim666, Olethros, SilentNidhogg, smysl, wreak,
Aug 26 2021, 06:45:23 Glemt & Unholy Vampyric Slaughter Sect & Crucifixion Bell & Celestial Sword - What Sin Hath Twisted [split] (2021)


*Artist: Glemt & Unholy Vampyric Slaughter Sect & Crucifixion Bell & Celestial Sword
*Album: What Sin Hath Twisted [split]
*Year: 2021
*Genre: Raw Black Metal | Raw Black Metal | Black Metal | Raw Black Metal
*Country: United Kingdom | United States | United States | United States
*Format: mp3@CBR320kbps
*Size: 80MB

Tracklist:
Glemt:
1. Exalted Through The Howling, Part I 02:24
2. Exalted Through The Howling, Part II 08:28
Unholy Vampyric Slaughter Sect:
3. Nightshade 04:57
Crucifixion Bell:
4. Ordained in Malkuthian Blood 08:27
Celestial Sword
5. Stars Beyond The Citadel of Light 09:52
******************************
Total playing time: 34:08



[more=Extended info]Crown and Throne[/more]

[more=Technical info]
Input File: 04. Crucifixion Bell - Ordained in Malkuthian Blood.mp3
Channels : 2
Sample Rate : 44100
Precision : 16-bit
Duration : 00:08:27.30 = 22371886 samples = 38047.4 CDDA sectors
File Size : 20.4M
Bit Rate : 322k
Sample Encoding: MPEG audio (layer I, II or III)
Comments :
Title=Ordained In Malkuthian Blood
Artist=Crucifixion Bell
Album=What Sin Hath Twisted
Tracknumber=04/05
Year=2021
Genre=Black Metal

[/more]

Register
(15) Alexis The Best, artscald, Boozer, caro, craP_cillA, grimoir, kim666, Lanceatum, nemx, Ostinato, sacrut, SilentNidhogg, smysl, varlam4, wreak,
Aug 23 2021, 08:36:44 Girtablullû - Ancient Necromantic Rituals (2021)


*Artist: Girtablullû
*Album: Ancient Necromantic Rituals
*Year: 2021
*Genre: Raw Black Metal
*Country: Canada
*Format: mp3@CBR320kbps
*Size: 61MB

Tracklist:
1. Ancient Necromantic Rituals 07:13
2. Dagger And Blood 03:23
3. Scrying Into Murky Waters 02:02
4. Psychic Vampirism 07:09
5. Sabbatic Craft 06:38
******************************
Total playing time: 26:25



[more=Technical info]
Input File: 02. Dagger and Blood.mp3
Channels : 2
Sample Rate : 44100
Precision : 16-bit
Duration : 00:03:23.74 = 8985066 samples = 15280.7 CDDA sectors
File Size : 8.22M
Bit Rate : 323k
Sample Encoding: MPEG audio (layer I, II or III)
Comments :
Title=Dagger and Blood
Artist=Girtablullû
Album=Ancient Necromantic Rituals
Tracknumber=02/05
Year=2021
Genre=Black metal

[/more]

Register
(16) AlexSmith, caro, craP_cillA, El_Chibo, Forest Silence, grimoir, kim666, Mencae77, metala, Olethros, rominow, sacrut, SilentNidhogg, smysl, supremo, wreak,
Aug 23 2021, 07:26:24 Weathered Crest - Broken Column [ep] (2021)


*Artist: Weathered Crest
*Album: Broken Column [ep]
*Year: 2021
*Genre: Black Metal
*Country: Austria
*Format: mp3@VBR245kbps
*Size: 20MB

Tracklist:
1. Intro 01:07
2. All Ancient Glory 03:22
3. Storming White Vastness 03:05
4. Fettered To A Broken Column 02:33
5. Outro 01:13
******************************
Total playing time: 11:20




[more=Extended info]Into Endless Chaos - CHAOS034, 7'' EP.[/more]

[more=Technical info]
Input File: 02. All Ancient Glory.mp3
Channels : 2
Sample Rate : 44100
Precision : 16-bit
Duration : 00:03:22.53 = 8931441 samples = 15189.5 CDDA sectors
File Size : 6.29M
Bit Rate : 248k
Sample Encoding: MPEG audio (layer I, II or III)
Comments :
Title=All Ancient Glory
Artist=Weathered Crest
Album=Broken Column
Tracknumber=02/05
Year=2021
Genre=Black Metal

[/more]

Register
(8) caro, kim666, Olethros, Ostinato, SilentNidhogg, smysl, VALERY, wreak,
Aug 22 2021, 21:18:39 Thy Darkened Shade & Amestigon & Inconcessus Lux Lucis & Shaarimoth - Samaelilith: A Conjunction Of The Fireborn [split] (2021)


*Artist: Thy Darkened Shade & Amestigon & Inconcessus Lux Lucis & Shaarimoth
*Album: Samaelilith: A Conjunction Of The Fireborn [split]
*Year: 2021
*Genre: Black Metal | Black Metal | Black Metal | Black Metal
*Country: Greece | Austria | United Kingdom | Norway
*Format: mp3@CBR320kbps
*Size: 216MB

Tracklist:
THY DARKENED SHADE:
1. Murderer's Black Seed 02:13
2. Undead Lineage 06:44
3. Daathian Reveries and Gamaliel Revelations 07:14
4. Return of the Ancient Ones 06:09
AMESTIGON:
5. The Slant Serpent 07:44
6. Maelstrom Into The Lower Octave 03:59
7. The Tortuous Serpent 12:40
INCONCESSUS LUX LUCIS:
8. Phantoms from the Land of Nod 02:02
9. The Osseous Gulf 06:23
10. Sabbatical Thaumaturgy 03:50
11. Liminal Terror (The Witch's Curse) 06:11
12. Into Feral Fumes of Sanctification 02:12
SHAARIMOTH:
13. From The Gates Of Death 05:50
14. Flows The Blood Of Retribution 09:09
15. And Salvation Everlasting 11:37
******************************
Total playing time: 1:33:57



[more=Technical info]
Input File: 02. Thy Darkened Shade - Undead Lineage.mp3
Channels : 2
Sample Rate : 44100
Precision : 16-bit
Duration : 00:06:44.53 = 17839817 samples = 30339.8 CDDA sectors
File Size : 16.2M
Bit Rate : 321k
Sample Encoding: MPEG audio (layer I, II or III)
Comments :
Title=Undead Lineage
Artist=Thy Darkened Shade
Album=Samaelilith: A Conjunction Of The Fireborn
Tracknumber=02/15
Year=2021
Genre=Black Metal

[/more]

Register
(41) acerbus, AHBAnep, alikkon, andivi, Angeldemon617, Antichrist, azarath111, Boozer, Bzth, caro, craP_cillA, Demonologist, doomTemplar, El_Chibo, eternald, gena, grimoir, Hexer, Ildjarn, IncendiaryMight, Infidel, kim666, kryptor, Lanceatum, milosdjor, MP101M, NachtWulf, nemx, Occultas, Ostinato, rammmirez, RunningWild_AT, SilentNidhogg, smes, smysl, wreak, wtk.412, xska, yuratroll, Абигор, Варяг,
Aug 22 2021, 18:55:43 Malefica - Sabbath Of Darkness (2020)


*Artist: Malefica
*Album: Sabbath Of Darkness
*Year: 2020
*Genre: Black Metal
*Country: Germany
*Format: mp3@VBR245kbps
*Size: 89MB

Tracklist:
01. Sabbath Of Darkness 10:21
02. Antediluvian Shadows 07:58
03. Return Of The Old Ones 08:18
04. Where Witches Burnt 08:20
05. Sons Of Belial 06:57
******************************
Total playing time: 41:54



[more=Extended info]Darker Than Black - DTB455.
Scene/BERC[/more]

[more=Technical info]
Input File: 02-malefica-antediluvian_shadows-berc.mp3
Channels : 2
Sample Rate : 44100
Precision : 16-bit
Duration : 00:07:58.64 = 21108068 samples = 35898.1 CDDA sectors
File Size : 17.2M
Bit Rate : 287k
Sample Encoding: MPEG audio (layer I, II or III)
Comments :
Title=Antediluvian Shadows
Artist=Malefica
Album=Sabbath of Darkness
Tracknumber=2/5
Year=2020
Genre=Black Metal

[/more]

Register
(16) AlexSmith, andivi, caro, El_Chibo, kim666, NachtWulf, Occultas, Olethros, Ostinato, SilentNidhogg, smysl, supremo, undeadlich, VALERY, wreak, Абигор,
Aug 10 2021, 12:20:25 Tirgûl - Promo [demo] (2020)


*Artist: Tirgûl
*Album: Promo [demo]
*Year: 2020
*Genre: Black Metal
*Country: Netherlands
*Format: mp3@CBR320kbps
*Size: 26MB

Tracklist:
1. Awakening the Mythos of Our Past 04:42
2. A Distant Empire 06:25
******************************
Total playing time: 11:07



[more=Extended info]Skyggeraich, tape.[/more]

[more=Technical info]
Input File: 01. Awakening the Mythos of Our Past.mp3
Channels : 2
Sample Rate : 44100
Precision : 16-bit
Duration : 00:04:42.45 = 12456221 samples = 21184 CDDA sectors
File Size : 11.4M
Bit Rate : 322k
Sample Encoding: MPEG audio (layer I, II or III)
Comments :
Title=Awakening the Mythos of Our Past
Artist=Tirgûl
Album=Promo 2020
Tracknumber=01/02
Year=2020
Genre=Black metal

[/more]

Register
(13) caro, El_Chibo, Ildjarn, kim666, lordbathor, Occultas, Olethros, rammmirez, Storky, Taakeferd, thenecromancer, VALERY, varlam4,
Aug 10 2021, 12:15:50 Tirgûl - The Victorious Star [demo] (2021)


*Artist: Tirgûl
*Album: The Victorious Star [demo]
*Year: 2021
*Genre: Black Metal
*Country: Netherlands
*Format: mp3@CBR320kbps
*Size: 41MB

Tracklist:
1. Skybound by Amethyst Stormclouds 04:35
2. Sapphire Tears 05:51
3. Crossing the Rubicon 06:31
******************************
Total playing time: 16:57



[more=Extended info]Skyggeraich, tape.[/more]

[more=Technical info]
Input File: 02. Sapphire Tears.mp3
Channels : 2
Sample Rate : 44100
Precision : 16-bit
Duration : 00:05:51.99 = 15522891 samples = 26399.5 CDDA sectors
File Size : 14.2M
Bit Rate : 323k
Sample Encoding: MPEG audio (layer I, II or III)
Comments :
Title=Sapphire Tears
Artist=Tirgûl
Album=The Victorious Star
Tracknumber=02/03
Year=2021
Genre=Black Metal

[/more]

Register
(14) Alexis The Best, caro, Ildjarn, kim666, lordbathor, Occultas, Ostinato, rammmirez, SilentNidhogg, smysl, Taakeferd, VALERY, varlam4, Waldemar666,
Aug 6 2021, 06:48:04 Antihælix - Demo Mmxxi [demo] (2021)


*Artist: Antihælix
*Album: Demo Mmxxi [demo]
*Year: 2021
*Genre: Black Metal
*Country: United States
*Format: mp3@CBR320kbps
*Size: 39MB

Tracklist:
1. Mass Extinction Perversions 04:45
2. High Of Devine Poison 05:45
3. Epicurean Savagry 05:11
******************************
Total playing time: 15:41



[more=Technical info]
Input File: 01. Mass Extinction Perversions.mp3
Channels : 2
Sample Rate : 44100
Precision : 16-bit
Duration : 00:04:45.09 = 12572601 samples = 21382 CDDA sectors
File Size : 11.7M
Bit Rate : 329k
Sample Encoding: MPEG audio (layer I, II or III)
Comments :
Title=Mass Extinction Perversions
Artist=Antihælix
Album=Demo MMXXI
Tracknumber=01/03
Year=2021
Genre=Black Metal

[/more]

Register
(16) aleon, Bzth, caro, Ildjarn, IncendiaryMight, infiltrator, kim666, Olethros, sacrut, SilentNidhogg, smysl, stub888, Taakeferd, Vitald, vovenom, wreak,
Aug 6 2021, 06:23:48 Reverorum Ib Malacht - Not Here (2021)


*Artist: Reverorum Ib Malacht
*Album: Not Here
*Year: 2021
*Genre: Black Metal
*Country: Sweden
*Format: mp3@CBR320kbps
*Size: 112MB

Tracklist:
1. Amen
2. God Is
3. No Death
4. Not Here
******************************
Total playing time: 49:10



[more=Technical info]
Input File: 02. God is.mp3
Channels : 2
Sample Rate : 44100
Precision : 16-bit
Duration : 00:12:40.67 = 33545635 samples = 57050.4 CDDA sectors
File Size : 30.5M
Bit Rate : 320k
Sample Encoding: MPEG audio (layer I, II or III)
Comments :
Title=God is
Artist=Reverorum ib Malacht
Album=Not Here
Tracknumber=02/04
Year=2021
Genre=Black Metal

[/more]

Register
(45) AlexSmith, alikkon, Altkiller, Boozer, Bulldozzzzzzer, Bzth, caro, Doooomed, Elfrey, Emhyr var Emreis, ent404, Hell_Is_Here, Infidel, infiltrator, jelly_kt, Kazoth, LEGION69, Ludwig Hagen, Metalass, milosdjor, mirotvorets, NachtWulf, nemx, Occultas, Olethros, Qliphoth, Reverend, sarcophagus, Scuns, sethurius, SilentNidhogg, smes, smysl, supremo, Taakeferd, thenecromancer, Tino, toly1917, Tyrone, VALERY, varlam4, wreak, yuratroll, Zenial, Абигор,
Aug 6 2021, 06:21:27 Reverorum Ib Malacht - Svag I Döden (2021)


*Artist: Reverorum Ib Malacht
*Album: Svag I Döden
*Year: 2021
*Genre: Black Metal
*Country: Sweden
*Format: mp3@CBR320kbps
*Size: 118MB

Tracklist:
1. De Messia eiusque Precursore
2. De Christo, Servo Dei
3. 1. Joh 1.
4. Canticum Sanctus, Sanctus, Sanctus
5. Miserere mei, Deus
******************************
Total playing time: 49:33



[more=Technical info]
Input File: 01. De Messia eiusque Precursore.mp3
Channels : 2
Sample Rate : 44100
Precision : 16-bit
Duration : 00:09:23.13 = 24833989 samples = 42234.7 CDDA sectors
File Size : 23.0M
Bit Rate : 327k
Sample Encoding: MPEG audio (layer I, II or III)
Comments :
Title=De Messia eiusque Precursore
Artist=Reverorum ib Malacht
Album=Svag i Döden
Tracknumber=01/05
Year=2021
Genre=Black Metal

[/more]

Register
(42) aleon, AlexSmith, Boozer, Bzth, caro, Chasm, Doooomed, Elfrey, ent404, fishish, Hell_Is_Here, Ildjarn, Infidel, infiltrator, Irimias, jelly_kt, Kazoth, kim666, Metalass, milosdjor, NachtWulf, nemx, Occultas, Olethros, Ostinato, Qliphoth, Reverend, Scuns, sethurius, SilentNidhogg, smes, smysl, supremo, Taakeferd, Tyrone, UlvhedinGrom, VALERY, varlam4, wreak, wtk.412, yuratroll, Абигор,
Aug 2 2021, 09:10:06 Cathedral Of Light - Legions (2021)


*Artist: Cathedral Of Light
*Album: Legions
*Year: 2021
*Genre: Black Metal
*Country: Australia
*Format: mp3@CBR320kbps
*Size: 59MB

Tracklist:
1. Midnight Terror 05:30
2. The Falling Sky 03:12
3. Legions 04:41
4. Monstrous Voyagings 03:03
5. Nightmare's Well 03:44
6. No More Flowers 03:33
******************************
Total playing time: 23:43



[more=Technical info]
Input File: 01. Midnight Terror.mp3
Channels : 2
Sample Rate : 44100
Precision : 16-bit
Duration : 00:05:30.21 = 14562085 samples = 24765.5 CDDA sectors
File Size : 13.4M
Bit Rate : 324k
Sample Encoding: MPEG audio (layer I, II or III)
Comments :
Title=Midnight Terror
Artist=Cathedral Of Light
Album=LEGIONS
Tracknumber=01/06
Year=2021
Genre=Black Metal

[/more]

Register
(38) AlexSmith, artscald, caro, cesar, craP_cillA, El_Chibo, Hell_Is_Here, infiltrator, internalDahlia, judaz, kim666, korovakaska, Krosis, Marek, Mencae77, metamfer, MMMMM, multizwilling, Narasimha, nemx, oldvarg, Olethros, Ostinato, Reverend, robertho777, SaintVitus, Scuns, SilentNidhogg, smysl, stormhatt, stub888, supremo, Taakeferd, VALERY, varlam4, vasiljev_sergej, wreak, zhol,

85 Pages V   1 2 3 > » 
- Lo-Fi Version Support form
Copyrights and abuse reports form
Time is now: 16th September 2021 - 11:52:33