Welcome Guest ( Log In | Register )

История благодарностей участнику Velmi ::: Спасибо сказали: 63413 раз(а)
Дата поста: В теме: За сообщение: Спасибо сказали:
Apr 15 2024, 18:22:29 Threnomancy - Beholden To The Nightspirit [ep] (2023)


*Artist: Threnomancy
*Album: Beholden To The Nightspirit [ep]
*Year: 2023
*Genre: Black Metal
*Country: Sweden
*Format: mp3@CBR320kbps
*Size: 64MB

Tracklist:
1. Beholden to the Nightspirit 05:01
2. Cold Wind of Solitude 04:38
3. The Wolf 03:32
4. Like Icicles, I Too Shall Fall 07:13
5. Deep Forest Trance 06:12
******************************
Total playing time: 26:36



[more=Technical info]
Input File: 02. Cold Wind of Solitude.mp3
Channels : 2
Sample Rate : 44100
Precision : 16-bit
Duration : 00:04:38.14 = 12266150 samples = 20860.8 CDDA sectors
File Size : 11.3M
Bit Rate : 325k
Sample Encoding: MPEG audio (layer I, II or III)
Comments :
Title=Cold Wind of Solitude
Artist=Threnomancy
Album=Beholden to the Nightspirit
Tracknumber=02/05
Year=2023
Genre=Black Metal

[/more]

Register
(10) AlexSmith, artscald, Carcharoth, Dark_Viking, gena, obituarydark, smysl, stub888, VALERY, wreak,
Apr 15 2024, 17:25:07 Bloodfeather - The Hunter's Sacrifice (2024)


*Artist: Bloodfeather
*Album: The Hunter's Sacrifice
*Year: 2024
*Genre: Black Metal
*Country: United States
*Format: mp3@CBR320kbps
*Size: 90MB

Tracklist:
1. Vanish into the Thicket 03:09
2. Into Oblivion 06:00
3. Wolfsmoon 03:45
4. The Hunter's Sacrifice 05:29
5. Storm of the Soul 03:07
6. Unforgiveable 02:59
7. Across the Brume 08:20
8. Epitaph 01:23
9. Epitaph (Demo 2022) (Bonus Track) 01:22
10. Unforgivable (Demo 2022) (Bonus Track) 03:03
******************************
Total playing time: 38:37



[more=Technical info]
Input File: 02. Bloodfeather - Into Oblivion.flac
Channels : 2
Sample Rate : 44100
Precision : 16-bit
Duration : 00:06:00.45 = 15895922 samples = 27033.9 CDDA sectors
File Size : 40.9M
Bit Rate : 907k
Sample Encoding: 16-bit FLAC
Comments :
ALBUM=The Hunter's Sacrifice
ALBUMARTIST=Bloodfeather
ARTIST=Bloodfeather
DATE=2023
DISCNUMBER=1
GENRE=Black Metal
TITLE=Into Oblivion
DISCTOTAL=1
TRACKTOTAL=10
TRACKNUMBER=2

[/more]

Register
(10) AlexSmith, artscald, kim666, nemx, obituarydark, Rita, stormhatt, stub888, VALERY, wreak,
Apr 14 2024, 12:09:09 Geheimnisvoll - The Endless Void Of Eternal Suffering And Enslavement (2024)


*Artist: Geheimnisvoll
*Album: The Endless Void Of Eternal Suffering And Enslavement
*Year: 2024
*Genre: Raw Black Metal
*Country: United States
*Format: mp3@CBR320kbps
*Size: 88MB

Tracklist:
1. Enter the Vortex Cavern 01:44
2. Litany of Distraction 08:57
3. Undesirable Paths of Existence 06:36
4. Afterglow of the Right Eye 04:38
5. Abyssal Realm of Mysteries 03:56
6. Tainted Echoes of Power 04:51
7. Caged in Suffering 05:13
******************************
Total playing time: 35:55

[more=Extended info]Nithstang Productions[/more]

[more=Technical info]
Input File: 02. Litany of Distraction.mp3
Channels : 2
Sample Rate : 44100
Precision : 16-bit
Duration : 00:05:24.80 = 14323724 samples = 24360.1 CDDA sectors
File Size : 13.2M
Bit Rate : 325k
Sample Encoding: MPEG audio (layer I, II or III)
Comments :
Title=Litany Of Distraction
Artist=Geheimnisvoll
Album=The Endless Void Of Eternal Suffering And Enslavement
Tracknumber=02/08
Year=2024
Genre=Black Metal

[/more]

Register
(18) Alexis The Best, AlexSmith, artscald, Carcharoth, Daale, kim666, metala, murian, Nebo, nemx, obituarydark, Rover, scorpiothekiller, smysl, stormhatt, stub888, VALERY, wreak,
Apr 13 2024, 19:38:31 Pyriphlegethon - The Devil's Trance (2024)


*Artist: Pyriphlegethon
*Album: The Devil's Trance
*Year: 2024
*Genre: Raw Black Metal
*Country: Netherlands
*Format: mp3@CBR320kbps
*Size: 78MB

Tracklist:
1. In the Kingdom of Shadows 04:19
2. Pale Moonlight 05:49
3. The Devil's Trance 05:23
4. Voidspawn Specters 05:08
5. The Infernal Elite 04:52
6. The Bleeding Sapphire 06:02
******************************
Total playing time: 31:33



[more=Extended info]Hidden Marly Production, CD.[/more]

[more=Technical info]
Input File: 03. The Devil\'s Trance.mp3
Channels : 2
Sample Rate : 44100
Precision : 16-bit
Duration : 00:05:23.34 = 14259206 samples = 24250.4 CDDA sectors
File Size : 13.2M
Bit Rate : 327k
Sample Encoding: MPEG audio (layer I, II or III)
Comments :
Title=The Devil's Trance
Artist=Pyriphlegethon
Album=The Devil's Trance
Tracknumber=03/06
Year=2024
Genre=Black Metal

[/more]

Register
(16) AlexSmith, artscald, Condehate, dan22, dermarsoran, judaz, kefka, kim666, metala, nemx, rominow, Rover, sacrut, stormhatt, VALERY, wreak,
Apr 13 2024, 17:23:14 Extispex - My Mournful Vision (2022)


*Artist: Extispex
*Album: My Mournful Vision
*Year: 2022
*Genre: Raw Black Metal/Dungeon Synth
*Country: United States
*Format: mp3@CBR320kbps
*Size: 90MB

Tracklist:
1. The Sense of Endless Woes 02:08
2. Within These Hallowed Limits 04:07
3. Return'd 01:22
4. Nameless Memorie 03:22
5. Through the Gate 02:43
6. The Wandering Vanitie 01:41
7. An Omen the Entrails Portend 01:56
8. To Dust Returne 01:42
9. From Solemnity and Silent Nights 02:51
10. My Light Spent 02:18
11. A Horrid Sympathie 01:45
12. Forgotten Reflections of True Paradise 04:59
13. Alreadie Lost 02:50
14. For This Miserie Befall'n 04:22
******************************
Total playing time: 38:06



[more=Technical info]
Input File: Extispex - My Mournful Vision - 04 Nameless Memorie.flac
Channels : 2
Sample Rate : 44100
Precision : 16-bit
Duration : 00:03:22.50 = 8930250 samples = 15187.5 CDDA sectors
File Size : 18.4M
Bit Rate : 728k
Sample Encoding: 16-bit FLAC
Comments :
TITLE=Nameless Memorie
ARTIST=Extispex
COMMENT=Visit https://extispex.bandcamp.com
ALBUM=My Mournful Vision
ALBUMARTIST=Extispex
DATE=2022
TRACKNUMBER=04

[/more]

Register
(7) AlexSmith, artscald, Carcharoth, Fryz, kim666, stormhatt, wreak,
Apr 13 2024, 14:00:04 Extispex - What Winter Took From Me (2024)


*Artist: Extispex
*Album: What Winter Took From Me
*Year: 2024
*Genre: Depressive Black Metal
*Country: United States
*Format: mp3@CBR320kbps
*Size: 93MB

Tracklist:
1. Among Phantom Roses 04:21
2. A Candle Glimmers 05:28
3. In A Palace Of Crystalline Light 03:03
4. Winter Glows 02:08
5. An Azure Majesty 06:20
6. Against A Weeping Visage 01:50
7. Closed Behind The Evergreens 04:37
8. A Burning Luminance 03:33
9. I Started Dreaming There 04:48
10. In Evening's Blaze 03:06
******************************
Total playing time: 39:18



[more=Extended info]Death Eternal - DE-055[/more]

[more=Technical info]
Input File: Extispex - What Winter Took From Me - 02 A Candle Glimmers.flac
Channels : 2
Sample Rate : 44100
Precision : 16-bit
Duration : 00:05:28.33 = 14479500 samples = 24625 CDDA sectors
File Size : 24.8M
Bit Rate : 605k
Sample Encoding: 16-bit FLAC
Comments :
TITLE=A Candle Glimmers
Album=What Winter Took From Me
Artist=Extispex
Comment=Visit
Genre=Metal
ALBUMARTIST=Extispex
DISCNUMBER=1
DATE=2023
TRACKNUMBER=2

[/more]

Register
(8) AlexSmith, artscald, Carcharoth, Fryz, kim666, VALERY, vlad74, wreak,
Apr 13 2024, 13:54:31 Nimbifer - Der B​ö​se Geist (2024)


*Artist: Nimbifer
*Album: Der B​ö​se Geist
*Year: 2024
*Genre: Raw Black Metal
*Country: Germany
*Format: mp3@CBR320kbps
*Size: 92MB

Tracklist:
1. Der Wind 04:52
2. Hatz 03:56
3. - 01:11
4. Schlangenmaul 05:24
5. Ruinen 04:54
6. Täuschung 04:53
7. Auf endlosen Pfaden und haltlosen Strömen 07:54
8. Der böse Geist 03:23
******************************
Total playing time: 36:27



[more=Technical info]
Input File: NIMBIFER - Der böse Geist - 02 Hatz.flac
Channels : 2
Sample Rate : 44100
Precision : 24-bit
Duration : 00:03:56.00 = 10407600 samples = 17700 CDDA sectors
File Size : 46.8M
Bit Rate : 1.59M
Sample Encoding: 24-bit FLAC
Comments :
TITLE=Hatz
ARTIST=NIMBIFER
DATE=2024
COMMENT=Visit https://nimbifer.bandcamp.com
ALBUM=Der böse Geist
TRACKNUMBER=2
ALBUMARTIST=NIMBIFER

[/more]

Register
(24) AlexSmith, Anarchead, artscald, Boozer, Carcharoth, dermarsoran, Fryz, judaz, kim666, madera, metala, murian, nemx, Ostinato, rimfrost, Rover, sacrut, smysl, stub888, system36, Taragorm, VALERY, VVR, wreak,
Apr 8 2024, 07:04:37 Dolorosa - Summoning Ancient Bleakness (2024)


*Artist: Dolorosa
*Album: Summoning Ancient Bleakness
*Year: 2024
*Genre: Black Metal
*Country: Spain
*Format: mp3@CBR320kbps
*Size: 100MB

Tracklist:
1. A Sombre Passage 02:31
2. Mother Sorrow 05:40
3. From the Distant Shadows 05:13
4. Nocturnal Wisdom 04:55
5. Nihil Dolorosa 05:37
6. Under the Black Sky 06:08
7. Sinister Evocations 01:31
8. Endless Dreams of Darkness 06:25
******************************
Total playing time: 38:00



[more=Extended info]Altare Productions, LP.[/more]

[more=Technical info]
Input File: 02. Mother Sorrow.mp3
Channels : 2
Sample Rate : 44100
Precision : 16-bit
Duration : 00:05:40.01 = 14994221 samples = 25500.4 CDDA sectors
File Size : 13.7M
Bit Rate : 322k
Sample Encoding: MPEG audio (layer I, II or III)
Comments :
Title=Mother Sorrow
Artist=Dolorosa
Album=Summoning Ancient Bleakness
Tracknumber=02/08
Year=2024
Genre=Black Metal

[/more]

Register
(21) AlexSmith, Altkiller, artscald, Extreme Brutal, kefka, kim666, metaljosue, milosdjor, mishasha, Nebo, nemx, Occultas, Ostinato, rimfrost, Rita, SadistikSlayer, squall8fr, stub888, supremo, VALERY, wreak,
Mar 13 2024, 06:09:01 Altertum - Thunder From The Great Halls (2023)


*Artist: Altertum
*Album: Thunder From The Great Halls
*Year: 2023
*Genre: Black Metal
*Country: Norway
*Format: mp3@CBR320kbps
*Size: 99MB

Tracklist:
1. Call of the Ravening Wolves 04:32
2. Under the Raven's Spell 04:13
3. Thy Flesh Without Sin 04:54
4. Ild, Aske og Støv 05:34
5. Triumphant Blood Winds 04:26
6. Forest of Frozen Sorrow 04:50
7. Black Wings of the Ascended 04:00
8. Dawn of War 07:19
******************************
Total playing time: 39:48



[more=Technical info]
Input File: 03. Thy Flesh Without Sin.mp3
Channels : 2
Sample Rate : 44100
Precision : 16-bit
Duration : 00:04:54.37 = 12981585 samples = 22077.5 CDDA sectors
File Size : 11.8M
Bit Rate : 322k
Sample Encoding: MPEG audio (layer I, II or III)
Comments :
Title=Thy Flesh Without Sin
Artist=Altertum
Album=Thunder From the Great Halls
Tracknumber=3
Year=2024

[/more]

Register
(19) AlexSmith, Altkiller, artscald, Carcharoth, Dark_Viking, Fryz, Grev, kim666, Marek, Mencae77, Occultas, Rover, SilentNidhogg, supremo, VALERY, vasiljev_sergej, vovenom, Wail, wreak,
Mar 12 2024, 14:53:38 Pagan Warlord - Demo 2024 [demo] (2024)


*Artist: Pagan Warlord
*Album: Demo 2024 [demo]
*Year: 2024
*Genre: Black Metal
*Country: Sweden
*Format: mp3@CBR320kbps
*Size: 45MB

Tracklist:
1. Desecration Of The Sacred Outpost 03:30
2. In Glory Fallen, Risen In Hate 04:31
3. Call Of The Dark Arts 04:38
4. Oath Of The Fallen 06:16
******************************
Total playing time: 18:55



[more=Technical info]
Input File: 02. In Glory Fallen, Risen In Hate.mp3
Channels : 2
Sample Rate : 44100
Precision : 16-bit
Duration : 00:04:31.59 = 11976987 samples = 20369 CDDA sectors
File Size : 11.0M
Bit Rate : 323k
Sample Encoding: MPEG audio (layer I, II or III)
Comments :
Title=In Glory Fallen, Risen In Hate
Artist=Pagan Warlord
Album=Demo 2024
Tracknumber=02/04
Year=2024
Genre=Black Metal

[/more]

Register
(14) Altkiller, artscald, Carcharoth, CRUNCH, Grev, Ildjarn, kim666, nemx, rimfrost, SilentNidhogg, smysl, Wail, wreak, XxNachtmahRxX,
Mar 12 2024, 14:52:08 Pagan Warlord - Demo 2023 [demo] (2023)


*Artist: Pagan Warlord
*Album: Demo 2023 [demo]
*Year: 2023
*Genre: Black Metal
*Country: Sweden
*Format: mp3@CBR320kbps
*Size: 56MB

Tracklist:
1. Lucern Hammer 05:06
2. Pagan Warlord 07:09
3. Eternal Enslavement 05:08
4. Revenants Of The Dark Ages 06:26
******************************
Total playing time: 23:49



[more=Technical info]
Input File: 02. Pagan Warlord.mp3
Channels : 2
Sample Rate : 44100
Precision : 16-bit
Duration : 00:07:09.58 = 18944654 samples = 32218.8 CDDA sectors
File Size : 17.3M
Bit Rate : 323k
Sample Encoding: MPEG audio (layer I, II or III)
Comments :
Title=Pagan Warlord
Artist=Pagan Warlord
Album=Demo 2023
Tracknumber=02/04
Year=2023
Genre=Black Metal

[/more]

Register
(12) Altkiller, artscald, Carcharoth, CRUNCH, Grev, Ildjarn, kim666, Orkkh, SilentNidhogg, Wail, wreak, XxNachtmahRxX,
Mar 2 2024, 14:13:39 K​ê​res - Eidolon Abraxas (2024)


*Artist: K​ê​res
*Album: Eidolon Abraxas
*Year: 2024
*Genre: Black Metal
*Country: Finland
*Format: mp3@CBR320kbps
*Size: 89MB

Tracklist:
1. Augurs Speak 07:08
2. Columns 02:17
3. Eidolon 06:37
4. Trudge 01:06
5. Signs 05:41
6. Turbid Churns Call 05:49
7. Tide 02:41
8. Bones Fall 05:22
******************************
Total playing time: 36:41



[more=Technical info]
Input File: 02. Columns.mp3
Channels : 2
Sample Rate : 44100
Precision : 16-bit
Duration : 00:02:17.20 = 6050608 samples = 10290.1 CDDA sectors
File Size : 5.58M
Bit Rate : 325k
Sample Encoding: MPEG audio (layer I, II or III)
Comments :
Title=Columns
Artist=K​ê​res
Album=Eidolon Abraxas
Tracknumber=02/08
Year=2024
Genre=Black Metal

[/more]

Register
(30) 6black6magic6, Alexis The Best, AlexSmith, ambre, Ash_1980, Bannkreis, canadaspaceman, Carcharoth, Daale, dermarsoran, erthrt, Grev, judaz, kim666, kimkayoung, lunaraurora, Mencae77, metaljosue, nemx, nsk2008, sacrut, SilentNidhogg, stub888, Surt, tim47, vasiljev_sergej, Vidder242, Wail, Walpurgis, xska,
Feb 28 2024, 14:44:47 Solipnosis - S​í​ntesis Silenciosa (2023)


*Artist: Solipnosis
*Album: S​í​ntesis Silenciosa
*Year: 2023
*Genre: Black Metal
*Country: Chile
*Format: mp3@CBR320kbps
*Size: 86MB

Tracklist:
1. Cola de Serpiente, Torso de Hombre 02:11
2. Descender en Alas de Quimera 03:00
3. Capaz de una Obra Mayor 06:08
4. Separación del Qué y el Quién 05:48
5. Divagaciones en Disminuida 01:39
6. Permanencia de Memoria Inmediata 06:04
7. Poder Absoluto Individual 07:57
8. Reflexiones en Frigio 03:02
******************************
Total playing time: 35:49



[more=Technical info]
Input File: 03. Capaz de una Obra Mayor.mp3
Channels : 2
Sample Rate : 44100
Precision : 16-bit
Duration : 00:06:08.90 = 16268402 samples = 27667.4 CDDA sectors
File Size : 14.9M
Bit Rate : 324k
Sample Encoding: MPEG audio (layer I, II or III)
Comments :
Title=Capaz de una Obra Mayor
Artist=Solipnosis
Album=Sintesis Silenciosa
Tracknumber=03/08
Year=2023
Genre=Black Metal

[/more]

Register
(14) AlexSmith, Altkiller, artscald, kim666, lunaraurora, metaljosue, milosdjor, Rover, SadistikSlayer, supremo, VALERY, varlam4, wreak, yuratroll,
Feb 18 2024, 09:58:10 Muvitium - I Skogens Karga Dunkel [ep] (2024)


*Artist: Muvitium
*Album: I Skogens Karga Dunkel [ep]
*Year: 2024
*Genre: Black Metal
*Country: Sweden
*Format: mp3@CBR320kbps
*Size: 100MB

Tracklist:
1. Vemodets Karghet 04:07
2. I Nattens Portar Vida 07:28
3. Askhimmels Väckelse 09:16
4. Av Ensamhetens Vision 06:21
5. Formlösa Röster Dovt Eka 09:38
6. Dödens Hunger Sluka 06:18
******************************
Total playing time: 43:08

[more=Extended info]Medieval Prophecy Records.[/more]

[more=Technical info]
Input File: 02. I nattens portar vida.mp3
Channels : 2
Sample Rate : 44100
Precision : 16-bit
Duration : 00:07:28.37 = 19772985 samples = 33627.5 CDDA sectors
File Size : 18.1M
Bit Rate : 322k
Sample Encoding: MPEG audio (layer I, II or III)
Comments :
Title=I Nattens Portar Vida
Artist=Muvitium
Album=I Skogens Karga Dunkel
Tracknumber=02/06
Year=2024
Genre=Black Metal

[/more]

Register
(30) aleon, AlexSmith, Altkiller, Angeldemon617, artscald, Boozer, Carcharoth, Fatalist77791, kim666, lopuh21, Marek, milosdjor, murian, Nebo, nemx, Qliphoth, rammmirez, Reverend, rimfrost, sacrut, shapeofdespair, SilentNidhogg, skylakos, smysl, supremo, TeamatSE, Unforg1ven, VALERY, Vidder242, wreak,
Feb 15 2024, 16:57:22 Lvme - Of Sinful Nature (2024)


*Artist: Lvme
*Album: Of Sinful Nature
*Year: 2024
*Genre: Black Metal
*Country: International
*Format: mp3@CBR320kbps
*Size: 104MB

Tracklist:
1. The Venomous Fire 09:36
2. Strix Rêverie 05:44
3. Without Light nor Guide 09:13
4. Into Ashen Stone 10:43
5. Obenaus und Nirgends an! 09:28
******************************
Total playing time: 44:44



[more=Extended info]NoEvDia - NED063[/more]

[more=Technical info]
Input File: 02. Strix Reverie.mp3
Channels : 2
Sample Rate : 44100
Precision : 16-bit
Duration : 00:05:44.81 = 15206209 samples = 25860.9 CDDA sectors
File Size : 13.9M
Bit Rate : 323k
Sample Encoding: MPEG audio (layer I, II or III)
Comments :
Title=Strix Reverie
Artist=Lvme
Album=Of Sinful Nature
Tracknumber=02/05
Year=2024
Genre=Black Metal

[/more]

Register
(40) acerbus, AlexSmith, Altkiller, Antichrist, artscald, Carcharoth, dermarsoran, EndlessDrone, Grev, HelenVaughan, Hell_Is_Here, Ignativs, judaz, kim666, kimkayoung, kipelov999, LEGION69, m3t4l4r340rg, Messian, milosdjor, MMMMM, murian, nadin85, Nebo, nemx, NOMIDIMON, obituarydark, Occultas, phoboss, Rover, SilentNidhogg, smes, supremo, VALERY, vovenom, wreak, yinchanghanhuang, yuratroll, Zenial, Zoloft,
Feb 11 2024, 06:41:04 Vildbrand - I Takt Med V​ä​gguret (2023)


*Artist: Vildbrand
*Album: I Takt Med V​ä​gguret
*Year: 2023
*Genre: Black Metal
*Country: Sweden
*Format: mp3@CBR320kbps
*Size: 87MB

Tracklist:
1. Till En Början 06:41
2. Tredje Oraklet 04:28
3. Janus 05:49
4. I Takt Med Vägguret 05:15
5. Juni Den Fjärde 05:00
6. En Natt På Lörje Gård 04:28
7. Ansiktslösa Spegel 05:31
******************************
Total playing time: 37:12



[more=Technical info]
Input File: 04. I Takt Med Vägguret.mp3
Channels : 2
Sample Rate : 44100
Precision : 16-bit
Duration : 00:05:15.95 = 13933175 samples = 23695.9 CDDA sectors
File Size : 12.7M
Bit Rate : 323k
Sample Encoding: MPEG audio (layer I, II or III)
Comments :
Title=I Takt Med Vägguret
Artist=Vildbrand
Album=I Takt Med Vägguret
Tracknumber=04/07
Year=2023
Genre=Black Metal

[/more]

Register
(17) AlexSmith, Altkiller, artscald, Condehate, kefka, Marek, murian, Nebo, Rover, sacrut, SilentNidhogg, stub888, supremo, Surt, VALERY, vovenom, wreak,
Feb 5 2024, 20:20:11 Bilious Miasma - Bilious Miasma [ep] (2024)


*Artist: Bilious Miasma
*Album: Bilious Miasma [ep]
*Year: 2024
*Genre: Black Metal
*Country: United States
*Format: mp3@CBR320kbps
*Size: 68MB

Tracklist:
1. Korpse Fyre 01:40
2. Kardinal Deception 08:47
3. Azimuth 06:04
4. Paradyse 10:38
******************************
Total playing time: 27:09



[more=Technical info]
Input File: 02. Kardinal Deception.mp3
Channels : 2
Sample Rate : 44100
Precision : 16-bit
Duration : 00:08:47.91 = 23281007 samples = 39593.5 CDDA sectors
File Size : 21.2M
Bit Rate : 321k
Sample Encoding: MPEG audio (layer I, II or III)
Comments :
Title=Kardinal Deception
Artist=Bilious Miasma
Album=Bilious Miasma
Tracknumber=02/04
Year=2024
Genre=Black Metal

[/more]

Register
(12) AlexSmith, Altkiller, artscald, ErickLeoni, Hell_Is_Here, kim666, nemx, stub888, supremo, VALERY, Walpurgis, wreak,
Jan 15 2024, 12:44:02 Abigor - Taphonomia Aeternitatis - Gesänge Im Leichenlicht Der Welt (2023)


*Artist: Abigor
*Album: Taphonomia Aeternitatis - Gesänge Im Leichenlicht Der Welt
*Year: 2023
*Genre: Black Metal
*Country: Austria
*Format: mp3@VBR245kbps
*Size: 98MB

Tracklist:
1. Halt the Wheel of Timeless Change 04:48
2. Soldaten Satans 06:09
3. Feasting on the Prophet’s Blood 06:00
4. Extermination Angel 05:07
5. Cult of Elder Chaos 06:52
6. Burning Hell 06:34
7. Forniotrs Weltenreise 06:10
8. Morning Star Anthropophagia 06:34
******************************
Total playing time: 48:14

[more=Extended info]World Terror Committee Productions - WTC.212
Scene/TOTENKVLT
[/more]

[more=Technical info]
Input File: 02_abigor-soldaten_satans.mp3
Channels : 2
Sample Rate : 44100
Precision : 16-bit
Duration : 00:06:09.82 = 16308842 samples = 27736.1 CDDA sectors
File Size : 13.1M
Bit Rate : 284k
Sample Encoding: MPEG audio (layer I, II or III)
Comments :
Title=Soldaten Satans
Artist=Abigor
Album=Taphonomia Aeternitatis
Tracknumber=2/8
Year=2023
Genre=Black Metal

[/more]

Register
(120) abob, Alexdesd, alikkon, Altkiller, AmoresMeretricum, Angeldemon617, Antichrist, Aresson, artscald, Ash_1980, autumnwood, AvantKitty1, babanguida, Ballisargon, biroutios, blackestdesire, Blackner, BlackSwordMaster88, BladeOvDarkness, boby9052, Boozer, Bzth, Carcharoth, cesar, Chasm, Daale, DarkHorde, demonosz, dermarsoran, elsunga, ent404, Evgen79, Fallen_Angel_of_Doom, featb, Femto, garml2, gcesarini, gena, Grev, grobator, guidanner, gwynnbleid, helvetestoner, HMHamster, Infidel, infozahist, judaz, JuicyMaraca, kefka, khestanow3001, kim666, kimkayoung, kipelov999, LEGION69, lucifix, m3t4l4r340rg, Mannard, MAPhilosopher, Mencae77, Messian, metala, Metalass, metalfanatic666, metaljosue, MMMMM, nadin85, napalmjesus, Narasimha, Nerevar, nhlong95, NOMIDIMON, nsk2008, nsmetalhead, Occultas, Old Vyaine, oldvarg, Paradayz, Pinhead666, QuadenThyrane, Radek, rammmirez, recber, Requiescat, Rover, RUSP73, rydra88, SadistikSlayer, SaintVitus, skeletron215, sksxxx, smysl, StabWound, Strid, Strygaldwir, stub888, supremo, TeamatSE, thenecromancer, the_cleanser, Thiarnan, ThornyAlex, tOmV, Valdmaar, VALERY, varlam4, Vitald, vov7609, vovenom, VVR, vyacheslav, Wail, wreak, Xor, xska, yarrsuaa, yuratroll, ZamanFu, ZambuL, Авел, Сварог Барг,
Jan 8 2024, 08:23:17 Hauntologist - Hollow (2024)


*Artist: Hauntologist
*Album: Hollow
*Year: 2024
*Genre: Post-Black Metal
*Country: Poland
*Format: mp3@CBR320kbps
*Size: 102MB

Tracklist:
1. Ozymandian 06:41
2. Golem 07:52
3. Waves of Concrete 01:27
4. Deathdreamer 05:25
5. Hollow 07:53
6. Autotomy 04:59
7. Gardermoen 04:04
8. Car Kruków 05:54
******************************
Total playing time: 44:15

[more=Extended info]No Solace[/more]

[more=Technical info]
Input File: 06. Autotomy.mp3
Channels : 2
Sample Rate : 44100
Precision : 16-bit
Duration : 00:04:59.48 = 13207244 samples = 22461.3 CDDA sectors
File Size : 12.1M
Bit Rate : 322k
Sample Encoding: MPEG audio (layer I, II or III)
Comments :
Title=Autotomy
Artist=Hauntologist
Album=Hollow
Tracknumber=06/08
Year=2024
Genre=Post-Black Metal

[/more]

Register
(50) 6black6magic6, acerbus, aleon, AlexSmith, alikkon, artscald, as71, Boozer, Carcharoth, Daale, dermarsoran, ent404, Facsimile, garml2, gena, HelenVaughan, Henmik, Impaled, Irimias, judaz, kimkayoung, LiarOfAngmar, Mencae77, MercurioRojo, Messian, Metalass, metaljosue, MMMMM, Nebo, nemx, NOMIDIMON, oldvarg, Ostinato, Rahmer, rammmirez, rimfrost, Schtizzel, Sergey, SilentNidhogg, Strygaldwir, sunska, VALERY, valgalder, Vidyadharov, VVP123, Weikai, wreak, Yorker, yuratroll, ZloY_GreY,
Dec 24 2023, 16:06:01 Gevaudans Gauntlet - Rime Of The Perpetual Stygian Battery (2023)


*Artist: Gevaudans Gauntlet
*Album: Rime Of The Perpetual Stygian Battery
*Year: 2023
*Genre: Raw Black Metal
*Country: Unknown
*Format: mp3@CBR320kbps
*Size: 100MB

Tracklist:
1. Sacred Defecations Over The Altarstone 05:26
2. Plethora Of The Pearly Fields 05:56
3. Last Destruction Enchantments 05:39
4. Vow Of Spiritual Deformation 06:21
5. A Howl Of Lead Across A Broken Mind 05:26
6. Hidden Garden Of Astaroth 02:47
7. The Crimson Reign & The Cindergrin 11:25
******************************
Total playing time: 43:00



[more=Extended info]Altare Productions - ALTMC055[/more]

[more=Technical info]
Input File: 02. Plethora Of The Pearly Fields.mp3
Channels : 2
Sample Rate : 44100
Precision : 16-bit
Duration : 00:05:56.57 = 15724649 samples = 26742.6 CDDA sectors
File Size : 14.4M
Bit Rate : 323k
Sample Encoding: MPEG audio (layer I, II or III)
Comments :
Title=Plethora Of The Pearly Fields
Artist=Gevaudans Gauntlet
Album=Rime Of The Perpetual Stygian Battery
Tracknumber=02/07
Year=2023
Genre=Black Metal

[/more]

Register
(14) AlexSmith, artscald, Carcharoth, Evrom, Grev, Hell_Is_Here, kim666, metala, Rover, sacrut, SilentNidhogg, supremo, VALERY, wreak,
Dec 23 2023, 09:52:36 Mørkt Tre - З​а​з​и​р​н​и За О​б​р​і​й (2023)


*Artist: Mørkt Tre
*Album: З​а​з​и​р​н​и За О​б​р​і​й
*Year: 2023
*Genre: Black Metal
*Country: Ukraine
*Format: mp3@CBR320kbps
*Size: 114MB

Tracklist:
1. Підніжжя Мертвих Снів 02:36
2. Зникаюча Мить 07:59
3. Абсолют Буття та Небуття 05:35
4. Незрячий 05:59
5. Скульптор Безмежності 04:30
6. ЗаВмертиабиВідчути 05:23
7. Квінтесенція 07:46
8. Примари у Чорному 04:32
9. Гори Сплять 02:04
******************************
Total playing time: 46:24



[more=Extended info]Darker Than Black - DTB 641[/more]

[more=Technical info]
Input File: 02. Зникаюча Мить.flac
Channels : 2
Sample Rate : 44100
Precision : 24-bit
Duration : 00:07:59.46 = 21144115 samples = 35959.4 CDDA sectors
File Size : 52.2M
Bit Rate : 871k
Sample Encoding: 24-bit FLAC
Comments :
TITLE=Зникаюча Мить
ARTIST=Mørkt Tre
ALBUM=Зазирни За Обрій
DATE=2023
GENRE=Black Metal
TRACKNUMBER=02/09
ALBUM ARTIST=Mørkt Tre
ALBUMARTIST=Mørkt Tre

[/more]

Register
(42) aleon, AlexSmith, alikkon, Aresson, artscald, Boozer, Condehate, Daale, deamonmotherloveson, dermarsoran, dimmannius, ent404, Grev, Hexenmeister, Ildjarn, infozahist, kim666, mishasha, MMMMM, nsk2008, Panzerfaust, pivi901, rabindranad, Raw1488, SaintVitus, sergsazan, Shadechaser, SilentNidhogg, squall8fr, SSWolf88, supremo, technoboy69, terron, VALERY, vasiljev_sergej, Velemysl, VerminGhost, Wail, Wotanwatch, wreak, yarrsuaa, yuratroll,
Dec 23 2023, 08:47:58 Flaming Ouroboros - Anthems For Brotherhood (2023)


*Artist: Flaming Ouroboros
*Album: Anthems For Brotherhood
*Year: 2023
*Genre: Raw Black Metal
*Country: United States
*Format: mp3@CBR320kbps
*Size: 102MB

Tracklist:
1. As Their Banners Sway... 05:17
2. Free Again 04:34
3. Ignited Supremacy 04:06
4. Symbol Scorns My Chest 03:58
5. Rise 04:30
6. Evergreen Serenity 02:52
7. Heliacal Worship 04:35
8. G.T.W.E 06:56
9. Greater than All 06:21
******************************
Total playing time: 43:09

Spotify

[more=Technical info]
Input File: 02. Free Again.mp3
Channels : 2
Sample Rate : 48000
Precision : 16-bit
Duration : 00:04:34.80 = 13190400 samples ~ 20610 CDDA sectors
File Size : 11.2M
Bit Rate : 325k
Sample Encoding: MPEG audio (layer I, II or III)
Comments :
Title=Free Again
Artist=Flaming Ouroboros
Album=Anthems For Brotherhood
Tracknumber=02/09
Year=2023
Genre=Black Metal

[/more]

Register
(24) Alexis The Best, AlexSmith, Altkiller, artscald, dermarsoran, Hell_Is_Here, joseang, kefka, kim666, Lamby90, murian, nemx, pwoods, Raw1488, scorpiothekiller, SilentNidhogg, Soulgrinder, supremo, Tyrone, VALERY, Wail, wreak, Волос, Псих,
Nov 4 2023, 06:43:21 Ch'ahom - Knots Of Abhorrence (2023)


*Artist: Ch'ahom
*Album: Knots Of Abhorrence
*Year: 2023
*Genre: Black/Death Metal
*Country: Germany
*Format: mp3@CBR320kbps
*Size: 125MB

Tracklist:
1. Xibalba 06:29
2. Chavín de Huántar 07:58
3. Path to Ixtab 08:51
4. Knots of Abhorrence I 10:37
5. Knots of Abhorrence II 07:37
6. Ts'Ono'Ot (Bandcamp Bonus Track) 12:01
******************************
Total playing time: 53:33



[more=Technical info]
Input File: 01. Xibalba.mp3
Channels : 2
Sample Rate : 44100
Precision : 16-bit
Duration : 00:06:29.43 = 17173951 samples = 29207.4 CDDA sectors
File Size : 15.8M
Bit Rate : 325k
Sample Encoding: MPEG audio (layer I, II or III)
Comments :
Title=Xibalba
Artist=CH'AHOM
Album=Knots of Abhorrence
Tracknumber=1
Year=2023

[/more]

Register
(28) AHBAnep, AlexSmith, alikkon, Altkiller, artscald, Boozer, Carcharoth, Ecastell72, Evilded, Evrom, Fallen_Angel_of_Doom, Hell_Is_Here, infozahist, kefka, LiarOfAngmar, metala, MMMMM, OnlyDeathisReal, Ostinato, Pepijn, sabr, Shadechaser, supremo, VALERY, Wail, wreak, xska, XxNachtmahRxX,
Oct 26 2023, 17:21:21 Iku-Turso - Ikuinen Kirous [ep] (2023)


*Artist: Iku-Turso
*Album: Ikuinen Kirous [ep]
*Year: 2023
*Genre: Black Metal
*Country: Finland
*Format: mp3@CBR320kbps
*Size: 100MB

Tracklist:
1. Nkotimsefuopua 04:20
2. Ebenezer 04:43
3. Adinkra 04:12
4. Een zucht van verdriet 05:56
5. Gauss 05:42
6. Noirthoren 05:00
7. Thornspawn Chalice 07:22
******************************
Total playing time: 37:15



[more=Technical info]
Input File: 02. Ebenezer.mp3
Channels : 2
Sample Rate : 44100
Precision : 16-bit
Duration : 00:04:43.40 = 12497720 samples = 21254.6 CDDA sectors
File Size : 11.4M
Bit Rate : 323k
Sample Encoding: MPEG audio (layer I, II or III)
Comments :
Title=Ebenezer
Artist=Iku-Turso
Album=Ikuinen Kirous
Tracknumber=02/07
Year=2023
Genre=Black Metal

[/more]

Register
(28) AceQuorthon, AlexSmith, Altkiller, Angeldemon617, artscald, Boozer, BrainW1, Carcharoth, Condehate, Evrom, gena, Hell_Is_Here, Ildjarn, isvili, kim666, Lucifer1366613, Mortis, sacrut, SaintVitus, Sergey, smes, smysl, supremo, VALERY, wreak, XxNachtmahRxX, Zenial, ZeroIISum,
Oct 26 2023, 15:56:20 Hagatiz - Cursed To The Night (2023)


*Artist: Hagatiz
*Album: Cursed To The Night
*Year: 2023
*Genre: Black Metal
*Country: Germany
*Format: mp3@CBR320kbps
*Size: 85MB

Tracklist:
1. The Gathering 01:39
2. Demimonde 06:27
3. Echoes from the Afterlife 07:12
4. Everlast in darkest Night 05:14
5. Scourge beneath the Skin 06:26
6. Drown in Darkness 06:08
7. Necrovoid 03:23
******************************
Total playing time: 36:29



[more=Extended info]Amor Fati Productions[/more]

[more=Technical info]
Input File: 02. Demimonde.mp3
Channels : 2
Sample Rate : 44100
Precision : 16-bit
Duration : 00:06:27.76 = 17100040 samples = 29081.7 CDDA sectors
File Size : 15.6M
Bit Rate : 322k
Sample Encoding: MPEG audio (layer I, II or III)
Comments :
Title=Demimonde
Artist=Hagatiz
Album=Cursed to the Night
Tracknumber=2
Year=2023
Genre=Black Metal

[/more]

Register
(19) AlexSmith, Altkiller, artscald, Carcharoth, Daale, Evrom, Ildjarn, kim666, murian, Nebo, nemx, obituarydark, rickzammuto, Rover, Soulgrinder, supremo, VALERY, vovenom, wreak,

101 Pages V   1 2 3 > » 
- Lo-Fi Version Support form
Copyrights and abuse reports form
Time is now: 21st April 2024 - 06:07:40