Welcome Guest ( Log In | Register )

История благодарностей участнику Velmi ::: Спасибо сказали: 55701 раз(а)
Дата поста: В теме: За сообщение: Спасибо сказали:
Jul 3 2022, 09:03:23 Eschatology - Eschatology [ep] (2022)


*Artist: Eschatology
*Album: Eschatology [ep]
*Year: 2022
*Genre: Black Metal
*Country: International
*Format: mp3@CBR320kbps
*Size: 61MB

Tracklist:
1. Cataclysm I 06:00
2. Cataclysm II 06:26
3. Cataclysm III 06:15
4. The Wound 07:26
******************************
Total playing time: 26:07



[more=Extended info]Shadow Records[/more]

[more=Technical info]
Input File: 02. Cataclysm II.mp3
Channels : 2
Sample Rate : 44100
Precision : 16-bit
Duration : 00:06:26.58 = 17048354 samples = 28993.8 CDDA sectors
File Size : 15.6M
Bit Rate : 323k
Sample Encoding: MPEG audio (layer I, II or III)
Comments :
Title=Cataclysm II
Artist=Eschatology
Album=Eschatology
Tracknumber=02/04
Year=2022
Genre=Black Metal

[/more]

Register
(16) Antichrist, artscald, dermarsoran, GorAtheist, Ignativs, IncendiaryMight, INDARKNESS, kim666, Mencae77, milosdjor, nemx, sacrut, sagamore_BR, stormhatt, VALERY, wreak,
Jun 26 2022, 06:48:25 Wehrhammer - Blut (2022)


*Artist: Wehrhammer
*Album: Blut
*Year: 2022
*Genre: Black Metal
*Country: Germany
*Format: mp3@CBR320kbps
*Size: 108MB

Tracklist:
1. Alte Helden 05:06
2. Der Schnitter 04:22
3. Der Tod hat seinen Preis 04:14
4. Cenobiten Tango 02:12
5. Der Sammler 04:00
6. Blut 03:53
7. Der Hammer ihre Kreuze bricht 03:59
8. Tanz den Klingentanz 03:31
9. Für Immer 03:38
10. Fallen wir auch an diesem Tag 04:29
11. Die Kolonne 04:28
12. Die schwarze Flamme 03:14
******************************
Total playing time: 47:06

[more=Extended info]BergStolz - BS-38[/more]

[more=Technical info]
Input File: 02. Der Schnitter.mp3
Channels : 2
Sample Rate : 44100
Precision : 16-bit
Duration : 00:04:22.47 = 11574883 samples = 19685.2 CDDA sectors
File Size : 10.5M
Bit Rate : 320k
Sample Encoding: MPEG audio (layer I, II or III)
Comments :
Title=Der Schnitter
Artist=Wehrhammer
Album=Blut
Tracknumber=2/12
Year=2022
Genre=Black Metal

[/more]

Register
(25) AlexSmith, alikkon, Altkiller, artscald, caro, ChaosArcana, kefka, kim666, oldvarg, Olethros, Orkkh, Ostinato, princeshr, pwoods, Reverend, SilentNidhogg, smes, SSWolf88, stormhatt, supremo, thenecromancer, the_cleanser, VALERY, wreak, zotyo1975,
Jun 25 2022, 20:16:12 Bekëth Nexëhmü - De Dunklas Sorgeakt (Ett Nordiskt Afvsked​.​.​.​) (2022)


*Artist: Bekëth Nexëhmü
*Album: De Dunklas Sorgeakt (Ett Nordiskt Afvsked​.​.​.​)
*Year: 2022
*Genre: Black Metal
*Country: Sweden
*Format: mp3@CBR320kbps
*Size: 244MB

Tracklist:
1. Jörmungandr II 08:51
2. Inom Nagelfars väggar 09:01
3. Hels frusna nejder 05:09
4. Järnskogens kall 02:44
5. Fenrisulvens käftar 08:09
6. I Surtrs eldar 07:23
7. Braenterlude 10:45
8. Nidhöggs härkomst 07:07
9. Furstens välde 08:58
10. Ragnaröks tid 11:03
11. Den brusande kitteln 01:35
12. Dunklets svarta ödeskonst 11:22
13. Jotunheims djup 06:54
14. I Nifelheims vind 05:07
******************************
Total playing time: 1:44:08



[more=Extended info]Amor Fati Productions[/more]

[more=Technical info]
Input File: 05. Fenrisulvens Käftar.mp3
Channels : 2
Sample Rate : 44100
Precision : 16-bit
Duration : 00:08:09.72 = 21596696 samples = 36729.1 CDDA sectors
File Size : 19.8M
Bit Rate : 323k
Sample Encoding: MPEG audio (layer I, II or III)
Comments :
Title=Fenrisulvens Käftar
Artist=Bekëth Nexëhmü
Album=De Dunklas Sorgeakt (Ett Nordiskt Afvsked...)
Tracknumber=05/14
Year=2020
Genre=Black Metal

[/more]

Register
(36) AlexSmith, alikkon, andivi, artscald, autumnwood, BERZERK, blackmetalmilitia, Carcharoth, caro, dermarsoran, Forest Silence, grimoir, kim666, Korpse, milosdjor, nemx, Olethros, Ostinato, Premature_Devotion, princeshr, Qliphoth, rammmirez, Reverend, Scuns, SilentNidhogg, simonalacacarisa, smes, squall8fr, stormhatt, supremo, suseka, thenecromancer, VALERY, wreak, yuratroll, Авел,
Jun 25 2022, 20:03:10 Calderum - Mystical Fortress Of Iberian Lands (2022)


*Artist: Calderum
*Album: Mystical Fortress Of Iberian Lands
*Year: 2022
*Genre: Raw Black Metal
*Country: Spain
*Format: mp3@CBR320kbps
*Size: 93MB

Tracklist:
1. Eternal Shadow 07:18
2. Possessed by the Full Moon 06:35
3. Echoes of the Misty Mountains 06:40
4. Chants of Impiety 07:16
5. Fortress of Doom 05:18
6. The Enchanted Forest 06:35
******************************
Total playing time: 39:42



[more=Technical info]
Input File: 02. Possessed by the Full Moon.mp3
Channels : 2
Sample Rate : 44100
Precision : 16-bit
Duration : 00:06:35.23 = 17429555 samples = 29642.1 CDDA sectors
File Size : 16.0M
Bit Rate : 323k
Sample Encoding: MPEG audio (layer I, II or III)
Comments :
Title=Possessed by the Full Moon
Artist=Calderum
Album=Mystical Fortress of Iberian Lands
Tracknumber=02/06
Year=2022
Genre=Black Metal

[/more]

Register
(14) AlexSmith, artscald, azar, caro, dermarsoran, hex1984, kim666, metala, Olethros, Pinhead666, SilentNidhogg, stormhatt, supremo, wreak,
Jun 19 2022, 14:37:41 Militia Templi - L'ordre De La Croix De Lumière [ep] (2022)


*Artist: Militia Templi
*Album: L'ordre De La Croix De Lumière [ep]
*Year: 2022
*Genre: Black Metal
*Country: France
*Format: mp3@CBR320kbps
*Size: 39MB

Tracklist:
1. Cantiques d'Eternité 08:32
2. Goétie de Lumière 08:06
******************************
Total playing time: 16:38



[more=Technical info]
Input File: 01. Cantiques d\'eternité.mp3
Channels : 2
Sample Rate : 44100
Precision : 16-bit
Duration : 00:08:34.12 = 22672736 samples = 38559.1 CDDA sectors
File Size : 20.7M
Bit Rate : 322k
Sample Encoding: MPEG audio (layer I, II or III)
Comments :
Title=Cantiques d'eternité
Artist=Militia Templi
Album=L'ordre de la croix de lumière
Tracknumber=01/02
Year=2022
Genre=Black Metal

[/more]

Register
(26) Altkiller, apries, artscald, Ash_1980, Bzth, Carcharoth, caro, dermarsoran, kim666, Mencae77, MP101M, murian, nemx, Olethros, Ostinato, Ramcheg1981, robertho777, SilentNidhogg, smes, stormhatt, stub888, VALERY, Vitald, volostakoeto, Wotanwatch, wreak,
Jun 18 2022, 18:10:17 Arbor - Winter Moon [demo] (2021)


*Artist: Arbor
*Album: Winter Moon [demo]
*Year: 2021
*Genre: Black Metal
*Country: United States
*Format: mp3@CBR320kbps
*Size: 35MB

Tracklist:
1. Attrition 04:15
2. Breath of Night 04:17
3. Winter Blood 04:11
4. Sky of Night and Fog 02:10
******************************
Total playing time: 14:53

[more=Technical info]
Input File: 02. Breath Of Night.mp3
Channels : 2
Sample Rate : 48000
Precision : 16-bit
Duration : 00:04:17.95 = 12381840 samples ~ 19346.6 CDDA sectors
File Size : 10.5M
Bit Rate : 326k
Sample Encoding: MPEG audio (layer I, II or III)
Comments :
Title=Breath Of Night
Artist=Arbor
Album=Winter Moon
Tracknumber=02/04
Year=2021
Genre=Black Metal

[/more]

Register
(15) artscald, Carcharoth, caro, dermarsoran, eisigerwind, kim666, Olethros, Ostinato, Reverend, SilentNidhogg, Storky, stormhatt, stub888, VALERY, wreak,
Jun 18 2022, 18:06:05 Arbor - The Fading Light [demo] (2022)


*Artist: Arbor
*Album: The Fading Light [demo]
*Year: 2022
*Genre: Black Metal
*Country: United States
*Format: mp3@CBR320kbps
*Size: 103MB

Tracklist:
1. Ancestral Moon 01:51
2. Black Night 03:35
3. Beneath The Fire 07:36
4. The Burning Wheel Of The Sun 01:46
5. Visions Of The Darkness 07:31
6. The Fading Light Of Stars 07:25
7. The Night’s Lament 06:30
8. Twilight’s Autumnal Window 05:59
9. Golden Wings Of Blood 01:08
******************************
Total playing time: 43:21

[more=Technical info]
Input File: 03. Beneath The Fire.mp3
Channels : 2
Sample Rate : 48000
Precision : 16-bit
Duration : 00:07:36.53 = 21913488 samples ~ 34239.8 CDDA sectors
File Size : 18.5M
Bit Rate : 324k
Sample Encoding: MPEG audio (layer I, II or III)
Comments :
Title=Beneath The Fire
Artist=Arbor
Album=The Fading Light
Tracknumber=03/09
Year=2022
Genre=Black Metal

[/more]

Register
(16) artscald, Carcharoth, caro, dermarsoran, eisigerwind, kim666, Mencae77, nemx, Olethros, Ostinato, Reverend, SilentNidhogg, stormhatt, stub888, VALERY, wreak,
Jun 18 2022, 17:38:16 Kestrel - Primordial Remembrance [demo] (2019)


Kestrel - 2022 - Primordial Remembrance (CD)
320 Kbps @Yadi.sk
Register
(2) abob, elsunga,
Jun 18 2022, 08:48:08 Ostots - Madarikazioa (2022)


*Artist: Ostots
*Album: Madarikazioa
*Year: 2022
*Genre: Black Metal
*Country: Spain
*Format: mp3@CBR320kbps
*Size: 91MB

Tracklist:
1. Eskaintza, Arima Beltza 08:20
2. Izkutuko Altare Zaharra 07:06
3. Bideak Darrai 07:33
4. Odol Egarri 05:09
5. Gizadiaren Eraile 08:05
6. Haize Bortitzen Tontorretik Amilduz 04:01
******************************
Total playing time: 40:14

[more=Extended info]Altare Productions.[/more]

[more=Technical info]
Input File: 02. Izkutuko Altare Zaharra.flac
Channels : 2
Sample Rate : 44100
Precision : 16-bit
Duration : 00:06:53.49 = 18235056 samples = 31012 CDDA sectors
File Size : 47.5M
Bit Rate : 918k
Sample Encoding: 16-bit FLAC
Comments :
ALBUM=Madarikazioa
ARTIST=Ostots
DATE=2022
GENRE=Black Metal
TITLE=Izkutuko Altare Zaharra
TRACKNUMBER=2
TRACKTOTAL=6

[/more]

Register
(39) Alexis The Best, AlexSmith, alikkon, artscald, caro, dermarsoran, gobblin, Ignativs, igore2911, judaz, Kazoth, kim666, LEGION69, Marek, Mencae77, metaljosue, Mist13Signifier, murian, Necromag, nemx, nsk2008, Olethros, Ostinato, Premature_Devotion, Qliphoth, robertho777, SileniusLegard, SilentNidhogg, Slammingmoji, smes, squall8fr, Storky, stormhatt, stub888, supremo, suseka, tim47, VALERY, wreak,
Jun 18 2022, 08:09:21 Reflet Crépusculaire - Fictions [ep] (2022)


*Artist: Reflet Crépusculaire
*Album: Fictions [ep]
*Year: 2022
*Genre: Black Metal
*Country: France
*Format: mp3@CBR320kbps
*Size: 57MB

Tracklist:
1. Tlön 09:11
2. Circular Ruins 14:42
******************************
Total playing time: 23:53




[more=Technical info]
Input File: 01. Tlön.mp3
Channels : 2
Sample Rate : 44100
Precision : 16-bit
Duration : 00:09:11.50 = 24321326 samples = 41362.8 CDDA sectors
File Size : 22.3M
Bit Rate : 323k
Sample Encoding: MPEG audio (layer I, II or III)
Comments :
Title=Tlön
Artist=Reflet Crépusculaire
Album=Fictions
Tracknumber=01/02
Year=2022
Genre=Black Metal

[/more]

Register
(13) artscald, Carcharoth, caro, kim666, Mencae77, nemx, Olethros, Ostinato, SilentNidhogg, stormhatt, stub888, VALERY, wreak,
Jun 14 2022, 19:16:56 Faustian Spirit - Blessed By The Wings Of Eternity (2022)


*Artist: Faustian Spirit
*Album: Blessed By The Wings Of Eternity
*Year: 2022
*Genre: Black Metal
*Country: Chile
*Format: mp3@CBR320kbps
*Size: 87MB

Tracklist:
1. Nullification 05:03
2. Mysterivm Veritas Silentivm 04:56
3. The Faustian Archetype 02:19
4. Sanguinem Drakonis 08:39
5. Blessed by the Wings of Eternity 03:34
6. Die Minnensänger 03:18
7. Sol Intempesta 06:52
8. Gazers of Tehiru 02:15
******************************
Total playing time: 36:56




[more=Extended info]Inferna Profundus Records – IPR142[/more]

[more=Technical info]
Input File: 02. Mystervm Veritas Silentivm.mp3
Channels : 2
Sample Rate : 44100
Precision : 16-bit
Duration : 00:04:56.66 = 13082794 samples = 22249.6 CDDA sectors
File Size : 12.0M
Bit Rate : 323k
Sample Encoding: MPEG audio (layer I, II or III)
Comments :
Title=Mystervm Veritas Silentivm
Artist=Faustian Spirit
Album=Blessed by the Wings of Eternity
Tracknumber=02/08
Year=2022
Genre=Black Metal

[/more]

Register
(22) AlexSmith, artscald, Bzth, Carcharoth, caro, grimoir, Ildjarn, kim666, korovakaska, lunaraurora, Mencae77, nemx, Occultas, Olethros, SadistikSlayer, SilentNidhogg, Storky, stormhatt, supremo, VALERY, wreak, yinchanghanhuang,
Jun 14 2022, 16:38:34 Misery Spell - После Жизни (2022)


*Artist: Misery Spell
*Album: После Жизни
*Year: 2022
*Genre: Black Metal
*Country: Russian Federation
*Format: mp3@CBR320kbps
*Size: 107MB

Tracklist:
1. Высота 61.6 02:30
2. Тянегожский Призрак 10:26
3. Вурдалак, ведущий в трясину 07:37
4. Погостье 06:20
5. Последние слова 07:28
6. После жизни 06:45
7. Двойное дно 03:59
******************************
Total playing time: 45:05



[more=Technical info]
Input File: 02. Тянегожский призрак.mp3
Channels : 2
Sample Rate : 44100
Precision : 16-bit
Duration : 00:10:26.72 = 27638132 samples = 47003.6 CDDA sectors
File Size : 25.3M
Bit Rate : 323k
Sample Encoding: MPEG audio (layer I, II or III)
Comments :
Title=Тянегожский призрак
Artist=Misery Spell
Album=После жизни
Tracknumber=02/07
Year=2022
Genre=Black Metal

[/more]

Register
(23) AlexSmith, alikkon, Altkiller, artscald, caro, Cavemania, dermarsoran, DMIYUR, infernallord, judaz, kim666, Mencae77, oldvarg, Olethros, robertho777, rominow, SilentNidhogg, smysl, stormhatt, supremo, VALERY, wreak, Сварог Барг,
Jun 11 2022, 09:37:52 Vonülfsrëich - Ragnarök Rising (2022)


*Artist: Vonülfsrëich
*Album: Ragnarök Rising
*Year: 2022
*Genre: Black Metal
*Country: Finland
*Format: mp3@CBR320kbps
*Size: 102MB

Tracklist:
1. The Nightside Voices 02:24
2. Pagan Ghoul Warrior 06:36
3. Askplaneten 14:23
4. Dusk Boreal 20:59
******************************
Total playing time: 44:22



[more=Technical info]
Input File: 02. Pagan Ghoul Warrior.mp3
Channels : 2
Sample Rate : 44100
Precision : 16-bit
Duration : 00:06:35.60 = 17445828 samples = 29669.8 CDDA sectors
File Size : 15.9M
Bit Rate : 321k
Sample Encoding: MPEG audio (layer I, II or III)
Comments :
Title=Pagan Ghoul Warrior
Artist=Vonülfsrëich
Album=Ragnarök Rising
Tracknumber=02/04
Year=2022
Genre=Black Metal

[/more]

Register
(26) Alexis The Best, AlexSmith, Altkiller, artscald, Bzth, caro, elsunga, Farfarello, gobblin, Ildjarn, kim666, Korpse, Mencae77, Mortis, nemx, NSGM, Olethros, robertho777, SilentNidhogg, stormhatt, supremo, tim47, VALERY, Vitald, Wail, wreak,
Jun 11 2022, 09:22:04 Malicious Storm - Forbidden Rites Of The Black Arts (2022)


*Artist: Malicious Storm
*Album: Forbidden Rites Of The Black Arts
*Year: 2022
*Genre: Raw Black Metal
*Country: Finland
*Format: mp3@CBR320kbps
*Size: 79MB

Tracklist:
1. Enlightenment of Madness 10:32
2. Devoid of Sentiment 12:46
3. A Withering Maelstrom 10:59
******************************
Total playing time: 34:17



[more=Technical info]
Input File: 01. Enlightenment of Madness.mp3
Channels : 2
Sample Rate : 44100
Precision : 16-bit
Duration : 00:10:33.06 = 27918078 samples = 47479.7 CDDA sectors
File Size : 25.4M
Bit Rate : 320k
Sample Encoding: MPEG audio (layer I, II or III)
Comments :
Title=Enlightenment of Madness
Artist=Malicious Storm
Album=Forbidden Rites of the Black Arts
Tracknumber=01/03
Year=2022
Genre=Black Metal

[/more]

Register
(19) AlexSmith, Altkiller, artscald, Bzth, Carcharoth, caro, DeRectify, Farfarello, Ildjarn, kim666, Mencae77, metala, nemx, Olethros, SilentNidhogg, stormhatt, supremo, VALERY, wreak,
Jun 11 2022, 06:59:30 Theriomorph - Diabolical Bloodswords (2022)


*Artist: Theriomorph
*Album: Diabolical Bloodswords
*Year: 2022
*Genre: Black Metal
*Country: Finland
*Format: mp3@CBR320kbps
*Size: 78MB

Tracklist:
1. Noxious Voice 01:52
2. Megalith in the Hanging Garden 04:35
3. Atigibus, a Passage of Cruel Power 07:03
4. Burning Black Bleeding 02:04
5. Nocturne - Under the Uninvited 05:44
6. Lunar Emblem - Sign of Night 02:25
7. Reflecting Skull 07:29
8. Megalith in the Hanging Garden (reprise) 02:22
******************************
Total playing time: 33:34



[more=Extended info]Terratur Possessions - VOICE 108[/more]

[more=Technical info]
Input File: 02. Megalith in the Hanging Garden.mp3
Channels : 2
Sample Rate : 44100
Precision : 16-bit
Duration : 00:04:35.22 = 12137114 samples = 20641.4 CDDA sectors
File Size : 11.1M
Bit Rate : 323k
Sample Encoding: MPEG audio (layer I, II or III)
Comments :
Title=Megalith in the Hanging Garden
Artist=Theriomorph
Album=Diabolical Bloodswords
Tracknumber=02/08
Year=2022
Genre=Black Metal

[/more]

Register
(49) AlexSmith, alikkon, Altkiller, artscald, biroutios, Bzth, Carcharoth, caro, CelticSPB, Cyrci, elsunga, ent404, Farfarello, Gimli17, gobblin, grimoir, gusto24191, IncendiaryMight, Jackyl, judaz, Kazoth, kim666, MAPhilosopher, Mencae77, milosdjor, nadin85, nemx, Occultas, Olethros, Ostinato, Papych, Phlebotomized, robertho777, sabr, Sangreal, SilentNidhogg, smes, Soviet_Man, Storky, stormhatt, supremo, VALERY, Vidder242, Vitald, WarmasterChorus, Wotanwatch, wreak, yarrsuaa, Козлотролль,
Jun 9 2022, 12:20:12 Wampyric Rites & Nansarunai - The Astounding Proliferation Of Rites [split] (2022)


*Artist: Wampyric Rites & Nansarunai
*Album: The Astounding Proliferation Of Rites [split]
*Year: 2022
*Genre: Raw Black Metal | Raw Black Metal
*Country: Ecuador | Indonesia
*Format: mp3@CBR320kbps
*Size: 98MB

Tracklist:
Wampyric Rites:
1. I 03:22
2. II 05:16
3. III 05:43
4. IV 06:23
Nansarunai:
5. Tri Hita Karana I 08:12
6. Tri Hita Karana II 05:21
7. Tri Hita Karana III 06:01
******************************
Total playing time: 40:18

[more=Extended info]Inferna Profundus Records - IPR135[/more]

[more=Technical info]
Input File: 06. Nansarunai - Tri Hita Karana II.flac
Channels : 2
Sample Rate : 44100
Precision : 16-bit
Duration : 00:05:21.60 = 14182560 samples = 24120 CDDA sectors
File Size : 31.9M
Bit Rate : 794k
Sample Encoding: 16-bit FLAC
Comments :
TITLE=Tri Hita Karana II
ARTIST=Nansarunai
ALBUM=The Astounding Proliferation of Rites
DATE=2022
GENRE=Black Metal
TRACKNUMBER=06/07
ALBUM ARTIST=Wampyric Rites
ALBUMARTIST=Wampyric Rites

[/more]

Register
(17) artscald, Carcharoth, caro, dermarsoran, Ildjarn, kauyumari, kim666, Lanceatum, nemx, Occultas, rammmirez, Sangreal, SilentNidhogg, stormhatt, supremo, varlam4, wreak,
Jun 9 2022, 11:51:32 Anonymous Skull - Cursing The Crimson Fog [demo] (2022)


*Artist: Anonymous Skull
*Album: Cursing The Crimson Fog [demo]
*Year: 2022
*Genre: Raw Black Metal
*Country: United States
*Format: mp3@CBR320kbps
*Size: 47MB

Tracklist:
1. Theme I 01:10
2. Cursing the Crimson Fog 02:33
3. Dancing in High Tide 03:50
4. Fervent Moon 00:35
5. Untitled Waltz II 01:42
6. The Great House Is Aflame 02:44
7. Winding, Wayward, Woeful 05:16
8. Theme II 01:52
******************************
Total playing time: 19:42



[more=Extended info]Moonworshipper Records[/more]

[more=Technical info]
Input File: 02. Cursing the Crimson Fog.mp3
Channels : 2
Sample Rate : 44100
Precision : 16-bit
Duration : 00:02:33.69 = 6777553 samples = 11526.5 CDDA sectors
File Size : 6.24M
Bit Rate : 325k
Sample Encoding: MPEG audio (layer I, II or III)
Comments :
Title=Cursing the Crimson Fog
Artist=Anonymous Skull
Album=Cursing the Crimson Fog
Tracknumber=02/08
Year=2022
Genre=Black Metal

[/more]

Register
(12) artscald, Carcharoth, caro, kim666, LordOvDarkness, nemx, Olethros, SilentNidhogg, stormhatt, Tyrone, varlam4, wreak,
Jun 9 2022, 11:49:54 Anonymous Skull - Cavernous Day & Cavernous Night [demo] (2022)


*Artist: Anonymous Skull
*Album: Cavernous Day & Cavernous Night [demo]
*Year: 2022
*Genre: Raw Black Metal
*Country: United States
*Format: mp3@CBR320kbps
*Size: 61MB

Tracklist:
1. Scornful Sunny Day 02:10
2. Dawn Comes Dreaming 02:24
3. Elfin Gold Underfoot 02:02
4. Glory to Sunset 03:58
5. Maniacal Dusk 02:16
6. Perfect Midnight 04:07
7. Trickling Through Rock Face 01:28
8. Nighttide Delusion I 01:27
9. Karst Spring 03:06
10. Nighttide Delusion II 01:47
******************************
Total playing time: 24:45



[more=Extended info]Moonworshipper Records[/more]

[more=Technical info]
Input File: 04. Glory to Sunset.mp3
Channels : 2
Sample Rate : 44100
Precision : 16-bit
Duration : 00:03:58.07 = 10498755 samples = 17855 CDDA sectors
File Size : 9.61M
Bit Rate : 323k
Sample Encoding: MPEG audio (layer I, II or III)
Comments :
Title=Glory to Sunset
Artist=Anonymous Skull
Album=Cavernous Day & Cavernous Night
Tracknumber=04/10
Year=2022
Genre=Black Metal

[/more]

Register
(9) artscald, Carcharoth, caro, nemx, Olethros, SilentNidhogg, stormhatt, varlam4, wreak,
Jun 9 2022, 11:47:17 Anonymous Skull - Anonymous Skull [demo] (2022)


*Artist: Anonymous Skull
*Album: Anonymous Skull [demo]
*Year: 2022
*Genre: Raw Black Metal
*Country: United States
*Format: mp3@CBR320kbps
*Size: 30MB

Tracklist:
1. Anonymous Skull 03:16
2. Rhythmic Hand 02:07
3. Interlude I 00:34
4. Interlude II 00:27
5. Of All Saints 02:37
6. Untitled Waltz 02:38
******************************
Total playing time: 11:39



[more=Extended info]Deathful Lust[/more]

[more=Technical info]
Input File: 05. Of All Saints.mp3
Channels : 2
Sample Rate : 44100
Precision : 16-bit
Duration : 00:02:37.58 = 6949234 samples = 11818.4 CDDA sectors
File Size : 6.43M
Bit Rate : 327k
Sample Encoding: MPEG audio (layer I, II or III)
Comments :
Title=Of All Saints
Artist=Anonymous Skull
Album=Anonymous Skull
Tracknumber=05/06
Year=2022
Genre=Black Metal

[/more]

Register
(10) artscald, Carcharoth, caro, kim666, nemx, Olethros, SilentNidhogg, stormhatt, varlam4, wreak,
Jun 7 2022, 13:58:56 Gestapo 666 - Satanic Terrorism (2022)


*Artist: Gestapo 666
*Album: Satanic Terrorism
*Year: 2022
*Genre: Raw Black Metal
*Country: France
*Format: mp3@CBR320kbps
*Size: 94MB

Tracklist:
1. With Hate We Rise Again
2. Martial Law
3. Summon the Spirit of War
4. Mass Extermination
5. Daemonomantia
6. The Angel of Klaus Barbie
7. Death Camps Poetry
8. Napalm Genocide
******************************
Total playing time: 40:44

[more=Extended info]Drakkar Productions[/more]

[more=Technical info]
Input File: 03. Summon the Spirit of War.mp3
Channels : 2
Sample Rate : 44100
Precision : 16-bit
Duration : 00:06:06.68 = 16170500 samples = 27500.9 CDDA sectors
File Size : 14.8M
Bit Rate : 322k
Sample Encoding: MPEG audio (layer I, II or III)
Comments :
Title=Summon the Spirit of War
Artist=Gestapo 666
Album=Satanic Terrorism
Tracknumber=03/08
Year=2022
Genre=Black Metal

[/more]

Register
(48) acerbus, Alexis The Best, AlexSmith, artscald, basher68, cancer1974, caro, Cyrci, DarkHorde, dcatagua, dermarsoran, Forcerecon1, Forest Silence, gobblin, GorAtheist, grimoir, gusto24191, Hell_Is_Here, homelike, Ildjarn, kauyumari, kim666, Krosis, LEGION69, MAPhilosopher, Moonshtook, Mortis, murian, NathanSS, nemx, Olethros, pwoods, Raw1488, recber, RUDACHUR, SilentNidhogg, smes, SSWolf88, Strego, supremo, Surt, VALERY, varlam4, Vidyadharov, witchfinder, wreak, yarrsuaa, Абигор,
Jun 2 2022, 06:13:07 Wrang - De Vaendrig (2022)


*Artist: Wrang
*Album: De Vaendrig
*Year: 2022
*Genre: Black Metal
*Country: Netherlands
*Format: mp3@CBR320kbps
*Size: 100MB

Tracklist:
1. Doodgeslagen onschuld 05:28
2. De vaendrig 07:34
3. Jachttijd 06:59
4. Voorwaarts! De nacht roept 04:55
5. Bestevaer 07:16
6. Afgunst 04:40
7. Liturgie van zelfhaat 06:04
******************************
Total playing time: 42:56



[more=Technical info]
Input File: 02. De vaendrig.mp3
Channels : 2
Sample Rate : 44100
Precision : 16-bit
Duration : 00:07:34.77 = 20055225 samples = 34107.5 CDDA sectors
File Size : 18.3M
Bit Rate : 322k
Sample Encoding: MPEG audio (layer I, II or III)
Comments :
Title=De vaendrig
Artist=Wrang
Album=De vaendrig
Tracknumber=02/07
Year=2022
Genre=Black Metal

[/more]

Register
(21) AlexSmith, alikkon, Altkiller, artscald, azar, caro, Ildjarn, infernallord, kim666, murian, nemx, Olethros, Orkkh, Ostinato, SilentNidhogg, Storky, stormhatt, supremo, VALERY, Wotanwatch, wreak,
Jun 1 2022, 13:25:41 Erstwhile - Rapture In The Pathless Woods (2022)


*Artist: Erstwhile
*Album: Rapture In The Pathless Woods
*Year: 2022
*Genre: Black Metal
*Country: United States
*Format: mp3@CBR320kbps
*Size: 75MB

Tracklist:
1. Poisonous Shadows 04:57
2. A Field of Havoc and War 05:11
3. Apathetic Wanderings 05:32
4. Rapture in the Pathless Woods 06:47
5. Apparitions in the Veil of Night 05:25
6. A Grim Longing 04:04
******************************
Total playing time: 31:56



[more=Technical info]
Input File: Erstwhile - Rapture in the Pathless Woods - 02 A Field of Havoc and War.flac
Channels : 2
Sample Rate : 44100
Precision : 16-bit
Duration : 00:05:11.17 = 13722703 samples = 23337.9 CDDA sectors
File Size : 25.5M
Bit Rate : 657k
Sample Encoding: 16-bit FLAC
Comments :
TITLE=A Field of Havoc and War
ARTIST=Erstwhile
DATE=2022
COMMENT=Visit https://erstwhilebm.bandcamp.com
ALBUM=Rapture in the Pathless Woods
TRACKNUMBER=2
ALBUMARTIST=Erstwhile

[/more]

Register
(14) AlexSmith, artscald, Carcharoth, caro, kim666, Olethros, robertho777, SilentNidhogg, stormhatt, supremo, Tyrone, VALERY, varlam4, wreak,
Jun 1 2022, 13:12:04 Hiidenlintu - Savon Mustaa Metallia (2022)


*Artist: Hiidenlintu
*Album: Savon Mustaa Metallia
*Year: 2022
*Genre: Black Metal
*Country: Finland
*Format: mp3@CBR320kbps
*Size: 99MB

Tracklist:
1. Vaskesta vasaroitu, rau'asta rakennettu 02:45
2. Savon mustaa metallia 05:58
3. Pohjolan liput 03:52
4. Yö ja usva 05:45
5. Alkulähde 06:58
6. He, jotka ovat jo kuolleet 04:54
7. Vihapuhuja 03:44
8. Ikuinen kehä 06:43
******************************
Total playing time: 40:39



[more=Technical info]
Input File: 02. Savon Mustaa Metallia.mp3
Channels : 2
Sample Rate : 44100
Precision : 16-bit
Duration : 00:05:58.81 = 15823697 samples = 26911 CDDA sectors
File Size : 14.5M
Bit Rate : 324k
Sample Encoding: MPEG audio (layer I, II or III)
Comments :
Title=Savon Mustaa Metallia
Artist=Hiidenlintu
Album=Savon Mustaa Metallia
Tracknumber=02/08
Year=2022
Genre=Black Metal

[/more]

Register
(20) AlexSmith, Altkiller, apries, artscald, Carcharoth, caro, Dark_Viking, judaz, kim666, Marek, nemx, Olethros, robertho777, SilentNidhogg, stormhatt, supremo, thenecromancer, VALERY, varlam4, wreak,
May 30 2022, 07:58:03 Black Cilice - Esoteric Atavism (2022)


*Artist: Black Cilice
*Album: Esoteric Atavism
*Year: 2022
*Genre: Raw Black Metal
*Country: Portugal
*Format: mp3@CBR320kbps
*Size: 84MB

Tracklist:
1. Beyond the Veil 07:27
2. Channelling Old Power 05:41
3. Spiritual Poisoning 05:03
4. Atavistic Reconnection 04:44
5. Triumph over Eternity 07:24
6. Towards Transcendence 05:26
******************************
Total playing time: 35:45

[more=Extended info]Iron Bonehead Productions - IBP550[/more]

[more=Technical info]
Input File: 03. Spiritual Poisoning.mp3
Channels : 2
Sample Rate : 44100
Precision : 16-bit
Duration : 00:05:03.51 = 13384791 samples = 22763.2 CDDA sectors
File Size : 12.2M
Bit Rate : 320k
Sample Encoding: MPEG audio (layer I, II or III)
Comments :
Title=Spiritual Poisoning
Artist=Black Cilice
Album=Esoteric Atavism
Tracknumber=03/06
Year=2022
Genre=Black Metal

[/more]

Register
(32) Alexis The Best, AlexSmith, alikkon, artscald, azar, caro, ChaosArcana, Forcerecon1, grimoir, guidanner, Hell_Is_Here, Ignativs, igore2911, judaz, kim666, Lamby90, LEGION69, Mist13Signifier, murian, nemx, Olethros, Ostinato, Premature_Devotion, Reducer, Reverend, sacrut, SilentNidhogg, supremo, the_cleanser, Tyrone, varlam4, wreak,
May 29 2022, 06:55:43 Norrhem - Elonkehrä (2022)


*Artist: Norrhem
*Album: Elonkehrä
*Year: 2022
*Genre: Black Metal
*Country: Finland
*Format: mp3@CBR320kbps
*Size: 102MB

Tracklist:
1. Alkusoitto 01:35
2. Kali Yugan tulessa 05:59
3. Liitossa veren ja maan 06:26
4. Saarretut 05:32
5. Välisoitto 01:01
6. Sammas 07:27
7. Tuhannen vuotta 05:26
8. Kaksi polkua kuolemaan 08:37
******************************
Total playing time: 42:03



[more=Technical info]
Input File: 08. Kaksi polkua kuolemaan.mp3
Channels : 2
Sample Rate : 44100
Precision : 16-bit
Duration : 00:08:37.26 = 22810990 samples = 38794.2 CDDA sectors
File Size : 20.8M
Bit Rate : 322k
Sample Encoding: MPEG audio (layer I, II or III)
Comments :
Title=Kaksi polkua kuolemaan
Artist=Norrhem
Album=Elonkehrä
Tracknumber=08/08
Year=2022
Genre=Black Metal

[/more]

Register
(42) alex-82, AlexSmith, Altkiller, Antichrist, artscald, Ash_1980, Carcharoth, caro, cesar, Cyrci, demonosz, dermarsoran, durandal, Farfarello, grimoir, Ildjarn, judaz, kim666, LEGION69, Marek, MMMMM, Moonshtook, Mortis, nemx, nsk2008, oldvarg, Olethros, RUDACHUR, saatana, sabr, SilentNidhogg, Storky, stormhatt, supremo, Surt, toly1917, VALERY, varlam4, WOLAND, wreak, yarrsuaa, zhol,

92 Pages V   1 2 3 > » 
- Lo-Fi Version Support form
Copyrights and abuse reports form
Time is now: 7th July 2022 - 14:43:03