Welcome Guest ( Log In | Register )

История благодарностей участнику maxxxy ::: Спасибо сказали: 569 раз(а)
Дата поста: В теме: За сообщение: Спасибо сказали:
Jan 26 2023, 20:43:57 ...And Oceans - As In Gardens, So In Tombs (2023)
BleedingSun, под сиропом походу, кодеиновым 5.gif
(1) BleedingSun,
Jan 3 2023, 11:40:49 Esoctrilihum - Funeral (2023)
Отзывы про конвейер конвейернее сабжа. У артистов свои темпы, а конвейеры, как это не было бы парадоксально, часто сидят на "крутых" лейблах, с которыми заключают контракты на ОПРЕДЕЛЕННОЕ кол-во альбомов с минимально допустимым хронометражем.
(2) mirotvorets, NeonKnight,
Jan 3 2023, 06:38:36 Рожь - Всё (2023)
ЦИТАТА(Maximvs @ Jan 3 2023, 07:24:51) *
Файлик грохнули на медиафайре.

На БК релиз бесплатный
(1) Maximvs,
Dec 9 2022, 14:59:57 Within Temptation - The Fire Within [single] (2022)
Ну что ж, начинайте, господа popcorn.gif
(1) Nattfodd,
Dec 4 2022, 09:30:25 Vampyroteuthis Infernalis - Vampyroteuthis Infernalis (2022)


*Artist: Vampyroteuthis Infernalis
*Album: Vampyroteuthis Infernalis
*Year: 2022
*Genre: Raw Black Metal
*Country: Unknown
*Format: mp3@CBR320kbps
*Size: 104MB

Tracklist:
1. VI I 22:33
2. VI II 22:41
******************************
Total playing time: 45:14




[more=Technical info]
Input File: 1. VI I.mp3
Channels : 2
Sample Rate : 44100
Precision : 16-bit
Duration : 00:22:33.40 = 59684940 samples = 101505 CDDA sectors
File Size : 54.3M
Bit Rate : 321k
Sample Encoding: MPEG audio (layer I, II or III)
Comments :
Title=VI I
Artist=Vampyroteuthis Infernalis
Album=Vampyroteuthis Infernalis
Tracknumber=1
Year=2022

[/more]

Register
(19) AlexSmith, artscald, Buregon, Carcharoth, Grev, Hell_Is_Here, kim666, Lord Of The Siths, murian, nemx, randumbum, rominow, SilentNidhogg, stormhatt, supremo, VALERY, varlam4, vasiljev_sergej, wreak,
Nov 28 2022, 18:05:38 Metallica - Lux Æterna [single] (2022)


*Artist: Metallica
*Album: Lux Æterna [single]
*Year: 2022
*Genre: Thrash Metal
*Country: United States
*Format: mp3@CBR320kbps
*Size: 8MB

Tracklist:
1. Lux Æterna (3:26)
******************************
Total playing time: 3:26



[more=Extended info]Single from the album “72 Seasons” available April 14th, 2023.[/more]

[more=Technical info]
Input File: 01. Lux Æterna.mp3
Channels : 2
Sample Rate : 44100
Precision : 16-bit
Duration : 00:03:25.75 = 9073751 samples = 15431.5 CDDA sectors
File Size : 8.29M
Bit Rate : 322k
Sample Encoding: MPEG audio (layer I, II or III)
Comments :
Title=Lux Æterna
Artist=Metallica
Album=Lux Æterna
Tracknumber=1/1
Year=2022
Discnumber=1/1

[/more]

Register
(38) Aresson, artscald, Bloodline Christian, Branis, canadaspaceman, cenzored, cesar, chipsgott, Diflock, djsema4, Emm Human, garml2, GorAtheist, Grev, gwar, Hell_Is_Here, Hexenmeister, IamTLR, Igor1969, infozahist, killingod, kjemiker, Lanceatum, LightWizard, megam, Messian, metaljosue, nekrokilldozer, noel666, Occultas, Old Vyaine, Phlebotomized, piwimetal, thenecromancer, Thrashold, Vitald, Wail, wanderer73,
Nov 17 2022, 09:53:11 Ikarus - Quiero Oír Tu Voz [ep] (2022)
(1) Dreamtale,
Nov 12 2022, 11:22:44 SS-18 - Cryoholocaust (2022)
с БК: Music for songs 1, 2, 3 ,4, 7 was composed in 1997 - 2002 during the participation of the authors in the Stavropol bands HOLOCAUST and ETERNAL FROST. To perpetuate the memory of HOLOCAUST this album was named.
Вышла офишл диджитал версия кста
(1) spammer666,
Nov 10 2022, 20:15:08 SS-18 - Cryoholocaust (2022)
Сэмплы взяты из фильма "Письма мёртвого человека"
(2) Chasm, Ethnos,
Oct 18 2022, 15:17:07 Новости Black-направления
Свежий трек от SS-18

(4) Chasm, domicii, Occultas, vovenom,
Sep 2 2022, 14:36:31 Megadeth - The Sick, The Dying... And The Dead! (2022)
А каверы то лучше, чем большая часть альбома :---)
(2) Lux, sabr,
Aug 12 2022, 17:29:30 Esoctrilihum - Luadimmerantia [ep] (2022)
original cover
(1) Occultas,
Feb 20 2022, 16:58:57 Mork - Pesta [ep] (2020)
ЦИТАТА(Vidyadharov @ 20th February 2022 - 16:30:21) *
А у кого-нибудь есть во FLAC-е?

Register
(1) Vidyadharov,
Feb 19 2022, 13:21:21 Mortem - Slow Death [demo] (1987)
ЦИТАТА(kefka @ 17th February 2022 - 16:27:28) *
Reissue 2022 - FLAC
Fully re-recorded plus extra tracks and the original demo

Register
(8) Carcharoth, hell_armageddon, mpavlentiy, thenecromancer, UnholyForcesOfEvil, wanderer73, wreak, Xtohar,
Feb 18 2022, 11:45:37 Watain - The Agony & Ecstasy Of Watain (2022)
заметь, это сочетания букв, а не слова.
(1) WOLAND,
Feb 17 2022, 21:39:11 Wyrm - Purge (2020)
MadCarrot,
Register
(2) MadCarrot, Mencae77,
Feb 17 2022, 20:23:07 The Birthday Massacre - Fascination (2022)


*Artist: The Birthday Massacre
*Album: Fascination
*Year: 2022
*Genre: Synth Rock/Gothic
*Country: Canada
*Format: mp3@CBR320kbps
*Size: 89MB

Tracklist:
1. Fascination 5:03
2. Dreams of You 03:21
3. Cold Lights 4:16
4. Stars and Satellites 4:14
5. One More Time 4:34
6. Like Fear, Like Love 4:24
7. Once Again 3:57
8. Precious Hearts 4:25
9. The End of All Stories 4:23
******************************
Total playing time: 38:37



[more=Extended info][/more]

[more=Technical info]
Input File: 3. Cold Lights.mp3
Channels : 2
Sample Rate : 44100
Precision : 16-bit
Duration : 00:04:16.00 = 11289600 samples = 19200 CDDA sectors
File Size : 10.3M
Bit Rate : 321k
Sample Encoding: MPEG audio (layer I, II or III)
Comments :
Title=Cold Lights
Artist=The Birthday Massacre
Album=Fascination
Tracknumber=3
Year=2022-02-18
Genre=Alternative
Discnumber=1

[/more]

Register
(27) 6666666, aleon, Alpha_Prime, Cartman223, dark1988, Emhyr var Emreis, ent404, gwar, Jackyl, Mplast, multizwilling, Old Vyaine, oldvarg, Olethros, Ostinato, Phlebotomized, plfan93, Ragnarh, SAPOGi, satanist666, Shadechaser, stone88, Torop, v.v.m, Vranakrik, Woosad, yuratroll,
Feb 17 2022, 15:39:38 Kampfar - Lausdans Under Stjernene [single] (2022)


*Artist: Kampfar
*Album: Lausdans Under Stjernene [single]
*Year: 2022
*Genre: Black Metal
*Country: Norway
*Format: mp3@CBR320kbps
*Size: 20MB

Tracklist:
1. Lausdans under stjernene (08:33)
******************************
Total playing time: 8:33



[more=Technical info]
Input File: 01. Lausdans under stjernene.mp3
Channels : 2
Sample Rate : 44100
Precision : 16-bit
Duration : 00:08:33.36 = 22639308 samples = 38502.2 CDDA sectors
File Size : 21.0M
Bit Rate : 327k
Sample Encoding: MPEG audio (layer I, II or III)
Comments :
Title=Lausdans under stjernene
Artist=Kampfar
Album=Lausdans under stjernene
Tracknumber=1/1
Year=2022
Discnumber=1/1

[/more]

Register
(14) ALEXSATHANAS, Cyrci, Grev, Hexer, infozahist, Mannard, Mencae77, nadin85, Olethros, Ostinato, satanist666, vasiljev_sergej, vitosdemon, wreak,
Feb 5 2022, 07:53:03 SS-18 - Lost Warheads (2022)


*Artist: SS-18
*Album: Lost Warheads
*Year: 2022
*Genre: Black Metal
*Country: Russian Federation
*Format: mp3@CBR320kbps
*Size: 84MB

Tracklist:
1. Death Gene 04:56
2. Irreversibility of Omnicide (2006 vers.) 4:22
3. Undead City 06:53
4. After Life 06:04
5. The Newest Nuclear Scenery (2006 vers.) 05:35
6. Bioreaktor Pandemonium (2006 vers.) 07:49
******************************
Total playing time: 35:39

[more=Extended info]These nuclear warheads were created between 2004 and 2006 and were considered lost until 2020.
The significance of these arrows of Prometheus can hardly be overestimated - they laud the foundation for all subsequent above-ground nuclear tests of the SS-18.

The recording was restored and remastered in 2021 at the Nuclear Phoenix studio.

[/more]

[more=Technical info]
Input File: 02. Irreversibility of Omnicide (2006 vers.).mp3
Channels : 2
Sample Rate : 44100
Precision : 16-bit
Duration : 00:04:22.75 = 11587451 samples = 19706.5 CDDA sectors
File Size : 10.7M
Bit Rate : 327k
Sample Encoding: MPEG audio (layer I, II or III)
Comments :
Title=Irreversibility of Omnicide (2006 vers.)
Artist=SS-18
Album=Lost Warheads
Tracknumber=2
Year=2022

[/more]

Register
(56) acerbus, AlexSmith, AndreFrancis, Aresson, Boozer, Bzth, Carcharoth, CelticSPB, Chasm, Constantinus I, DarkHorde, deadterror, Deathconnect, dermarsoran, dsword, Emhyr var Emreis, Evilded, Fryz, Golodomor, Gylve, Hexer, Infidel, judaz, Kazoth, kefka, kim666, lordbathor, lunaraurora, Lux, Mencae77, metaljosue, milosdjor, Nerevar, nsk2008, Olethros, Phlebotomized, Premature_Devotion, recber, satanist666, sethurius, Shub, stormhatt, Strygaldwir, SyncestrA, technoboy69, Torolv, varlam4, vasiljev_sergej, Vitald, warhead123, WarmasterChorus, wreak, xska, yarrsuaa, Абигор, Авел,
Feb 3 2022, 17:26:43 Rolo Tomassi - Where Myth Becomes Memory (2022)


*Artist: Rolo Tomassi
*Album: Where Myth Becomes Memory
*Year: 2022
*Genre: Mathcore
*Country: United Kingdom
*Format: mp3@CBR320kbps
*Size: 109MB

Tracklist:
01. Almost Always 6:30
02. Cloaked 3:55
03. Mutual Ruin 5:15
04. Labyrinthine 3:27
05. Closer 5:15
06. Drip 5:51
07. Prescience 4:54
08. Stumbling 2:50
09. To Resist Forgetting 4:04
10. The End of Eternity 6:13
******************************
Total playing time: 48:14

[more=Extended info]
[youtube]MA315mvXrCs[/youtube][/more]

[more=Technical info]
Input File: 02. Cloaked.mp3
Channels : 2
Sample Rate : 44100
Precision : 16-bit
Duration : 00:03:55.04 = 10365220 samples = 17627.9 CDDA sectors
File Size : 9.40M
Bit Rate : 320k
Sample Encoding: MPEG audio (layer I, II or III)
Comments :
Title=Cloaked
Artist=Rolo Tomassi
Album=Where Myth Becomes Memory
Tracknumber=2/10
Year=2022
Genre=Rock
Discnumber=1/1

[/more]

Register
(9) AndreFrancis, boby9052, metaljosue, mirotvorets, Olethros, Ostinato, StabWound, wreak, yuratroll,
Jan 29 2022, 08:41:48 Sår - Dreams Of Freedom [ep] (2022)
Victim of fate,
Register
(5) Femto, kim666, Tyrone, Victim of fate, wreak,
Dec 10 2021, 11:25:20 Wiegedood - Fn Scar 16 [single] (2021)


*Artist: Wiegedood
*Album: Fn Scar 16 [single]
*Year: 2021
*Genre: Black Metal
*Country: Belgium
*Format: mp3@CBR320kbps
*Size: 10MB

Tracklist:
1. FN SCAR 16 (04:07)
******************************
Total playing time: 4:07

[more=Extended info][youtube]iAOym9_-rXU[/youtube][/more]

[more=Technical info]
Input File: 01. FN SCAR 16.mp3
Channels : 2
Sample Rate : 44100
Precision : 16-bit
Duration : 00:04:07.50 = 10914750 samples = 18562.5 CDDA sectors
File Size : 10.3M
Bit Rate : 332k
Sample Encoding: MPEG audio (layer I, II or III)
Comments :
Title=FN SCAR 16
Artist=Wiegedood
Album=FN SCAR 16
Tracknumber=1/1
Year=2021
Discnumber=1/1

[/more]

Register
(10) artscald, caro, Hell_Is_Here, Olethros, satanist666, stormhatt, varlam4, vasiljev_sergej, wreak, zuiozuio,
Dec 3 2021, 20:26:41 N█O - Fallen (2021)


*Artist: N█O
*Album: Fallen
*Year: 2021
*Genre: Atmospheric Black Metal
*Country: Ukraine
*Format: mp3@CBR320kbps
*Size: 98MB

Tracklist:
1. Piercing Truth 05:16
2. Martyr 08:40
3. Surrender 07:24
4. Escape 07:51
5. Disillusionment 06:22
6. Misguiding Star 06:59
******************************
Total playing time: 42:32



[more=Extended info][/more]

[more=Technical info]
Input File: 02. Martyr.mp3
Channels : 2
Sample Rate : 44100
Precision : 16-bit
Duration : 00:08:40.52 = 22954976 samples = 39039.1 CDDA sectors
File Size : 21.0M
Bit Rate : 323k
Sample Encoding: MPEG audio (layer I, II or III)
Comments :
Title=Martyr
Artist=N█O
Album=Fallen
Tracknumber=2/6
Year=2021
Discnumber=1/1

[/more]

Register
(19) aleon, AndreFrancis, Black Cat, ErikGoth, isvili, kim666, M8R8K, Mencae77, nemx, Olethros, Penetralia, recber, smes, varlam4, vasiljev_sergej, Victim of fate, wreak, yuratroll, Авел,
Nov 28 2021, 19:10:52 Anaal Nathrakh - Hell Is Empty, And All The Devils Are Here (2021)
ЦИТАТА(Daecadance @ 28th November 2021 - 19:03:01) *
а при чем тут 2021?

reissue
(1) Occultas,
Nov 28 2021, 18:21:29 Zmarłym - Druga Fala (2021)
FLAC
Register
(3) Kodel, Korpse, Olethros,

2 Pages V   1 2 >
- Lo-Fi Version Support form
Copyrights and abuse reports form
Time is now: 3rd February 2023 - 11:01:07