Welcome Guest ( Log In | Register )

История благодарностей участнику maxxxy ::: Спасибо сказали: 359 раз(а)
Дата поста: В теме: За сообщение: Спасибо сказали:
Dec 10 2021, 11:25:20 Wiegedood - Fn Scar 16 [single] (2021)


*Artist: Wiegedood
*Album: Fn Scar 16 [single]
*Year: 2021
*Genre: Black Metal
*Country: Belgium
*Format: mp3@CBR320kbps
*Size: 10MB

Tracklist:
1. FN SCAR 16 (04:07)
******************************
Total playing time: 4:07

[more=Extended info][youtube]iAOym9_-rXU[/youtube][/more]

[more=Technical info]
Input File: 01. FN SCAR 16.mp3
Channels : 2
Sample Rate : 44100
Precision : 16-bit
Duration : 00:04:07.50 = 10914750 samples = 18562.5 CDDA sectors
File Size : 10.3M
Bit Rate : 332k
Sample Encoding: MPEG audio (layer I, II or III)
Comments :
Title=FN SCAR 16
Artist=Wiegedood
Album=FN SCAR 16
Tracknumber=1/1
Year=2021
Discnumber=1/1

[/more]

Register
(9) artscald, caro, Hell_Is_Here, Olethros, stormhatt, varlam4, vasiljev_sergej, wreak, zuiozuio,
Dec 3 2021, 20:26:41 N█O - Fallen (2021)


*Artist: N█O
*Album: Fallen
*Year: 2021
*Genre: Atmospheric Black Metal
*Country: Ukraine
*Format: mp3@CBR320kbps
*Size: 98MB

Tracklist:
1. Piercing Truth 05:16
2. Martyr 08:40
3. Surrender 07:24
4. Escape 07:51
5. Disillusionment 06:22
6. Misguiding Star 06:59
******************************
Total playing time: 42:32



[more=Extended info][/more]

[more=Technical info]
Input File: 02. Martyr.mp3
Channels : 2
Sample Rate : 44100
Precision : 16-bit
Duration : 00:08:40.52 = 22954976 samples = 39039.1 CDDA sectors
File Size : 21.0M
Bit Rate : 323k
Sample Encoding: MPEG audio (layer I, II or III)
Comments :
Title=Martyr
Artist=N█O
Album=Fallen
Tracknumber=2/6
Year=2021
Discnumber=1/1

[/more]

Register
(18) aleon, AndreFrancis, Black Cat, ErikGoth, isvili, kim666, M8R8K, Mencae77, nemx, Olethros, Penetralia, recber, smes, varlam4, vasiljev_sergej, Victim of fate, wreak, yuratroll,
Nov 28 2021, 19:10:52 Anaal Nathrakh - Hell Is Empty, And All The Devils Are Here (2021)
ЦИТАТА(Daecadance @ 28th November 2021 - 19:03:01) *
а при чем тут 2021?

reissue
(1) Occultas,
Nov 28 2021, 18:21:29 Zmarłym - Druga Fala (2021)
FLAC
Register
(3) Kodel, Korpse, Olethros,
Nov 26 2021, 19:03:55 Negură Bunget - Zău (2021)
FLAC
Register
(6) Alexis The Best, garml2, isvili, mirotvorets, ondrazevsi, sTerLingaz,
Nov 17 2021, 08:47:02 Svarti Loghin - Mörk Energi (2017)
320kbps
Register
(5) Hexer, lucifix, thenecromancer, wreak, Авел,
Oct 14 2021, 20:33:13 Turbo - Last Warrior (1988)
Register
(4) BlackFire666, maxmagmas, RUSP73, wreak,
Sep 26 2021, 17:17:47 Iskandr - Vergezicht (2021)
Register
(9) Anarchead, AndreFrancis, Demonic, Hexer, Mencae77, nemx, Olethros, witchfinder, wreak,
Sep 23 2021, 13:04:47 Koldovstvo - Forgotten Craft [demo] (2021)
ЦИТАТА(dalex @ Sep 23 2021, 12:56:53) *
Первый раз вижу такие спектры)

тупо закат Майами-бич получается
(1) Deze,
Sep 16 2021, 12:23:35 Spiritbox - Eternal Blue (2021)


*Artist: Spiritbox
*Album: Eternal Blue
*Year: 2021
*Genre: Progressive Metal
*Country: Canada
*Format: mp3@CBR320kbps
*Size: 101MB

Tracklist:
1. Sun Killer 03:47
2. Hurt You 03:46
3. Yellowjacket (feat. Sam Carter) 03:18
4. The Summit 03:57
5. Secret Garden 03:39
6. Silk In The Strings 02:57
7. Holy Roller 02:53
8. Eternal Blue 03:59
9. We Live In A Strange World 02:48
10. Halcyon 03:40
11. Circle With Me 03:53
12. Constance 04:30
******************************
Total playing time: 43:07

[more=Extended info][youtube]ots5los164Q[/youtube][/more]

[more=Technical info]
Input File: 02. Hurt You.mp3
Channels : 2
Sample Rate : 44100
Precision : 16-bit
Duration : 00:03:46.26 = 9978154 samples = 16969.6 CDDA sectors
File Size : 9.18M
Bit Rate : 324k
Sample Encoding: MPEG audio (layer I, II or III)
Comments :
Title=Hurt You
Artist=Spiritbox
Album=Eternal Blue
Tracknumber=2
Year=2021
Genre=Metal
Discnumber=1

[/more]

Register
(21) ace73pq, after21allD, Aynekko, BandR75, caro, chipsgott, GorAtheist, Herrant, Hovnoliaty, light, Lionheart-P, metala, metaljosue, MMMMM, Mogozoz, Olethros, Rover, Slam91, stumpheavyrock, Wail, wreak,
Aug 28 2021, 08:54:56 Jinjer - Wallflowers (2021)
Хорошие исполнители, плохие сочинители.
(1) BleedingSun,
Jul 10 2021, 16:05:22 Wurdulac - Lurking Hand Of Fate (2021)
реклама KFC на кавере?
(1) ent404,
Jun 29 2021, 17:31:48 White Ward - Debemur Morti [ep] (2021)
ЦИТАТА(Chuck @ Jun 29 2021, 14:07:25) *
Когда моя жена говорит что она что то классно взяла в магазине, я надеюсь что именно взяла а не купила......
Тут даже брать по ходу нечего...

Сэтап был неплох, но панчлайн подвёл конечно
(1) Nattfodd,
Apr 10 2021, 18:14:45 Këkht Aräkh - Pale Swordsman (2021)


*Artist: Këkht Aräkh
*Album: Pale Swordsman
*Year: 2021
*Genre: Black Metal
*Country: Ukraine
*Format: mp3@CBR320kbps
*Size: 72MB

Tracklist:
01. Intro (01:12)
02. Thorns (03:59)
03. Night Descends (03:25)
04. In the Garden (04:26)
05. Amor (02:28)
06. Nocturne (02:32)
07. Amid the Stars (03:33)
08. Lily (02:14)
09. Crystal (04:26)
10. Swordsman (02:52)
******************************
Total playing time: 31:07



[more=Extended info][/more]

[more=Technical info]
Input File: 2. Thorns.mp3
Channels : 2
Sample Rate : 44100
Precision : 16-bit
Duration : 00:03:59.56 = 10564552 samples = 17966.9 CDDA sectors
File Size : 9.59M
Bit Rate : 320k
Sample Encoding: MPEG audio (layer I, II or III)
Comments :
Title=Thorns
Artist=Këkht Aräkh
Album=Pale Swordsman
Tracknumber=2
Year=2021

[/more]

Register
(9) judaz, kim666, Krosis, nadin85, rammmirez, rimfrost, technoboy69, varlam4, Wail,
Mar 13 2021, 13:30:04 God's Hate - God's Hate (2021)


*Artist: God's Hate
*Album: God's Hate
*Year: 2021
*Genre: Hardcore
*Country: United States
*Format: mp3@CBR320kbps
*Size: 84MB

Tracklist:
01. Number One 01:27
02. Be Harder 03:29
03. Finish The Job 03:11
04. Six Feet Deep 04:17
05. God's Hate 04:12
06. Eternity Of Hate 04:02
07. Violence Unlimited 03:48
08. The Valley Beyond (818) 03:05
09. War Man 05:29
10. Social Class Warfare 03:37
******************************
Total playing time: 36:37



[more=Extended info][/more]

[more=Technical info]
Input File: 03. Finish the Job.mp3
Channels : 2
Sample Rate : 44100
Precision : 16-bit
Duration : 00:03:11.10 = 8427466 samples = 14332.4 CDDA sectors
File Size : 7.65M
Bit Rate : 320k
Sample Encoding: MPEG audio (layer I, II or III)
Comments :
Title=Finish the Job
Artist=God's Hate
Album=God's Hate
Tracknumber=3

[/more]

Register
(9) DarkHorde, gwar, infiltrator, multizwilling, Olethros, Phlebotomized, sludge666, sunkilmoon, Vitald,
Mar 12 2021, 10:16:38 Autarkh - Form In Motion (2021)


*Artist: Autarkh
*Album: Form In Motion
*Year: 2021
*Genre: Extreme/Modern Metal
*Country: Netherlands
*Format: mp3@CBR320kbps
*Size: 109MB

Tracklist:
01. Primitive Constructs 01:22
02. Turbulence 06:42
03. Cyclic Terror 05:17
04. Impasse 01:50
05. Introspectrum 05:20
06. Lost to Sight 07:39
07. Metacognition 02:47
08. Clouded Aura 07:24
09. Alignment 06:39
10. Zeit Ist Nur Eine Illusion 02:26
******************************
Total playing time: 47:26



[more=Extended info][/more]

[more=Technical info]
Input File: 02. Turbulence.mp3
Channels : 2
Sample Rate : 44100
Precision : 16-bit
Duration : 00:06:42.88 = 17767096 samples = 30216.1 CDDA sectors
File Size : 16.1M
Bit Rate : 320k
Sample Encoding: MPEG audio (layer I, II or III)
Comments :
Title=Turbulence
Artist=Autarkh
Album=Form in Motion
Tracknumber=2
Year=2021

[/more]

Register
(16) as71, Chasm, chipsgott, Hell_Is_Here, infiltrator, Kuratsu, LokoMadriz, metala, Olethros, ovijag, SyncestrA, VALERY, varlam4, wreak, yuratroll, Сварог Барг,
Dec 31 2020, 10:01:23 Gruzja & Neon Scaffold - Konflikt [split] (2020)


*Artist: Gruzja & Neon Scaffold
*Album: Konflikt [split]
*Year: 2020
*Genre: Black Metal | Avant-Garde Metal
*Country: Poland | Russian Federation
*Format: mp3@CBR320kbps
*Size: 79MB

Tracklist:
Gruzja:
1. Geograf 04:38
2. Gruz 2020 02:50
3. Tragedia w kraju magnolii 04:36
4. Spacer na wschód 04:09
Neon Scaffold:
5. Obsession - 13.7412089, 100.55344105 02:33
6. Либидо - C9H13N 03:46
7. ЧСС 06:05
8. Неоновый эшафот 06:09
******************************
Total playing time: 34:46




[more=Technical info]
Input File: 03. Gruzja - Tragedia W Kraju Magnolii.mp3
Channels : 2
Sample Rate : 44100
Precision : 16-bit
Duration : 00:00:00.28 = 12128 samples = 20.6259 CDDA sectors
File Size : 11.0M
Bit Rate : 321M
Sample Encoding: MPEG audio (layer I, II or III)
Comments :
Title=Tragedia W Kraju Magnolii
Artist=Gruzja
Album=Konflikt
Tracknumber=3
Year=2020-23-10
Genre=Black Metal

[/more]

Register
(19) aleon, as71, BERZERK, bOOLty, Boozer, DHS, infiltrator, Premature_Devotion, robertho777, Rosen, satanist666, SilentNidhogg, smes, VALERY, varlam4, vasiljev_sergej, Wail, wreak, yuratroll,
Nov 29 2020, 23:25:20 Precaria - Nigraluminiscencia [compilation] (2020)


*Artist: Precaria
*Album: Nigraluminiscencia [compilation]
*Year: 2020
*Genre: Black Metal
*Country: Mexico
*Format: mp3@CBR320kbps
*Size: 120MB

Tracklist:
01. Ritus Primordiales 01:13
02. Ex Abyssia 09:09
03. Traficando los Organos de la Iglesia 08:29
04. La Obra Negra Deicida 06:07
05. Ritus Absconditus 01:18
06. Ex Nigredo 12:06
07. Darkness Is My Light 04:44
08. Heautontimorumenos 08:24
******************************
Total playing time: 51:30

[more=Extended info][/more]

[more=Technical info]
Input File: 03 - Traficando los Organos de la Iglesia.mp3
Channels : 2
Sample Rate : 44100
Precision : 16-bit
Duration : 00:08:29.00 = 22446900 samples = 38175 CDDA sectors
File Size : 20.6M
Bit Rate : 324k
Sample Encoding: MPEG audio (layer I, II or III)
Comments :
Title=Traficando los Organos de la Iglesia
Artist=Precaria
Album=Nigraluminiscencia
Tracknumber=3
Year=2020-27-11

[/more]

Register
(19) 1968_janeart, Hell_Is_Here, infiltrator, kim666, Necromag, Occultas, Olethros, randumbum, robertho777, Rosen, satanist666, SilentNidhogg, skeletron215, VALERY, varlam4, vasiljev_sergej, Wail, wreak, yuratroll,
Nov 29 2020, 23:11:06 Sainte Marie Des Loups - Funérailles De Feu (2020)


*Artist: Sainte Marie Des Loups
*Album: Funérailles De Feu
*Year: 2020
*Genre: Black Metal
*Country: France
*Format: mp3@CBR320kbps
*Size: 88MB

Tracklist:
01. Anciens serpents 04:20
02. Meurtrières 04:59
03. Funérailles de feu 06:20
04. Dans les yeux de Méduse 04:12
05. Interdit et oublié 04:50
06. Des profondeurs le silence 07:21
07. Visions 06:22
******************************
Total playing time: 38:24

[more=Extended info][/more]

[more=Technical info]
Input File: 3. Funérailles de feu.mp3
Channels : 2
Sample Rate : 44100
Precision : 16-bit
Duration : 00:06:20.89 = 16797205 samples = 28566.7 CDDA sectors
File Size : 15.3M
Bit Rate : 321k
Sample Encoding: MPEG audio (layer I, II or III)
Comments :
Title=Funérailles de feu
Artist=Sainte Marie des Loups
Album=Funérailles de feu
Tracknumber=3
Year=2020

[/more]

Register
(34) 1968_janeart, acerbus, Alexis The Best, AlexSmith, babanguida, Boozer, deadterror, El_Chibo, grimoir, Hell_Is_Here, Ildjarn, infiltrator, multizwilling, nemx, NorthernResistance, noxspiritus, Olethros, pahail, Pornokrator, randumbum, Richard7293, robertho777, Rosen, satanist666, SilentNidhogg, smes, stub888, thenecromancer, VALERY, varlam4, vasiljev_sergej, Wail, wreak, Авел,
Nov 29 2020, 09:31:11 Toul En Ihuern - Me Oar (2020)


*Artist: Toul En Ihuern
*Album: Me Oar
*Year: 2020
*Genre: Atmospheric Black Metal
*Country: France
*Format: mp3@CBR320kbps
*Size: 84MB

Tracklist:
01. Daeroù an Eñvor 5:21
02. Berr Warnañ 6:54
03. Shahmaran 5:12
04. Liberketî 6:37
05. Tirsnak 4:44
06. Me Oar 6:33
07. Outro 1:52
******************************
Total playing time: 37:13

[more=Extended info]
[/more]

[more=Technical info]
Input File: 2. Berr Warnañ.mp3
Channels : 2
Sample Rate : 44100
Precision : 16-bit
Duration : 00:00:00.41 = 18257 samples = 31.0493 CDDA sectors
File Size : 16.6M
Bit Rate : 321M
Sample Encoding: MPEG audio (layer I, II or III)
Comments :
Title=Berr Warnañ
Artist=Toul En Ihuern
Album=Me Oar
Tracknumber=2
Year=2020-25-11
Genre=Atmospheric Black Metal

[/more]

Register
(28) 1968_janeart, Bloodn Lord, El_Chibo, infiltrator, kim666, LEGION69, metala, metaljosue, Moonshtook, Morgoth, multizwilling, murian, Olethros, Ostinato, randumbum, robertho777, Rosen, satanist666, sergsazan, SilentNidhogg, socrates9, stone88, The_Hound, VALERY, varlam4, vasiljev_sergej, Wail, wreak,
Nov 27 2020, 13:55:34 Paysage D'hiver - Im Traum [ep] (2020)
Register
(14) Constantinus I, doomisdoom, Evilded, infiltrator, Krosis, Lucju, MetalAreola, nemx, Occultas, Olethros, sonicavocado, thenecromancer, vasiljev_sergej, wtk.412,
Nov 27 2020, 11:19:29 Mork - Pesta [ep] (2020)


*Artist: Mork
*Album: Pesta [ep]
*Year: 2020
*Genre: Black Metal
*Country: Norway
*Format: mp3@CBR320kbps
*Size: 48MB

Tracklist:
1. Pesta (7:10)
2. Valen (3:40)
3. En sti inn i Remmendalen (Live) (4:55)
4. I Hornenes Bilde (Live) (5:33)
******************************
Total playing time: 21:18

[more=Extended info][/more]

[more=Technical info]
Input File: 2. Valen.mp3
Channels : 2
Sample Rate : 44100
Precision : 16-bit
Duration : 00:00:00.22 = 9702 samples = 16.5 CDDA sectors
File Size : 8.86M
Bit Rate : 322M
Sample Encoding: MPEG audio (layer I, II or III)
Comments :
Title=Valen
Artist=Mork
Album=Pesta
Tracknumber=2
Year=2020-27-11
Genre=Black Metal

[/more]

Register
(53) 1968_janeart, andivi, BERZERK, BlaspherionFLUL, boby9052, Bulldozzzzzzer, Bzth, cancer1974, El_Chibo, garml2, gena, ger_man_thorn, hellbibber, Hell_Is_Here, infiltrator, Kazoth, kim666, kryptor, maochen, Marek, Moonshtook, nadin85, noxspiritus, nsk2008, older68, Olethros, Ostinato, peppuzzo, randumbum, rimfrost, ripper33, robertho777, Rosen, satanist666, SilentNidhogg, Sjelekval, smes, Storky, stub888, supremo, symphonicadiction, THROWER666, Tino, VALERY, varlam4, vasiljev_sergej, Vidder242, Vidyadharov, Wail, wreak, xska, yuratroll, ZA670,
Nov 27 2020, 10:22:37 Paysage D'hiver - Im Traum [ep] (2020)


*Artist: Paysage D'hiver
*Album: Im Traum [ep]
*Year: 2020
*Genre: Black Metal/Ambient
*Country: Switzerland
*Format: mp3@CBR320kbps
*Size: 58MB

Tracklist:
1. Dans le rêve lucide 12:41
2. Im Kälteschauer 12:54
******************************
Total playing time: 25:35

[more=Extended info][/more]

[more=Technical info]
Input File: 2. Im Kälteschauer.mp3
Channels : 2
Sample Rate : 44100
Precision : 16-bit
Duration : 00:00:00.77 = 34133 samples = 58.0493 CDDA sectors
File Size : 31.1M
Bit Rate : 321M
Sample Encoding: MPEG audio (layer I, II or III)
Comments :
Title=Im Kälteschauer
Artist=Paysage D'hiver
Album=Im Traum
Tracknumber=2
Year=2020-27-11
Genre=Atmospheric Black Metal

[/more]

Register
(52) A.L.Rapsod, acerbus, Antichrist, BERZERK, Blast, boby9052, canadaspaceman, cancer1974, Chasm, Constantinus I, El_Chibo, ent404, Femto, fishish, gena, Haunting, Hipgnosis, infiltrator, kefka, kim666, kimkayoung, korovakaska, Lanceatum, Leolomb, Luminous, Metalass, Moonshtook, NappyRob, nemx, nikolay81, Occultas, Olethros, Panacea, rammmirez, recber, Rikardo90, robertho777, Rosen, squall8fr, stormhatt, TAKATAEL, Tarkron, The_Hound, trabantfan, VALERY, varlam4, Wail, Wilczygniew Strzygoń, wreak, Yorker, ZambuL, zuiozuio,
Nov 27 2020, 10:06:38 Bather - Phantom Guilt [ep] (2020)


*Artist: Bather
*Album: Phantom Guilt [ep]
*Year: 2020
*Genre: Black/Death Metal
*Country: United States
*Format: mp3@CBR320kbps
*Size: 42MB

Tracklist:
1. Suffer More 4:14
2. Slow Death 6:08
3. Days of Torture 3:52
4. Phantom Guilt 4:25
******************************
Total playing time: 18:39

[more=Extended info]
[/more]

[more=Technical info]
Input File: 2. Slow Death.mp3
Channels : 2
Sample Rate : 44100
Precision : 16-bit
Duration : 00:00:00.37 = 16185 samples = 27.5255 CDDA sectors
File Size : 14.8M
Bit Rate : 322M
Sample Encoding: MPEG audio (layer I, II or III)
Comments :
Title=Slow Death
Artist=Bather
Album=Phantom Guilt
Tracknumber=2
Year=2020-27-11
Genre=Black Metal

[/more]

Register
(17) infiltrator, Marek, METALHUNTER, Morgoth, Occultas, Olethros, randumbum, Rosen, satanist666, SilentNidhogg, sludge666, TeamatSE, VALERY, varlam4, Wail, wanderer73, wreak,
Nov 19 2020, 12:02:44 Orbit Culture - Nija (2020)
Шведы могут в кач и мелодику, хороший альбом
(1) BleedingSun,

2 Pages V   1 2 >
- Lo-Fi Version Support form
Copyrights and abuse reports form
Time is now: 29th January 2022 - 08:05:08