Welcome Guest ( Log In | Register )

История благодарностей участнику rimfrost ::: Спасибо сказали: 8453 раз(а)
Дата поста: В теме: За сообщение: Спасибо сказали:
Feb 19 2024, 15:41:27 Новости Black-направления
Bethlehem Official

Sorry guys, we completely neglected this profile and got caught up in the confusion of social networks instead of concentrating on the essentials: the music and only that. This will be done in 2024 so that we can release a new album by 2025 at the latest. The wait is worth it. Promised ! And yes, it's the same line-up as on the "Lebe dich leer" album. Nothing will change, the occupation carousel is a thing of the past.
Hugs - Bethlehem



(1) Occultas,
Feb 13 2024, 15:37:24 Новости Black-направления
Corpus Diavolis - Chalice of Fornication (Official Music Video)

[youtube]MYoCpcFIBMg[/youtube]

(2) Occultas, tiptoer,
Feb 13 2024, 08:11:35 Новости Black-направления
Финны ONDFØDT анонсировали выход новой епишки Oldfodt

Премьерный трек

[youtube]DtG266J4A4c[/youtube]

(4) Occultas, sabr, thenecromancer, tiptoer,
Feb 12 2024, 10:46:39 Новости Black-направления
Pyra - Summit of Existence (Official Music Video)

[youtube]BSw8vSqGKEw[/youtube]

(1) Chasm,
Feb 10 2024, 16:01:51 Новости Black-направления
Нидерланцы Beenkerver анонсировалм выход нового альбома De rode weduwe

Премьерный трек

[youtube]k9R8NZCPw0g[/youtube]


(2) sabr, suseka,
Feb 10 2024, 15:40:31 Herfstdood - Lijdensweg (2024)
[youtube]ls_BVtp2Z7E[/youtube]
(1) Condehate,
Feb 8 2024, 17:14:28 Новости Black-направления
Новый финский проект Night Shall Drape Us записал дебютный альбом Lunatic Choir

Премьерный трек

[youtube]QoKg28Yy0H4[/youtube]

(1) sabr,
Feb 6 2024, 15:18:05 Thorybos - Raging Boars And Temple Whores [compilation] (2015)
ЦИТАТА(Occultas @ Feb 6 2024, 15:27:06) *
https://metalarea.org/images/audiocovers/20...92063_thumb.jpg

*Artist: Thorybos
*Album: Raging Boars And Temple Whores [compilation]
*Year: 2015
*Genre: Black/Death Metal
*Country: Germany https://metalarea.org/forum/style_images/flags/Germany.png
*Format: mp3@CBR320kbps
*Size: 85MB

Tracklist:
1. Raging Swine Of Kalydon 03:23
2. Von (Von Cover) 02:11
3. Temple Prostitution At Nisa 05:55
4. Monuments Of Doom Revealed 02:47
5. Atomic Nuclear Desolation (Blasphemy Cover) 00:22
6. White Skulls 03:21
7. War Command (Blasphemy Cover) 00:35
8. The Black Grail Of Putrescence 02:40
9. Command Of The Iron Baphomet (Black Witchery Cover) 02:59
10. Hard Candy Cock (GG Allin Cover) 01:44
11. Monuments Of Doom Revealed (Live) 03:04
12. Orgiastic Rites Of Bacchanalia (Live) 03:43
13. Bite It You Scum (Live) (GG Allin Cover) 02:27
14. Die When You Die (Live) (GG Allin Cover) 01:43
******************************
Total playing time: 36:54



[more=Extended info]reissue 2018[/more]

[more=Technical info] https://metalarea.org/images/spectrogram/20...96daab697cb.png
Input File: 02. Von (Von Cover).mp3
Channels : 2
Sample Rate : 44100
Precision : 16-bit
Duration : 00:02:11.22 = 5786802 samples = 9841.5 CDDA sectors
File Size : 5.25M
Bit Rate : 320k
Sample Encoding: MPEG audio (layer I, II or III)

[/more]

Она из лучших команд в блек дезе немчури . был почти на первом их выступлении на дезкульте в 2011 , некогда не забуду , они выступали первые , ну типа ноунеймы , когда начали играть , почти весь фестиваль сразу поднянулся , ну реально было откровение . Реально , тогда они разбудили фестиваль . и тогда многие типа корефеев сидели за сценой ну и похмелялись , все сорвались и рубились под них . Эх же были времена !
(2) Occultas, sacrut,
Feb 3 2024, 15:21:16 Новости Black-направления
Pestilential Shadows - Armour Satanised (New Track)

[youtube]b6KsI73ECio[/youtube]

(3) Chasm, Kurhan, suseka,
Jan 29 2024, 17:17:51 Lamentable - Nostalgie D'un Temps R​é​volu [ep] (2024)
Чепуха не о чём .
(1) Ildjarn,
Jan 28 2024, 10:35:56 Astral Fortress - Visions Of A New Beginning (2024)


*Artist: Astral Fortress
*Album: Visions Of A New Beginning
*Year: 2024
*Genre: Black Metal
*Country: United States
*Format: flac
*Size: 168MB

Tracklist:
1. Celestial Whispers (Intro) 02:16
2. Distant Memories of a Happier Life 04:13
3. I Weep for the Stars 05:32
4. Eternal Grief 05:27
5. Beyond the Mystical Doors 04:55
6. Visions of a New Beginning 04:32
7. My Spirit Died with You 05:07
8. A Farewell to Humanity (Outro) 02:24
******************************
Total playing time: 34:26



[more=Technical info]
Input File: Astral Fortress - Visions Of A New Beginning - 03 I Weep For The Stars.flac
Channels : 2
Sample Rate : 44100
Precision : 16-bit
Duration : 00:05:32.90 = 14681088 samples = 24967.8 CDDA sectors
File Size : 25.2M
Bit Rate : 605k
Sample Encoding: 16-bit FLAC
Comments :
TITLE=I Weep For The Stars
ARTIST=Astral Fortress
DATE=2024
COMMENT=Visit https://astralfortress.bandcamp.com
ALBUM=Visions Of A New Beginning
TRACKNUMBER=3
ALBUMARTIST=Astral Fortress

[/more]

Register
(5) AndreFrancis, Carcharoth, kim666, LiarOfAngmar, vasiljev_sergej,
Jan 27 2024, 14:14:20 Mistmoor - Through Endless Forests (2023)


*Artist: Mistmoor
*Album: Through Endless Forests
*Year: 2023
*Genre: Black Metal
*Country: Finland
*Format: mp3@CBR320kbps
*Size: 82MB

Tracklist:
1. The Vast Midnight Skies 19:31
2. The Mountains and Valleys 16:10
******************************
Total playing time: 35:41



[more=Technical info]
Input File: 02 - The Mountains and Valleys.mp3
Channels : 2
Sample Rate : 48000
Precision : 16-bit
Duration : 00:16:10.68 = 46592784 samples ~ 72801.2 CDDA sectors
File Size : 39.2M
Bit Rate : 323k
Sample Encoding: MPEG audio (layer I, II or III)
Comments :
Title=The Mountains and Valleys
Artist=Mistmoor
Album=Through Endless Forests
Tracknumber=2
Year=2023
Genre=Black Metal

[/more]

Register
(6) Carcharoth, kim666, SilentNidhogg, stub888, vasiljev_sergej, Wail,
Jan 27 2024, 09:26:10 Bokkerijders - Silver Dust And Swords Of Gold [ep] (2023)


*Artist: Bokkerijders
*Album: Silver Dust And Swords Of Gold [ep]
*Year: 2023
*Genre: Black Metal
*Country: Belgium
*Format: mp3@CBR320kbps
*Size: 39MB

Tracklist:
1. Silver Dust 09:10
2. Swords of Gold 07:49
******************************
Total playing time: 16:59



[more=Technical info]
Input File: 02 - Bokkerijders - Swords of Gold.mp3
Channels : 2
Sample Rate : 44100
Precision : 16-bit
Duration : 00:07:49.08 = 20686428 samples = 35181 CDDA sectors
File Size : 18.9M
Bit Rate : 322k
Sample Encoding: MPEG audio (layer I, II or III)
Comments :
Title=Swords of Gold
Artist=Bokkerijders
Album=Silver Dust and Swords of Gold
Tracknumber=2/2
Year=2023
Genre=Black / Thrash Metal

[/more]

Register
(17) Altkiller, artscald, Carcharoth, dermarsoran, Grev, Ildjarn, IncendiaryMight, kim666, metaljosue, rammmirez, SilentNidhogg, smysl, VALERY, vasiljev_sergej, Wail, Weikai, wreak,
Jan 24 2024, 13:41:20 Новости Black-направления
Funeral Winds - 333 (Full Album Premiere)

[youtube]kgczCVm3EoA[/youtube]

(4) Antichrist, Hihimars, Infidel, sabr,
Jan 13 2024, 16:23:37 Новости Black-направления
Curse Upon A Prayer - Ortopraxia (Track Premiere)

[youtube]cHwCNhONJFI[/youtube]



(2) azarath111, Occultas,
Jan 13 2024, 12:06:55 Lethal Dogma - Hostis Humanis Generis (2023)


*Artist: Lethal Dogma
*Album: Hostis Humanis Generis
*Year: 2023
*Genre: Raw Black Metal/Ambient
*Country: International
*Format: mp3@CBR320kbps
*Size: 91MB

Tracklist:
1. L'aube affaiblie (Offertoire) 00:57 instrumental
2. Témoin de la chute 05:54
3. Obscurantisme mortifère 04:40
4. Intermède I: Transfiguration 02:43 instrumental
5. Hostis Humani Generis 06:47
6. Un empire de ruines 05:51
7. Intermède II: ǝןqᴉsɹǝʌǝɹɹI 01:36 instrumental
8. Action de disgrâce 09:05
9. Au fond du verre (Blood Axis & Les Joyaux de la Princesse cover) 01:49
******************************
Total playing time: 39:22



[more=Extended info]France / Belgium[/more]

[more=Technical info]
Input File: Lethal Dogma - Hostis Humani Generis - 02 Témoin de la chute.mp3
Channels : 2
Sample Rate : 44100
Precision : 16-bit
Duration : 00:05:54.08 = 15615060 samples = 26556.2 CDDA sectors
File Size : 14.2M
Bit Rate : 321k
Sample Encoding: MPEG audio (layer I, II or III)
Comments :
Title=Témoin de la chute
Artist=Lethal Dogma
Album=Hostis Humani Generis
Tracknumber=2
Year=2023

[/more]

Register
(11) AlexSmith, artscald, Carcharoth, Grev, kim666, SilentNidhogg, stormhatt, supremo, vasiljev_sergej, Weikai, wreak,
Jan 12 2024, 12:05:56 Darghl - Trivmph Ov Fire (2024)
[youtube]ZmU5Ho2DUg8[/youtube]
(1) mishasha,
Jan 11 2024, 13:36:15 Llyr - Through Blood And Fire Where Chaos Reigns [demo] (2023)


*Artist: Llyr
*Album: Through Blood And Fire Where Chaos Reigns [demo]
*Year: 2023
*Genre: Black Metal
*Country: Canada
*Format: mp3@CBR320kbps
*Size: 55MB

Tracklist:
1. Beneath the Blackened Sky 06:04
2. In Damnations Embrace 07:17
3. Through Blood and Fire... 01:20
4. ...Where Chaos Reigns 09:03
******************************
Total playing time: 23:44



[more=Technical info]
Input File: LLYR - Through Blood And Fire Where Chaos Reigns - 01 Beneath The Blackened Sky.mp3
Channels : 2
Sample Rate : 44100
Precision : 16-bit
Duration : 00:06:04.22 = 16062058 samples = 27316.4 CDDA sectors
File Size : 14.6M
Bit Rate : 322k
Sample Encoding: MPEG audio (layer I, II or III)
Comments :
Title=Beneath The Blackened Sky
Artist=LLYR
Album=Through Blood And Fire Where Chaos Reigns
Tracknumber=1
Year=2023

[/more]

Register
(8) artscald, kim666, murian, SilentNidhogg, VALERY, vasiljev_sergej, vovenom, wreak,
Jan 9 2024, 20:10:12 Новости Black-направления
Австралийцы Austere анонсировали выход нового альбома Beneath the Threshold

Ковер



Премьерный трек

[youtube]NnIW-h65jeM[/youtube]

(3) Occultas, suseka, tiptoer,
Jan 9 2024, 14:06:46 Новости Black-направления
Шведы Dödsrit анонсировали выход нового альбома "Nocturnal Will".

Ковер



Премьерный трек

[youtube]1QkODSIO_nw[/youtube]

(3) SS2998, suseka, thenecromancer,
Jan 8 2024, 13:05:21 Top of the pops 2023 (Black metal)
Hammer (FIN) - Clandestine Operations_2023
Krigstjørn - Mod Guders Svig (2023)
Unfelled - Pall of Endless Perdition_2023
Funeral Winds - Stigmata Mali_2023
Horda - Form (2023)
Bonjour Tristesse - Against Leviathan_2023
Moonreich - Amer_2023
Sieluhaaska - Kun Aurinkoni Kuoli (EP) (2023)
Iczhihal - Unctus Diaboli (Demo)_2023
Helleruin - Devils, Death and Dark Arts 2023
Kaevum - Kultur 2023
Ondfodt - Det Osterbottniska Morkret (2023)
Nattverd - I Helvetes Forakt_2023
Austere - Corrosion Of Hearts_2023
Finnwolf - Kun Viimeinen Lehti Putoaa_2023
Conjuring - Vis Naturae 2023
Blackbraid - Blackbraid II 2023
Ene - Et Alter Av Forakt 2023
Ekrom - Uten N​å​digst Formildelse (2023)
Miserere Luminis - Ordalie (2023)
Dirlewangr - From The Depths......Of Agartha [EP]_2023
Bootes Void - Singularity 2023
Clandestine Blaze - Resacralize the Unknown 2023
Endstille - Detonation_2023
Trest - Sorginak_2023
Primordial Serpent - Enlightenment Through Impurity_2023
Malum (Nor) - In Nauseam (2023)
Taubra - Therizo 2023
Nöldr - Chaotic Mysticism From The Tormented Silence (2023)
Begotten - To The Dreary End (2023)
Diaboli 2023 - Ancient Worship (EP)
Korgonthurus — Jumalhaaska (2023)
Nornir - Skuld_2023
RuYYn - Chapter II The Flames, The Fallen, The Fury_2023
Bloedmaan - Castle Inside the Eclipse_2023
Gosforth - Scourge of Dark Dominion (2023)
Totenburg / Order Of The White Hand / Heldenasche "Im Kampf Vereint" (Split) (2023)
Arbor - Behold... the Age of Pagan Blood_2023
(4) Mencae77, metaljosue, Occultas, tiptoer,
Jan 6 2024, 18:00:06 Acte Profane - La Grande Chevauch​é​e (2023)
[youtube]LML8bgWbia8[/youtube]
(1) Bannanik,
Jan 5 2024, 09:39:02 Новости Black-направления
Норвеги KHOLD анонсировали на этот год , выход нового альбома.



(3) Antichrist, Infidel, Occultas,
Jan 4 2024, 12:38:49 Новости Black-направления
Премьерный трек от FUNERAL WINDS c предстоящего релиза "333".

[youtube]zcYOKEct_jg[/youtube]

(5) Antichrist, Bzth, energo68, Frostbittenvova, thenecromancer,
Dec 30 2023, 13:40:25 Новости Black-направления
Анонсы от Shatraug на следующий год

Onwards to 2024 with new Horna and celebrating 30 years since I started the band, new Sargeist album, new Mortualia album, original material for Anima Bestia, new Doedsvangr album and plenty more, even I can't say which ideas take root and which do not...



(6) acerbus, Antichrist, Occultas, sabr, Strid, suseka,

65 Pages V   1 2 3 > » 
- Lo-Fi Version Support form
Copyrights and abuse reports form
Time is now: 24th February 2024 - 10:34:56