Welcome Guest ( Log In | Register )

История благодарностей участнику rimfrost ::: Спасибо сказали: 7285 раз(а)
Дата поста: В теме: За сообщение: Спасибо сказали:
Today, 12:29:48 Fell Deeds - Fell Deeds (2022)
[youtube]ksNSOrVD5Ts[/youtube]
(1) rominow,
Yesterday, 19:18:21 Новости Black-направления
Chaos Invocation - Strike Of The Dominator's Fist [Track Premiere, 2022]

Listen to "Strike Of The Dominator's Fist", hailing from Chaos Invocation's upcoming, fourth album, "Devil, Stone & Man", set for release on March 24, 2022.

[youtube]WimYsOgr0zA[/youtube]

(3) Antichrist, babanguida, MorsPulchra,
Jan 26 2022, 21:02:24 Erz - Erz (2021)
ЦИТАТА(wolfskaiser @ Jan 26 2022, 16:56:27) *
Воланд, ты бы завязывал лучше писать с левых акков.

Ты чо на приколе , я и есть я , я тут почти с начала этого форума . И не имею как тут некоторые по два и более аккаунтов .
(3) Samaritianin, suseka, WOLAND,
Jan 26 2022, 11:03:18 Erz - Erz (2021)
ЦИТАТА(wolfskaiser @ Jan 25 2022, 11:33:34) *
Сильно не радуйся, это ютубе рип, а значит качество 128. А самарик наверное еще назвиздел что купил его 21.gif

да как то пох , надоело гонять сей релиз на ютубе , и на ютубе он звучит реально по лучше , тут басов почти нет , а на ютубе более как то объёмистей . Реально не с ютуба . да и самамаритятину ну прям больше нечем занятьсяь , только сидеть и нарезать тут рипы . Вот смысл ??? Обоснуй ! и вообще , тут выкладывают нормальные пацаны , для ознакомления , и потом для решения вопроса , брать его в дальнейшем в коллекция , или не соит . Приветствую эти вариант . И по барабану в каком качесве , ты должен послушать и поддержать деньгиами , купив или нет диск . Даавно прошли те годы , когда на болванки писали все и вся , и кручали на всех углах про миллион мп3 в коллекции . Завязывай уже гнобить самаритянана , он где нашёл , сюда принёс , чтоб люди ознакомились . Чисто пох в каком качестве , я послушал и решил , в дальнейшем буду приобритать сей сидюк или нахел он мне нужен . Завязывай скулить .
(4) sabr, Samaritianin, suseka, WOLAND,
Jan 25 2022, 13:45:17 Nehëmah - ...Of Rituals And Ancient Spells [compilation] (2021)
ЦИТАТА(Strid @ Jan 25 2022, 06:58:32) *
Хоть и незначительные, но всё-таки шевеления под вывеской Nehemah это всегда хорошо. Так мысль и до реюниона дойти может, с учётом того, что Corven по прежнему активен на музыкальной сцене.

Как не жаль парни , я держу связь с гитаристом соргалом , реюниона группы не будет . ОООчень жаль , корвен в последнюю встречу говорил , что у него есть на полный альбом материала . Но из бывших мемберов команды не кто не хочет заморачиваитьься . Хотят остаться легендами . ОООчень жаль конечно . Ну есть маленькая надежда , что корвен наберёт новый состав , но пока про это даже нет намёка . Ну как говоритись чем чёрт не шутит .
(8) Hexer, M8R8K, Occultas, rominow, sacrut, Strid, suseka, WOLAND,
Jan 25 2022, 09:54:56 Erz - Erz (2021)
Отменный релиз ! Ждал !

[youtube]5gpe7pN09bc[/youtube]

(1) Samaritianin,
Jan 24 2022, 18:28:55 Vicarivs Filii Dei - Intra Ecclesiam Salus Non Est (2020)


*Artist: Vicarivs Filii Dei
*Album: Intra Ecclesiam Salus Non Est
*Year: 2020
*Genre: Black Metal
*Country: Austria
*Format: mp3@CBR320kbps
*Size: 83MB

Tracklist:
1. Der letzte Gottesdienst 04:19
2. Die Engel des Teufels 07:24
3. Unkirchliche Sakramente 06:41
4. Vernichtung des Reiches Gottes 07:58
5. Die Arche des Unheils 04:12
6. Der verkehrte Kreuzzug 09:18
******************************
Total playing time: 39:52

[more=Extended info]Проект лидера команды Totale Vernichtung.[/more]

[more=Technical info]
Input File: 03. unkirchliche sakramente.mp3
Channels : 2
Sample Rate : 44100
Precision : 16-bit
Duration : 00:06:42.73 = 17760481 samples = 30204.9 CDDA sectors
File Size : 16.6M
Bit Rate : 330k
Sample Encoding: MPEG audio (layer I, II or III)
Comments :
Title=Unkirchliche Sakramente
Artist=Vicarivs Filii Dei
Album=Intra Ecclesiam Salus Non Est
Tracknumber=3
Year=2020
Genre=Black Metal
Discnumber=1

[/more]

Register
(11) artscald, caro, dcatagua, Kaotik, kim666, murian, stormhatt, suseka, VALERY, varlam4, vasiljev_sergej,
Jan 24 2022, 16:57:28 Gauntlet Ring - As Far As Light Will Die [demo] (2020)


*Artist: Gauntlet Ring
*Album: As Far As Light Will Die [demo]
*Year: 2020
*Genre: Black Metal
*Country: United States
*Format: mp3@CBR192kbps
*Size: 41MB

Tracklist:
1. Waves of Blackest Misery 02:23
2. Lifeless Agony 02:55
3. Iron Cage 03:53
4. Nacht und Abend 04:07
5. As Far as Light Will Die 01:47
6. Existence Is Futile 03:15
7. Nights of Blood and Fog 03:51
8. Purifying Flame 03:17
9. Outro 01:48
******************************
Total playing time: 27:16

[more=Extended info]Label:
Independent
Format:
Cassette
Limitation:
50 copies[/more]

[more=Technical info]
Input File: 03 Iron Cage.mp3
Channels : 2
Sample Rate : 44100
Precision : 16-bit
Duration : 00:03:53.13 = 10281209 samples = 17485 CDDA sectors
File Size : 6.02M
Bit Rate : 206k
Sample Encoding: MPEG audio (layer I, II or III)
Comments :
Title=Iron Cage
Artist=Gauntlet Ring
Album=As Far As Light Will Die
Tracknumber=3

[/more]

Register
(7) artscald, caro, Hexer, kim666, Krosis, stormhatt, vasiljev_sergej,
Jan 24 2022, 13:07:29 Новости Black-направления
TDR is proud to announce the deal with the Swedish BM horde AVSKY. They return with “Sjukdom Och Död”. four powerful and raw tracks of pure and evil Black Metal.
Out in March/22

[youtube]7j7zu3BAT6Q[/youtube]

(3) Antichrist, babanguida, Chasm,
Jan 23 2022, 19:01:52 Новости Black-направления
Serpent Noir / Sargeist - Transcendental Black Magic [Full Album]

Full stream of "Transcendental Black Magic", which is not just another split album, but a self-contained, collaboration of Serpent Noir & Sargeist.

[youtube]7IEsIbrZH-A[/youtube]

(7) AnthonyHipHopkins, Antichrist, Bzth, Hexer, MorsPulchra, sabr, suseka,
Jan 20 2022, 13:19:37 Trest - Ordalium (2019)
Отменный релиз !
(1) Occultas,
Jan 19 2022, 16:29:15 Новости Black-направления
Французы HELL MILITIA анонсировали новый альбом 'Hollow Void'.

Премьерный трек

[youtube]00UAkQq2SgQ[/youtube]

(13) acerbus, Antichrist, babanguida, biroutios, Chasm, CryptOn, energo68, FullofHate, Hexer, Nerevar, Occultas, Qliphoth, Unknown,
Jan 17 2022, 17:34:59 Новости Black-направления
Nihil Invocation “The Chaos of Our Lost and Evil Souls” LP/MC



(1) Hexer,
Jan 17 2022, 15:07:12 Новости Black-направления
Новости от шведов CRAFT с оффициальной странице в пейсбуке

As we turn our back to another worthless year, we feel somewhat compelled to actually speak of what is coming:
A new album is being written.
More shows are already booked.
New merchandise will be released.
You have been warned.
(5) Antichrist, Occultas, thenecromancer, tormoz, Vidyadharov,
Jan 17 2022, 11:20:27 Новости Black-направления
Немцы Anachoret анонсировали выход нового альбома Syndrom

Премьерный трек . Отменно !

[youtube]Kx_DUdPXqj4[/youtube]

(1) sabr,
Jan 15 2022, 12:45:10 Consummatio - Desaevio (2022)
По премьерному треку , очень даже не плохо .

[youtube]9C9dpao7saU[/youtube]
(2) NOMIDIMON, Occultas,
Jan 15 2022, 09:58:31 Tyhjä - Valtakunta (2022)
Register
(2) andivi, SilentNidhogg,
Jan 15 2022, 09:39:06 Vaino - Metsänpeitto (2022)
[youtube]qP0PmK_RkT4[/youtube]
(1) rominow,
Jan 14 2022, 19:12:19 Новости Black-направления
Немцы Mortuus Infradaemoni анонсировали выход нового альбома Inmortuos Sum

в состав команды входят бывшие музыканты такой команды как Lunar Aurora

Премьерный трек

[youtube]YVnQu-f8-x8[/youtube]

(5) Chasm, energo68, Occultas, sabr, WOLAND,
Jan 14 2022, 09:56:14 Dissociation - Frozen Mournings... (2022)


*Artist: Dissociation
*Album: Frozen Mournings...
*Year: 2022
*Genre: Depressive Black Metal
*Country: France
*Format: mp3@CBR320kbps
*Size: 84MB

Tracklist:
1. Fog Pt. I 06:54
2. Fog Pt. II 05:40
3. A Brighter Place 06:32
4. In the Wake of Winter 07:38
5. A Ghost 09:41
******************************
Total playing time: 36:25



[more=Technical info]
Input File: 02 - Fog, Pt. II.mp3
Channels : 2
Sample Rate : 44100
Precision : 16-bit
Duration : 00:05:40.97 = 15036865 samples = 25572.9 CDDA sectors
File Size : 13.7M
Bit Rate : 321k
Sample Encoding: MPEG audio (layer I, II or III)
Comments :
Title=Fog, Pt. II
Artist=Dissociation
Album=Frozen Mournings...
Tracknumber=2
Year=2022
Genre=Depressive Black Metal

[/more]

Register
(19) aleon, AlexSmith, artscald, autumnwood, caro, dcatagua, infiltrator, kim666, Krosis, metala, Olethros, robertho777, SilentNidhogg, stormhatt, supremo, suseka, VALERY, varlam4, vasiljev_sergej,
Jan 13 2022, 16:10:52 Nocturnal Triumph - Nocturnal Triumph (2022)
[youtube]rsII_COKM6g[/youtube]
(1) rominow,
Jan 10 2022, 09:35:31 Necrophorium - As All Lights Fades Out (2022)
[youtube]_TQ5U8bSVmM[/youtube]

[youtube]1bAzq1rHHLA[/youtube]

(4) aleon, Altkiller, rominow, WOLAND,
Jan 9 2022, 11:40:42 Today Needed
если есть у кого залейте плз !!!

[youtube]5gpe7pN09bc[/youtube]

(1) Occultas,
Jan 7 2022, 15:09:18 Новости Black-направления
новости от шведов AVSKY

Well here´s a new Avsky song for you.
We recorded 4 songs in 2020 - Don't know what will happen to them yet, but here's one of them anyway...

[youtube]7j7zu3BAT6Q[/youtube]

(5) gobblin, Infidel, Occultas, sabr, tormoz,
Jan 7 2022, 09:46:59 Udegste - Drauga [demo] (2021)
The debut of this Dutch act, the same line-up as in Gärgäntuäh.

[youtube]EDMABhm4qNU[/youtube]
(1) Storky,

54 Pages V   1 2 3 > » 
- Lo-Fi Version Support form
Copyrights and abuse reports form
Time is now: 28th January 2022 - 23:28:25