Welcome Guest ( Log In | Register )

Объявления

* gmail.com упорно продолжает считать почту с нас "unsolicited" и отбивает в том числе и письма активации, поэтому просьба использовать альтернативные почтовые ящики.
------------
* gmail.com continues reject all mail from us as "unsolicited" (activation mails too) therefore please use alternate mail servers.
История благодарностей участнику yarrsuaa ::: Спасибо сказали: 1416 раз(а)
Дата поста: В теме: За сообщение: Спасибо сказали:
Today, 07:06:31 Natürgeist - Reinvigorated Terror [demo] (2021)
.
Register
(1) rimfrost,
May 22 2024, 09:16:32 Gorugoth & Infernal Necromancy - Gorugoth / Infernal Necromancy Split-Demo [split] (2000)
Register
(2) Carcharoth, kim666,
Mar 16 2024, 16:48:55 Hatefrost - In The Kingdom Of Deadly Frost (2020)


*Artist: Hatefrost
*Album: In The Kingdom Of Deadly Frost
*Year: 2020
*Genre: Black Metal
*Country: Poland
*Format: mp3@CBR320kbps
*Size: 79MB

Tracklist:
1. Prelude to the Dark Abyss 02:12
2. In the Kingdom of Deadly Frost 06:10
3. Unholy Blizzard 05:26
4. The Forgotten Frozen Forest 07:27
5. Eternal Triumph of Death 05:19
6. Spirits in Shadow 06:29
7. End of Prelude 01:30
******************************
Total playing time: 34:33

[more=Technical info]
Input File: 05 - Eternal Triumph of Death.mp3
Channels : 2
Sample Rate : 44100
Precision : 16-bit
Duration : 00:05:19.08 = 14071428 samples = 23931 CDDA sectors
File Size : 12.8M
Bit Rate : 320k
Sample Encoding: MPEG audio (layer I, II or III)
Comments :
Title=Eternal Triumph of Death
Artist=Hatefrost
Album=In the Kingdom of Deadly Frost
Tracknumber=5
Year=2020
Genre=Black Metal

[/more]

Register
(17) aleon, AlexSmith, artscald, dermarsoran, Grev, Ildjarn, kim666, Korpse, Sergey, SilentNidhogg, smysl, Strid, supremo, VALERY, vasiljev_sergej, vovenom, wreak,
Mar 11 2024, 07:30:58 Gnome - Silent Scream [best of/compilation] (2012)
pray.gif
Register
(1) Wail,
Feb 3 2024, 07:26:08 Why so many 320 mp3 releases?
ЦИТАТА(hrsurvives @ Feb 2 2024, 20:12:55) *
MP3s are compressed, lossy audio and is the format available on most streaming services.

Those services provide only poor 128 kbit for free.

Also, contrary to popular "audiophile" claims, there are basically NO benefits from using lossless as far as music playback quality is concerned, while file size difference is huge.
(2) Genuine Thrashiac, ingram,
Jan 16 2024, 19:25:52 Dimmu Borgir - Rehearsal 17.01.1994 [demo] (1994)
^
It appears that 6th untitled track is a very rough version of "For All Tid"
(1) thenecromancer,
Jan 3 2024, 18:05:58 Butterfly Temple - Голос Крови [demo] (1998)
11 tracks
Register
(2) thenecromancer, Сварог Барг,
Dec 13 2023, 03:05:23 Vargrav - The Nighthold (2023)
ЦИТАТА
v-Khaoz Keyboards
Werwolf- Vocals
Trollhorn Guitars, Bass
драммер из Moonsorrow Drums

Mastered at Finnvox Studios


pray.gif pray.gif pray.gif 20.gif
(1) Hexenmeister,
Dec 8 2023, 02:37:26 Garden Of Sadness - But Always Delusion [demo] (2003)
free 320/flac at
Register
(3) aleon, kim666, thenecromancer,
Dec 4 2023, 21:26:08 Янтарные Слёзы - Ключ К Декабрю (2010)
.
Register
(1) Wail,
Nov 12 2023, 08:25:26 Cliteater - Clit 'em All (2003)
.
Register
(3) Mucupurulence, philfoden, wreak,
Oct 17 2023, 16:51:29 Wolven Ancestry - Silence Of The Boreal (2009)
320
Register
(1) Sergey,
Oct 17 2023, 16:14:52 Wolven Ancestry - The Wrath Of Gaia (2006)
vbr
Register
(3) Korpse, Sergey, Strid,
Oct 15 2023, 16:02:11 Hån - Conquering Magnificent Halls (2023)
ЦИТАТА(Femto @ Oct 15 2023, 09:43:31) *
All links are dead, can someone re-up please? pray.gif

.
Register
(9) AceQuorthon, BrainW1, Emhyr var Emreis, Femto, heavymetalhead, sabr, satanist666, Strid, varlam4,
Oct 9 2023, 20:41:14 The Demiurgkh - Infernal Majesty [ep] (2023)


*Artist: The Demiurgkh
*Album: Infernal Majesty [ep]
*Year: 2023
*Genre: Black Metal
*Country: Ukraine
*Format: mp3@CBR320kbps
*Size: 22MB

Tracklist:
1. Intro: Possessed 01:32
2. Infernal Majesty 02:47
3. My Master Satan 02:05
4. Lord of the Night 02:51
******************************
Total playing time: 9:15



[more=Extended info]The DEMIURGKH is:

He, Who Pray The Devil
- All Demonic Voices & Possessed Vocals, Unholy Guitars, Diabolical Bass

She, Who Summon The Demons
- Drums & Percussion of Lust

All tracks recorded in the depth of Terror studio, during blasphemous nights of Spring - Summer MMXXlll a.y.p.s.

[/more]

[more=Technical info]
Input File: 04 - Lord Of The Night.mp3
Channels : 2
Sample Rate : 44100
Precision : 16-bit
Duration : 00:02:51.11 = 7546127 samples = 12833.5 CDDA sectors
File Size : 6.92M
Bit Rate : 323k
Sample Encoding: MPEG audio (layer I, II or III)
Comments :
Title=Lord Of The Night
Artist=The Demiurgkh
Album=Infernal Majesty
Tracknumber=4/4
Year=2023
Genre=Black Metal

[/more]

Register
(9) artscald, dimmannius, Evrom, heavymetalhead, Orkkh, SilentNidhogg, vasiljev_sergej, Wail, wreak,
Oct 6 2023, 18:34:34 Leviathan & Blackdeath - Portrait In Scars [split] (2005)
320
Register
(1) sangre815,
Oct 2 2023, 20:24:46 Infernal Necromancy - Propaganda [live] (2020)


*Artist: Infernal Necromancy
*Album: Propaganda [live]
*Year: 2020
*Genre: Black Metal
*Country: Japan
*Format: flac
*Size: 535MB

Tracklist:
1. 八甲田 04:58
2. 布告 05:04
3. 空の神兵 05:42
4. 富嶽 05:24
5. キスカ 05:14
6. 布告 05:03
7. 空の神兵 05:45
8. 富嶽 05:13
9. 回天 04:56
10. 桜花 04:16
11. 神風 05:05
12. Forgotten Wisdom 04:40
13. Freezing Blackstained Universe 03:59
14. Amduscias 04:23
15. Black Wolf War 04:17
******************************
Total playing time: 1:13:59

[more=Extended info]Zero Dimensional Records

1-5 live in Osaka 2020
6-10 live in Osaka 2012
11-15 live in Nagoya 2004[/more]

[more=Technical info]
Input File: 10 - 桜花.flac
Channels : 2
Sample Rate : 44100
Precision : 16-bit
Duration : 00:04:16.95 = 11331348 samples = 19271 CDDA sectors
File Size : 32.7M
Bit Rate : 1.02M
Sample Encoding: 16-bit FLAC
Comments :
ARTIST=Infernal Necromancy
TITLE=桜花
ALBUM=Propaganda
DATE=2020
TRACKNUMBER=10
GENRE=Metal
ALBUMARTIST=Infernal Necromancy
DISCNUMBER=1
TOTALDISCS=1
TOTALTRACKS=15
COMMENT=BR-011 / ZDR-073 (2020.06.06)

[/more]

Register
(13) Acopiltaczet, artscald, darksmith, Grev, sacrut, smysl, stormhatt, supremo, thenecromancer, VALERY, vovenom, Wail, wreak,
Oct 1 2023, 16:29:23 Зимний Шторм - Сквозь Прибрежные Балтийские Метели (2023)
Они вообще-то и на Амазон со Спотифаем есть, при чём тут модная ненависть ко ВК, непонятно...
(1) vovenom,
Sep 18 2023, 04:15:35 Ghoulchapel - Nightmarish Illusions (2013)
re
Register
(1) wendigo,
Sep 17 2023, 03:18:01 South Of Heaven & Celestial Burial - Southern Diabolical Worship/By The Name Of 666 [split] (2005)
.
Register
(2) kim666, sacrut,
Sep 16 2023, 06:57:44 HateFrame - Demo [demo] (2003)


*Artist: HateFrame
*Album: Demo [demo]
*Year: 2003
*Genre: Thrash Metal
*Country: Finland
*Format: mp3@CBR160kbps
*Size: 12MB

Tracklist:
1. The Perfect Hate 04:34
2. Torment The Masses 04:18
3. Warfare 01:57
******************************
Total playing time: 10:49

[more=Technical info]
Input File: 03 - Warfare.mp3
Channels : 2
Sample Rate : 44100
Precision : 16-bit
Duration : 00:01:57.62 = 5186822 samples = 8821.13 CDDA sectors
File Size : 2.35M
Bit Rate : 160k
Sample Encoding: MPEG audio (layer I, II or III)
Comments :
Title=Warfare
Artist=HateFrame
Album=Demo
Tracknumber=03
Year=2003

[/more]

Register
(10) after21allD, artscald, Carcharoth, Grev, Konungr, METALHUNTER, stumpheavyrock, thenecromancer, wreak, Xtohar,
Sep 13 2023, 02:05:01 Ulveriddr - Jörðhöll [demo] (2023)
Official WAV download
Register
(1) wreak,
Sep 9 2023, 04:56:18 Krieg - Somber & Bleak [compilation] (2018)


*Artist: Krieg
*Album: Somber & Bleak [compilation]
*Year: 2018
*Genre: Black Metal
*Country: United States
*Format: mp3@CBR320kbps
*Size: 122MB

Tracklist:
1. Eternal Victim 03:29
2. Worthless Nothing (Doom cover) 02:22
3. Order of the Solitary Road 04:38
4. House in the Desert 05:37
5. Spilling Holy Blood (Profanatica cover) 02:37
6. Underneath 03:07
7. Intro 01:33
8. Deviant 02:19
9. The Sick Winds Stir the Cold Dawn 04:39
10. An Uncaring Moon 06:52
11. Flesh Descending 04:24
12. I 02:08
13. II 03:08
14. Babylon (Judas Iscariot cover) 05:15
******************************
Total playing time: 52:08

[more=Extended info]"Somber & Black" reflects the years 2002-2014.
1 & 2 recorded in 2014, "Worthless Nothing" originally by Doom.
3 & 4 recorded in 2013, intro & outro "Dying" by Vomit Orchestra.
5 recorded in 2011, originally by Profanatica
6 recorded during "Blue Miasma" sessions in 2005.
7-10 recorded in 2004.
11-13 recorded in 2003.
14 recorded in 2002, originally by Judas Iscariot.[/more]

[more=Technical info]
Input File: 06 - Underneath.mp3
Channels : 2
Sample Rate : 44100
Precision : 16-bit
Duration : 00:03:07.63 = 8274263 samples = 14071.9 CDDA sectors
File Size : 7.51M
Bit Rate : 320k
Sample Encoding: MPEG audio (layer I, II or III)
Comments :
Title=Underneath
Artist=Krieg
Album=Somber & Bleak
Tracknumber=6
Year=2018
Genre=Black Metal

[/more]

Register
(29) Altkiller, artscald, cancer1974, Carcharoth, Chasm, Grev, guidanner, Hell_Is_Here, kim666, kimkayoung, kolar666, metalfanatic666, Occultas, Pinhead666, princeshr, recber, Reverend, robertho777, sacrut, SilentNidhogg, supremo, the_cleanser, VALERY, varlam4, vasiljev_sergej, Vidder242, Wail, Weikai, wreak,
Sep 1 2023, 23:59:55 Marduk - Memento Mori (2023)
CD rip
Register
(5) MEmethuselah, milosdjor, Moonshtook, Occultas, Wail,
Aug 17 2023, 15:12:47 Откровения Дождя - Мраморные Тона Отчаяния (2007)
320
Register
(1) stumpheavyrock,

15 Pages V   1 2 3 > » 
- Lo-Fi Version Support form
Copyrights and abuse reports form
Time is now: 20th June 2024 - 09:38:56