Welcome Guest ( Log In | Register )

История благодарностей участнику LordIncubus ::: Спасибо сказали: 14 раз(а)
Дата поста: В теме: За сообщение: Спасибо сказали:
Jun 30 2018, 15:21:03 Impure Noise - Impure Sounds Of Bondage Sadism And Torture [demo] (2017)


*Artist: Impure Noise
*Album: Impure Sounds Of Bondage Sadism And Torture [demo]
*Year: 2017
*Genre: Death Metal
*Country: Paraguay
*Format: wma@128kbps
*Size: 11MB

Tracklist:
1 - Primitive Killing
2 - Make You Suffer (Untill I Cum in Your Guts)
3 - Murder Photography
4 - Scum (Napalm Death Cover)
******************************
Total playing time: 11:58

[more=Extended info]Line up:
Pure Hatred - Vocals
Naxhyr - Guitars
Demon - Bass
Frost - Drums[/more]

Register
(1) vyacheslav,
Jun 28 2018, 20:45:34 Impure Noise - Impure Sounds Of Bondage Sadism And Torture [demo] (2017)


*Artist: Impure Noise
*Album: Impure Sounds Of Bondage Sadism And Torture [demo]
*Year: 2017
*Genre: Death Metal
*Country: Paraguay
*Format: wma@128kbps
*Size: 11MB

Tracklist:
1 - Primitive Killing
2 - Make You Suffer (Untill I Cum in Your Guts)
3 - Murder Photography
4 - Scum (Napalm Death Cover)
******************************
Total playing time: 11:58

[more=Extended info]Line up:
Pure Hatred - Vocals
Naxhyr - Guitars
Demon - Bass
Frost - Drums[/more]

Register
(3) cesarkiss, infiltrator, morbidangelo,
May 17 2018, 14:51:39 Dark Paranoia - Towards The Boundaries Of Nostalgia... [ep] (2011)
Register

Full EP
(1) thenecromancer,
Apr 16 2018, 15:06:26 Ufologist - Interestellar Conspiracy [demo] (2018)


*Artist: Ufologist
*Album: Interestellar Conspiracy [demo]
*Year: 2018
*Genre: Doom/Death Metal
*Country: Paraguay
*Format: mp3@CBR320kbps
*Size: 45MB

Tracklist:
1 - Seeds for Destruction
2 - Malleus Maleficarum
3 - Interestellar Conspiracy
4 - Grim Lock
******************************
Total playing time: 16:10

[more=Extended info]Recorded on March - April 2018 in the Area 51 Studios Asunción - Paraguay
All music & lyrics composed and produced by Ufologist

released April 10, 2018

Victor HR - Guitars, Drum Programming and Vocals
Matías Ochipinti - Drums (Track 4)[/more]

[more=Technical info]
Input File: 1-Seeds for destruction.mp3
Channels : 2
Sample Rate : 44100
Precision : 16-bit
Duration : 00:04:45.18 = 12576526 samples = 21388.6 CDDA sectors
File Size : 12.2M
Bit Rate : 343k
Sample Encoding: MPEG audio (layer I, II or III)
Comments :
Title=Seeds for Destruction
Artist=Ufologist
Album=Interestellar Conspiracy
Tracknumber=1
Year=2018
Genre=Black Metal

[/more]

Register
(1) thenecromancer,
Nov 25 2017, 21:33:14 Nocturno - Obscura Anima [demo] (2012)


*Artist: Nocturno
*Album: Obscura Anima [demo]
*Year: 2012
*Genre: Black Metal
*Country: Paraguay
*Format: mp3@CBR320kbps
*Size: 157MB

Tracklist:
1 - Soldiers of Satan's Army (intro)
2 - At Hour When the Death Is Near
3 - Kill or Be Killed
4 - Instrument of Chaos
5 - The Night of the Wizard
6 - Darkness Descends Forever
7 - The Altar of Blood Is Served
8 - Trancendental Slumber
9 - Far Beyond the Grave
10 - Toward the Infernal Lake
11 - Satan Is the Path to the Victory
******************************
Total playing time: 58:40

[more=Extended info]https://www.metal-archives.com/bands/Nocturno/3540332859[/more]

[more=Technical info]
Input File: 01 Nocturno - Soldiers of Satan\'s Army .mp3
Channels : 2
Sample Rate : 44100
Precision : 16-bit
Duration : 00:01:28.46 = 3901174 samples = 6634.65 CDDA sectors
File Size : 5.82M
Bit Rate : 526k
Sample Encoding: MPEG audio (layer I, II or III)
Comments :
Title=Soldiers of Satan's Army
Artist=Nocturno
Album=Obscura Anima
Tracknumber=1/11
Discnumber=1/1

[/more]

Register
(3) alexxxandrougs, Lucifere, thenecromancer,
Nov 25 2017, 20:51:30 Nocturno - The Black Codes Of The Moon [demo] (2003)


*Artist: Nocturno
*Album: The Black Codes Of The Moon [demo]
*Year: 2003
*Genre: Black Metal
*Country: Paraguay
*Format: mp3@CBR320kbps
*Size: 68MB

Tracklist:
1 - Nocturnal Screams of Sadness
2 - Knife of Sacrifice
3 - Black Portals of a New Dimension
4 - Invocation to Pazuzu
5 - Transilvanian Impaler
6 - Cascada (Paraguayan Folk Version)
7 - Unsilent Storms in the North Abyss (Immortal cover)
******************************
Total playing time: 28:44

[more=Extended info]https://www.metal-archives.com/bands/Nocturno/3540332859[/more]

[more=Technical info]
Input File: 01 Nocturno - Nocturnal Screams of Sadness.mp3
Channels : 2
Sample Rate : 44100
Precision : 16-bit
Duration : 00:04:08.40 = 10954352 samples = 18629.9 CDDA sectors
File Size : 10.2M
Bit Rate : 328k
Sample Encoding: MPEG audio (layer I, II or III)
Comments :
Title=Nocturnal Screams of Sadness
Artist=Nocturno
Album=The Black Codes of the Moon
Tracknumber=1/7
Genre=Black Metal
Discnumber=1/1

[/more]

Register
(3) kim666, thenecromancer, varlam4,

- Lo-Fi Version Support form
Copyrights and abuse reports form
Time is now: 11th May 2021 - 07:37:41