Welcome Guest ( Log In | Register )

История благодарностей участнику PanzerDivisionMarduk ::: Спасибо сказали: 165 раз(а)
Дата поста: В теме: За сообщение: Спасибо сказали:
Oct 13 2020, 13:54:16 Moenen Of Xezbeth & Оброк - Moenen Of Xezbeth/Оброк [split] (2020)
16/44.1 WAV vinyl rip, from my own personal collection.

Register
(12) Amsterdam, Bzth, infiltrator, ingram, lestllk, noxspiritus, Occultas, Rudolfo_Metal, thenecromancer, vasiljev_sergej, Wilczygniew Strzygoń, Озабоченный,
Jun 19 2020, 02:59:09 Arcane Relic - Demo Mmxix [demo] (2019)


*Artist: Arcane Relic
*Album: Demo Mmxix [demo]
*Year: 2019
*Genre: Black Metal
*Country: New Zealand
*Format: flac@320kbps
*Size: 235MB

Tracklist:
01. Intromancy 01:55
02. Fantasising the Absolute and Ultimate Infinity Catharsis 06:04
03. Apotheosis of the Impetuous Nocturne Piercing the Veil of Nyx 07:17
04. Unchaining the Wolf (at War) 05:29
******************************
Total playing time: 20:45



Register
(9) infiltrator, kim666, necromantia696, obituarydark, Occultas, Olethros, Rosen, thenecromancer, Wail,
Sep 30 2019, 01:15:57 Goatlord - Reflections Of The Solstice (1991)
QUOTE(frostdomain @ Oct 6 2015, 04:31:08) *
Goatlord - Reflections Of The Solstice CD (1991) [320]


This link is dead, please re-upload.
(1) raw1488go666,
Aug 29 2019, 18:04:14 Trench Warfare - Hatred Prayer (2019)
Please re-upload.
(1) VerminGhost,
Apr 16 2019, 04:21:47 M.A.D. - Taboo Of The Western World (1991)
Finally found this after much searching. Lower bitrate than the original uploader, but higher than the ifolder upload from 2011.

Register
(2) METALHUNTER, pichileon,
Mar 21 2019, 03:13:52 Mortem - Rehearsal Demo [demo] (1988)
Re-upload please.
(1) thenecromancer,
Mar 8 2019, 03:26:12 Hetsheads - We Hail The Possessed... (1994)
320 MP3 + FLAC rip.

Register
(11) Hell_Is_Here, helvetestoner, infiltrator, kim666, muskatnuss, Necroslaughter, Olethros, thenecromancer, Typhoid, wendigo, wgs73,
Feb 11 2019, 20:21:12 Today Needed
QUOTE(thenecromancer @ Feb 11 2019, 12:40:03) *


This was reuploaded as 320 + FLAC by Borderline1991.
(1) thenecromancer,
Feb 8 2019, 02:34:10 Sacred Blade - Of The Sun & Moon (1986)
320 MP3:
Register

FLAC:
Register


RIP Jeff Ulmer!
(3) donBastardo, muskatnuss, pichileon,
Feb 8 2019, 01:46:02 Othyrworld - Beyond Into The Night Of Day (2005)
320 MP3:
Register

FLAC:
Register

Love this band and its predecessor. RIP Jeff Ulmer.
(1) muskatnuss,
Dec 27 2018, 06:00:34 Lethargic Euphoria - Standstill (2016)
Disregard my previous post, here's a new link @ 320kbps MP3.

Register
(3) dermarsoran, kim666, wendigo,
Dec 25 2018, 05:26:23 Lethargic Euphoria - Standstill (2016)
Please re-upload this, I only have one song and the bandcamp is gone.
(1) dermarsoran,
Dec 8 2018, 02:42:57 Yamatu - Shurpu Asaru [best of/compilation] (2000)
Does anybody happen to have lossless?
(1) kramer820,
Nov 29 2018, 23:31:15 Cóndor - El valle del Cóndor (2018)


Lossless would be preferred, but any format would be fine.
(1) Biscornu,
Nov 20 2018, 00:43:15 Flesh Hunter - Resurrection Of The Unholy [ep] (2005)


*Artist: Flesh Hunter
*Album: Resurrection Of The Unholy [ep]
*Year: 2005
*Genre: Death Metal
*Country: United States
*Format: mp3@VBR128kbps
*Size: 14MB

Tracklist:
1. Death Saw (3:01)
2. Slaughter Rape (2:00)
3. Perish In Flames (2:18)
4. Seduction of Evil (2:42)
5. Split Cock To Throat (2:00)
******************************
Total playing time: 12:01



[more=Extended info]This is the band's only release.
For Fans of: Morbid Angel, Revenant, Cannibal Corpse

Lineup:
Kevin Hudson - Vocals
Mike Zorcaro - Guitars
Tyler Eltringham - Guitars
Taylor Wertz (see also: Bloodsoaked Glory) - Bass
Dustin Stone - Drums[/more]

 ! 

2.4. Name of the archive MUST contain your nickname on metalarea.org or term "metalarea.org"
 

[more=Technical info]
Input File: 01. Flesh Hunter - Death Saw.mp3
Channels : 2
Sample Rate : 44100
Precision : 16-bit
Duration : 00:03:01.34 = 7997182 samples = 13600.6 CDDA sectors
File Size : 3.33M
Bit Rate : 147k
Sample Encoding: MPEG audio (layer I, II or III)
Comments :
Title=Death Saw
Artist=Flesh Hunter
Album=Resurrection of the Unholy (EP)
Tracknumber=1
Year=2005
Genre=Death Metal

[/more]

Register
(2) artscald, Mucupurulence,
Nov 17 2018, 06:52:25 Enslaved - Promo 1994 [demo] (1994)
Please re-upload.
(1) Occultas,
Nov 16 2018, 07:06:57 Uncanny & Ancient Rites - Uncanny / Ancient Rites [split] (1993)
Re-upload please.
(1) satanist666,
Nov 15 2018, 22:10:23 Necrotic Mutation - The Realm Of Human Illusion [ep] (1995)
QUOTE(seightin @ Jul 19 2016, 07:46:04) *
reupload?!?


From web, same bitrate

Register
(3) Alfredoelruso, muskatnuss, pichileon,
Nov 15 2018, 22:05:14 Sarcasm - Burial Dimensions [best of/compilation] (2015)
FLAC, originally posted by Borderline1991 HERE.

I will likely convert this to 320 mp3 later, for those who need an MP3 rip and don't have a way to rip FLAC. Not sure if this is image+.cue or tracks, still downloading these as I type this up.

Register
(3) caro, cesar, Metalass,
Nov 12 2018, 04:48:18 Afterlife - Rehearsal 91 [demo] (1991)
Reupload please!
(1) hell_armageddon,
Oct 25 2018, 08:08:33 Baphomet - Baphomet [demo] (1987)
Please re-upload.
(1) dad,
Oct 14 2018, 04:23:50 Seventh Angel - Lament For The Weary (1992)
Another 320 link, from web:

Register
(3) Alfredoelruso, hell_armageddon, muskatnuss,
Oct 14 2018, 04:23:15 Seventh Angel - The Torment (1990)
From web, 320kbps (2005 Reissue):

Register
(5) Alfredoelruso, hell_armageddon, Impetus7, lyukon, muskatnuss,
Oct 9 2018, 23:40:16 Molested - Stormvold [ep] (1997)
320k rip.

Register
(3) Alfredoelruso, pichileon, wgs73,
Jun 26 2018, 06:58:31 Cianide - Cianide Kills [demo] (1993)
FLAC (not my rip):

Register
(1) varlam4,

3 Pages V   1 2 3 >
- Lo-Fi Version Support form
Copyrights and abuse reports form
Time is now: 18th May 2022 - 13:57:16