Welcome Guest ( Log In | Register )

История благодарностей участнику Shadechaser ::: Спасибо сказали: 161 раз(а)
Дата поста: В теме: За сообщение: Спасибо сказали:
May 7 2021, 05:48:03 Violet Cold - Empire Of Love (2021)
coming out?.. normal_Homerdisgust3.png
(1) nsk2008,
May 3 2021, 16:32:53 Metalblack - When The Night Conquers Light (2021)
Register
(2) infiltrator, KKK1488,
May 3 2021, 13:40:18 Metalblack - Осколки (2020)


*Artist: Metalblack
*Album: Осколки
*Year: 2020
*Genre: Avant-Garde/Atmospheric Black Metal
*Country: Russian Federation
*Format: mp3@CBR320kbps
*Size: 88MB

Tracklist:
01. Либо-либо
02. Не смотри на меня
03. Белые дороги
04. Слово на букву Л
05. Пуля для себя
06. Пустой
07. Пара грамм
08. Знает ночь
09. Аут
******************************
Total playing time: 38:13



[more=Technical info]
Input File: 01. Либо-либо.mp3
Channels : 2
Sample Rate : 44100
Precision : 16-bit
Duration : 00:04:08.80 = 10971948 samples = 18659.8 CDDA sectors
File Size : 9.95M
Bit Rate : 320k
Sample Encoding: MPEG audio (layer I, II or III)
Comments :
Title=Ëèáî-ëèáî
Artist=MetalBlack
Album=Îñêîëêè
Tracknumber=1

[/more]

Register
(14) aleon, Aresson, infiltrator, kimkayoung, metala, oldvarg, Olethros, rabindranad, randumbum, Sanctus, skidnik, VALERY, varlam4, wreak,
May 3 2021, 13:36:41 Metalblack - Neogod [ep] (2020)


*Artist: Metalblack
*Album: Neogod [ep]
*Year: 2020
*Genre: Avant-Garde/Atmospheric Black Metal
*Country: Russian Federation
*Format: mp3@CBR320kbps
*Size: 41MB

Tracklist:
01. Neogod
02. The Shadow of Cain
03. Cybergloom
******************************
Total playing time: 17:53



[more=Technical info]
Input File: 01. Neogod.mp3
Channels : 2
Sample Rate : 44100
Precision : 16-bit
Duration : 00:05:16.38 = 13952226 samples = 23728.3 CDDA sectors
File Size : 12.7M
Bit Rate : 320k
Sample Encoding: MPEG audio (layer I, II or III)
Comments :
Title=Neogod
Artist=MetalBlack
Album=Neogod [EP]
Tracknumber=1

[/more]

Register
(9) aleon, infiltrator, kimkayoung, oldvarg, Olethros, randumbum, VALERY, varlam4, wreak,
May 3 2021, 13:33:21 Metalblack - Behind The Gloomy Forest (2020)


*Artist: Metalblack
*Album: Behind The Gloomy Forest
*Year: 2020
*Genre: Ambient/Dungeon Synth
*Country: Russian Federation
*Format: mp3@CBR320kbps
*Size: 117MB

Tracklist:
01. No Human's Land
02. Remains of the Greatness
03. Blacksmith Village
04. The Stone and the Wind
05. Tower Embrasure
06. Last Dance
07. Caves and Tunnels
08. Ancient City of Giants
09. Guards of the King
10. Old Raven
******************************
Total playing time: 51:27



[more=Technical info]
Input File: 02. Remains of the Greatness.mp3
Channels : 2
Sample Rate : 44100
Precision : 16-bit
Duration : 00:04:10.11 = 11029983 samples = 18758.5 CDDA sectors
File Size : 10.0M
Bit Rate : 320k
Sample Encoding: MPEG audio (layer I, II or III)
Comments :
Title=Remains of the Greatness
Artist=MetalBlack
Album=Behind the Gloomy Forest
Tracknumber=2

[/more]

Register
(8) infiltrator, kimkayoung, oldvarg, Olethros, rabindranad, Sanctus, VALERY, varlam4,
May 3 2021, 10:50:37 Metalblack - When The Night Conquers Light (2021)


*Artist: Metalblack
*Album: When The Night Conquers Light
*Year: 2021
*Genre: Ambient/Dungeon Synth
*Country: Russian Federation
*Format: mp3@CBR320kbps
*Size: 180MB

Tracklist:
01. Too Early for Snow
02. It Was Cold
03. Only Darkness Remains
04. The Night Has Not Gone
05. The Last Stronghold
06. Under the Hood
07. The Magic Turned Black
08. Enslaved by Darkness
09. Wandering Shadow
10. The Children of Morgoth
11. Drums of War
12. Victory or Death
13. The Glimmering Between Trees
14. Horned Race
15. The Shadow Path
16. Somewhere in the Nethermost Profound
******************************
Total playing time: 1:18:46

[more=Extended info][/more]

[more=Technical info]
Input File: 02. It Was Cold.mp3
Channels : 2
Sample Rate : 44100
Precision : 16-bit
Duration : 00:05:33.27 = 14696987 samples = 24994.9 CDDA sectors
File Size : 13.3M
Bit Rate : 320k
Sample Encoding: MPEG audio (layer I, II or III)
Comments :
Title=It Was Cold
Artist=MetalBlack
Album=When the Night Conquers Light
Tracknumber=2

[/more]

Register
(9) Branis, infiltrator, kimkayoung, nemx, oldvarg, Olethros, rabindranad, VALERY, varlam4,
Apr 29 2021, 06:29:54 Solemn Echoes - Into The Depths Of Sorrow (2021)
где же "авторитетное" мнение GRAF aka DeathCoveR?
(2) Bloodn Lord, Old Vyaine,
Apr 21 2021, 08:50:50 Paysage D'hiver - Geister (2021)
ЦИТАТА(metodist @ Apr 21 2021, 11:29:42) *
Ну я с Питера ,кто такой тут стрелки забивать .

вообще-то правильно говорить "из Питера".
если, конечно, твоего парня не зовут Питер и ты только что не слез с его... коленок, так скажем.
(4) ent404, infiltrator, medium, Old Vyaine,
Apr 14 2021, 11:54:21 Cannibal Corpse - Violence Unimagined (2021)
ЦИТАТА(Deze @ Apr 14 2021, 12:29:03) *
Так lame 3.99 прореживает только верхние частоты (и то, этот момент сильно демонизирован), при чём тут он к нехватке "жира"?

Lame 3.93 4ever smile3.gif
(1) Occultas,
Apr 14 2021, 09:09:51 Cannibal Corpse - Violence Unimagined (2021)
ЦИТАТА(Shub @ Apr 13 2021, 18:05:20) *
На бандкампе звук тоже тухлый. Скорее всего, он просто такой и есть. Звук реально сухой, жира совсем нет.

lame 3.99... smile2.gif
(1) Occultas,
Mar 4 2021, 05:22:38 Matron Thorn - Midwinter Storm Ii - The View From Elysium (2020)
было бы здорово, если бы вместо "MT - MS 2 - 20 - Vosmidesijatye" и подобной х.ни в раздачах данного релизера папка внутри архива называлась как-то адекватно.
например, коррелировала с названием проекта и альбома.
например, как это делают другие релизеры.
(5) AlexSmith, andgrek28, ent404, infiltrator, ingram,
Mar 3 2021, 08:55:57 Fragments Of Lost Memories - Again​.​.​. [single] (2021)
ЦИТАТА(6666666 @ Mar 3 2021, 10:24:03) *
Что бы Граф тут не написал - он будет неправ.

по ходу, его вообще методом "от противного" нужно воспринимать: чем хуже, тем лучше...
(2) infiltrator, krotovich,
Jan 26 2021, 13:02:34 Tribulation - Where The Gloom Becomes Sound (2021)
DSO is a hip-hop/rap group based out of Nova Scotia, Canada.
(с) https://genius.com/artists/Dso
1488.gif
(2) infiltrator, kostja,
Jan 26 2021, 08:56:53 Hok-Key - Alma Mater [single] (2020)
ЦИТАТА(Nomore @ Jan 26 2021, 00:46:31) *
Жыве Беларусь!

Hail Zimbabwe, йопта 1488.gif
(4) goxther, infiltrator, Vitald, Сварог Барг,
Jan 13 2021, 13:06:07 Vulpus Rex - Vulpus Rex I (2020)
ЦИТАТА(vosmidesijatye @ Jan 13 2021, 13:21:40) *
Смотря на обложку сабжа, я тихонько напеваю:

Спи, моя радость, усни.
В доме погасли огни,
Птички притихли в саду,
Рыбки уснули в пруду.
Месяц на небе блестит,
Месяц в окошко глядит.
Глазки скорее сомкни,
Спи, моя радость, усни...

не труЪ

80й, усни
дом твой сгорел изнутри
птички подохли в саду
рыбки утопли в пруду
бомж под забором лежит
нож между рёбер торчит...
1488.gif
(6) cesar, infiltrator, Kwaad, Storky, The_Hound, woldemort,
Oct 24 2020, 12:15:35 Counting Hours - The Will (2020)
ЦИТАТА(WolfFenrir @ Oct 24 2020, 00:21:09) *
Astonishing album, with two members of Shape of Despair and Rapture. The band also reminds me of Rapture a lot.

Beside this amazing album, a video also was released today:


I've almost passed it by!
thanks man.
(1) WolfFenrir,
Sep 29 2020, 07:48:33 Memoira - Carnival Of Creation (2020)


фактурная женщина... не хватает швабры и платка на голове.
"куда по мытому!! yuh.gif ...ой, уже фотографируют? 28.gif "
(4) + ATheisT +, Ghostb, Kitalter, vosmidesijatye,
Sep 23 2020, 05:33:25 Napalm Death - All Things Being Equal [ep] (2020)
Given away for free with German magazine "Legacy" issue 05-2020 Nr. 128.

© https://www.metal-archives.com/albums/Napal...ng_Equal/881354

(1) Occultas,
Sep 16 2020, 09:03:14 Chasmdweller - Bacterial Lotus (2020)
ЦИТАТА(GRAF @ Sep 16 2020, 07:05:47) *
Очередное молотилово головой о стены под шум компрессора, вместо музыки.



https://play.google.com/store/music/artist/...qjdbvlenw7pnap4

https://play.google.com/store/music/artist/...brs3v4au5bqsy4m

20.gif
(3) infiltrator, Samaritianin, skidnik,
Jun 25 2020, 05:56:44 Carach Angren - Franckensteina Strataemontanus (2020)
ЦИТАТА(mardak666 @ Jun 25 2020, 07:18:15) *
Lammendam был очень даже неплох.

pleased.gif
+ Death Came Through a Phantom Ship (2010)
(1) BleedingSun,
May 29 2020, 09:20:49 The Committee - Utopian Deception (2020)
ЦИТАТА(Samaritianin @ May 28 2020, 18:02:23) *
Marc Abre - The Mediator Bass, Vocals (backing)
William Auruman - The Charter Drums, Percussion
Aristo Crassade - The Trigger Guitars, Vocals (backing)
Igor Mortis - The Conspirator Vocals, Guitars (2007-present)
Urok - The Inquisitor Keyboards (2014-present)

Marc Abre - Netherlands
William Auruman - Hungary
Aristo Crassade - France
Igor Mortis - Russia
Urok - xz

ЦИТАТА(Samaritianin @ May 28 2020, 18:02:23) *
*Country: Belgium

hmm.gif

(2) Daale, infiltrator,
Apr 29 2020, 12:16:40 Ante-Inferno - Fane (2020)
ЦИТАТА(cryptal @ Apr 29 2020, 08:01:09) *
Что же ты на своем гетметале не пишешь, что людей на....шь. Бизнесмен хренов. За бабки уже готов всё говно с ютуба в кучу собрать. Ещё и других обвиняешь, хотя изначально в сеть это фуфло протолкнул ты. Что у тебя с мозгами? Или душонка гнилая?


что ты хотел от человека с ником a dick sucker? 1488.gif
(2) Samaritianin, stub888,
Apr 18 2020, 11:24:16 Blossom - Naturaleza Tortuosa [ep] (2018)
© 2018
(1) Gelukas,
Mar 2 2020, 07:43:10 Proscrito - Llagas Y Estigmas (2020)
ЦИТАТА(GRAF @ Mar 1 2020, 02:26:00) *
Слабая работа, как и все предыдущие.

hmm.gif
Discography:
El calvario (EP) 2017
Llagas y estigmas (Full-length) 2020
(3) ingram, Metalass, Samaritianin,
Nov 24 2019, 11:23:18 Lindemann - Frau & Mann (2019)
куры, млеко, яйки?
(2) infiltrator, Penetralia,

3 Pages V   1 2 3 >
- Lo-Fi Version Support form
Copyrights and abuse reports form
Time is now: 18th June 2021 - 01:13:45