Welcome Guest ( Log In | Register )

История благодарностей участнику Krosis ::: Спасибо сказали: 612 раз(а)
Дата поста: В теме: За сообщение: Спасибо сказали:
Nov 11 2019, 09:17:02 Лучшие Black Metal релизы 2019
так, навскидку

Asagraum
Bethlehem
Černý Kov
Darkthrone
DNS
Gaahls Wyrd
Gestapo 666
Knoest
Mayhem
Mgla
Misthyrming
Sulphuric Night
Sun Worship
The Penitent
(1) judaz,
Nov 11 2019, 06:35:43 Sulphuric Night - Forever Cursed (2019)
true_black.gif годнота. и снова из боснии. так держать
(1) Абигор,
Nov 2 2019, 13:26:18 Vrač - U Vječnoj Magli Života [demo] (2019)
А мне наоборот боснийцы последнее время доставляют, и сия демка не исключение.
(1) HviteGuden,
Nov 1 2019, 16:16:06 Perterricrepus - The Dark Age Of The Carpathia (2008)
No, thank to you)).

p.s. corrent album name is "The Dark Age Of The Carpathia")
(1) Borderline1991,
Nov 1 2019, 08:01:20 Sarke - Gastwerso (2019)
Проходняк.
(3) Brann, garmonbozia, necroulv,
Oct 28 2019, 07:59:12 Батюшка - Свеча Господня (2019)


*Artist: Батюшка
*Album: Свеча Господня
*Year: 2019
*Genre: Unblack Metal
*Country: Russian Federation
*Format: mp3@VBR276kbps
*Size: 92MB

Tracklist:
1. Господи Иисусе
2. Псалмы
3. Царь Небесный
4. Святая Гора
5. Смилуйся Над Нами
6. Господь Услышит
7. Закон Божий
8. Сокровенная Комната
9. Преподобный
10. Завет
******************************
Total playing time: 45:42



[more=Technical info]
Input File: 01. Господи Иисусе.mp3
Channels : 2
Sample Rate : 44100
Precision : 16-bit
Duration : 00:05:05.92 = 13491072 samples = 22944 CDDA sectors
File Size : 10.6M
Bit Rate : 277k
Sample Encoding: MPEG audio (layer I, II or III)
Comments :
Title=Господи Иисусе
Artist=Батюшка
Album=Свеча Господня
Tracknumber=1
Year=2019

[/more]

Register
(3) infiltrator, oldvarg, zoog,
Oct 28 2019, 07:52:10 Батюшка - Молитвы (2019)


*Artist: Батюшка
*Album: Молитвы
*Year: 2019
*Genre: Unblack Metal
*Country: Russian Federation
*Format: mp3@VBR276kbps
*Size: 71MB

Tracklist:
1. Молитва 1
2. Молитва 2
3. Молитва 3
4. Молитва 4
5. Молитва 5
6. Молитва 6
7. Молитва 7
8. Молитва 8
******************************
Total playing time: 35:16



[more=Technical info]
Input File: 01. Молитва 1.mp3
Channels : 2
Sample Rate : 44100
Precision : 16-bit
Duration : 00:04:08.35 = 10952059 samples = 18626 CDDA sectors
File Size : 8.50M
Bit Rate : 274k
Sample Encoding: MPEG audio (layer I, II or III)
Comments :
Title=Молитва 1
Artist=Батюшка
Album=Молитвы
Tracknumber=1
Year=2019

[/more]

Register
(3) infiltrator, kolar666, zoog,
Oct 28 2019, 07:45:43 Батюшка - Господи Иисусе (2019)


*Artist: Батюшка
*Album: Господи Иисусе
*Year: 2019
*Genre: Unblack Metal
*Country: Russian Federation
*Format: mp3@VBR293kbps
*Size: 89MB

Tracklist:
1. Колокольный Звон
2. Матерь Божия
3. Крест Святой
4. Монах
5. Благодать
6. И Воссияет Крест В Небесах!
7. Открой Мне, Боже, Дверь Спасения!
8. Спаси Нас, Боже, Грешных!
******************************
Total playing time: 41:37



[more=Technical info]
Input File: 02. Матерь Божия.mp3
Channels : 2
Sample Rate : 44100
Precision : 16-bit
Duration : 00:04:44.63 = 12552183 samples = 21347.2 CDDA sectors
File Size : 9.84M
Bit Rate : 276k
Sample Encoding: MPEG audio (layer I, II or III)
Comments :
Title=Матерь Божия
Artist=Батюшка
Album=Господи Иисусе
Tracknumber=2
Year=2019

[/more]

Register
(3) infiltrator, oldvarg, zoog,
Oct 28 2019, 07:27:50 Батюшка - Лики Святых (2019)


*Artist: Батюшка
*Album: Лики Святых
*Year: 2019
*Genre: Unblack Metal
*Country: Russian Federation
*Format: mp3@VBR280kbps
*Size: 79MB

Tracklist:
1. Лики Святых
2. Мученик
3. Святость
4. Монастырь
5. Мироточение
6. Евангелие
7. Дар
8. Дух Святый
******************************
Total playing time: 39:20



[more=Technical info]
Input File: 01. Лики Святых.mp3
Channels : 2
Sample Rate : 44100
Precision : 16-bit
Duration : 00:05:24.57 = 14313581 samples = 24342.8 CDDA sectors
File Size : 11.6M
Bit Rate : 287k
Sample Encoding: MPEG audio (layer I, II or III)
Comments :
Title=Лики Святых
Artist=Батюшка
Album=Лики Святых
Tracknumber=1
Year=2019

[/more]

Register
(3) infiltrator, oldvarg, zoog,
Oct 28 2019, 07:17:35 Батюшка - Песнопения (2019)


*Artist: Батюшка
*Album: Песнопения
*Year: 2019
*Genre: Unblack Metal
*Country: Russian Federation
*Format: mp3@CBR320kbps
*Size: 80MB

Tracklist:
1. Благовест
2. Глас
3. Икона
4. Отче Наш
5. Утреня
6. Блаженны
7. Повечерие
8. Крест
******************************
Total playing time: 34:21



[more=Technical info]
Input File: 01. Благовест.mp3
Channels : 2
Sample Rate : 44100
Precision : 16-bit
Duration : 00:03:31.03 = 9306511 samples = 15827.4 CDDA sectors
File Size : 8.62M
Bit Rate : 327k
Sample Encoding: MPEG audio (layer I, II or III)
Comments :
Title=Благовест
Artist=Батюшка
Album=Песнопения
Tracknumber=1
Year=2019

[/more]

Register
(4) Alpha_Prime, oldvarg, Olethros, postal67,
Oct 27 2019, 21:06:11 Sunn O))) - Pyroclasts (2019)
ЦИТАТА(mirotvorets @ 26th October 2019 - 18:37:18) *
И никто не заметил

чот взоржал вообще тут)))
(2) Deze, plfan93,
Oct 26 2019, 15:32:20 Swans - Leaving Meaning (2019)
Залипучая штука. 27.gif
(2) Ghostb, infiltrator,
Oct 25 2019, 16:56:28 Mayhem - Daemon (2019)
послушал ещё более вдумчиво. не нашёл ничего общего с DMDS. обычный модерновый блэчок без каких-то изюминок. был бы не Мэйхем - прослушал бы на раз, удалил и не вспомнил больше.
(2) garmonbozia, infiltrator,
Oct 25 2019, 15:04:59 Sunn O))) - Pyroclasts (2019)
такое ощущение, что группа вышла на сцену и в ожидании вокалиста, заполняет тишину гитарным шумом. а вокалист в это время передоз в гримёрке словил.

а так вообще сабж мне приятен, но как оценивать подобную музыку - без понятия. так же, как с эмбиентом - "нравится" / "не нравится", больше никак.
(2) infiltrator, mirotvorets,
Oct 25 2019, 14:06:29 Alcest - Spiritual Instinct (2019)
ЦИТАТА
В некотором царстве, в некотором государстве жили-были три братишки, три бедных сиропки, звали их Снежный Стефан, Жан и Пьер, и играли они в сахарной группе.
— А что же они там пели и играли? - спросила Алиса, которую всегда весьма интересовали музыкальные вопросы.
Соня долго думала - наверное, целую минуту, - а потом сказала:
— Сироп.
— Что вы! Этого не может быть, - робко запротестовала Алиса,- они бы заболели!
— Так и было,- сказала Соня,- заболели, да еще как! Жилось им слишком сладко! Их все так и звали: Снежные Сиропки!
(2) infiltrator, vosmidesijatye,
Oct 24 2019, 14:25:10 Swans - Leaving Meaning (2019)
с сабжем знаком как-то обрывисто, слушал некоторые работы, но довольно поверхностно. однако
ЦИТАТА(Ghostb @ 24th October 2019 - 02:50:15) *
в исполнении великолепной Anna von Hausswolff

это уже повод скачать.
(2) Ghostb, infiltrator,
Oct 21 2019, 18:37:05 Mortido - Vii: Bloody Fashion (2019)
с текстов ору просто. блэк метал про модельный бизнес - это сильно. 22.gif
подобие стихов на уровне начальной школы, а на рифму или хотя бы её подобие положен бесконечно огромный болт.

скоро будут альбомы про ущемление прав меньшинства вареников с капустой мясоедами.
(1) vosmidesijatye,
Sep 27 2019, 06:12:15 Eisflammen - Touristic Black Metal [ep] (2019)
Мы не должны ждать милости
От матушки-природы
Должна природа-матушка
Сама давать доход
Трещите, трепещите,
Сады и огороды,
Туристы-гитаристы
Отправились в поход! (с)
(2) FlammenTod666, Persy,
Sep 26 2019, 08:22:34 Batyushka - Апостол (2019)
Весть же уныния сраче богохульников польскихъ, хайпу отгресьти на хайпова волнахъ, порождалися лиходейцы фальшивые да рассеяньского роду. Явили же во светъ молчаливо-немой альбум, кой наполненъ скудноумейшим и унынию подобливым железомъ чёрным, лишённым всякаго обаяния сущего. Сием наказомъ благословляю ны с удалью демониальнаю сослать сию халтуру мерзкую в дебри рвов помойныхъ, да вместе с ихъ творцами.
(17) andgrek28, Aynekko, BleedingSun, Deathtractor, Deze, infiltrator, Kwaad, Mihalik, Moonshtook, NecroButcher, nsk2008, plfan93, pothead, RUSP73, russ777, Thiarnan, Сварог Барг,
Sep 26 2019, 07:48:45 Batyushka - Апостол (2019)
я рискнул послушать даже, кстати
звучит так, как будто это нейросеть написала
с божьей помощью, конечно
(11) Aynekko, Deze, Ghostb, infiltrator, Kwaad, lafuma, Lucifer, Mihalik, Nattfodd, NecroButcher, plfan93,
Sep 26 2019, 07:37:29 Batyushka - Апостол (2019)
ЦИТАТА(recber @ 26th September 2019 - 11:35:52) *
Я так понял это православный ответ на польские варианты Батюшки

да какой там ответ, очередные бесталанные хайпожоры решили отхватить дешёвой популярности набросом коричневой субстанции на вентилятор
а шоб в рот не залетело, решили обойтись без вокала 1488.gif
(11) 6666666, Ash_1980, Aynekko, Black Cat, Deze, garmonbozia, infiltrator, Metalass, NecroButcher, recber, russ777,
Sep 26 2019, 07:15:12 Blut Aus Nord - Hallucinogen (2019)
прогнал несколько раз, чёто не вставило
ровный такой атмосферик с прогрессив-вставочками
не вызывающий каких бы то ни было эмоций
(3) garmonbozia, infiltrator, mirotvorets,
Sep 26 2019, 06:49:17 Batyushka - Апостол (2019)
6ольше 6атюшек 6огу 6атюшек! 666
(3) BERZERK, infiltrator, plfan93,
Sep 22 2019, 15:30:55 Cult Of Luna - A Dawn To Fear (2019)
Хороший альбом, неторопливый, тягучий, по сравнению с Маринером гораздо спокойнее. А вообще нравятся оба, каждый по своему.
(2) Ghostb, infiltrator,
Sep 19 2019, 08:59:25 Borknagar - True North (2019)
Угу, и ничего из перечисленного мне так же не нравится(

вот у Forlorn был красивый чистый вокал, например


пойду лучше Сэлвика с Бьорнсоном переслушаю.
(2) garmonbozia, infiltrator,

10 Pages V  < 1 2 3 4 > » 
- Lo-Fi Version Support form
Copyrights and abuse reports form
Time is now: 3rd July 2020 - 18:47:33