Welcome Guest ( Log In | Register )

История благодарностей участнику Kazoth ::: Спасибо сказали: 8485 раз(а)
Дата поста: В теме: За сообщение: Спасибо сказали:
May 13 2021, 19:25:39 Mørk Visdom - Obscure Symphonies (The Cursed Chant Of The Fallen Angels) (2021)
ЦИТАТА(satanist666 @ May 13 2021, 19:12:50) *
Опять 320kbps попал в Low Bitrate!!!
Как так получается???

Ну видимо посчитали, что по спектрам не проходит...
(3) infiltrator, Occultas, thenecromancer,
Apr 27 2021, 20:19:29 Новости Black-направления
ЦИТАТА(rimfrost @ Apr 27 2021, 16:24:23) *
Darkthrone

ETERNAL HAILS –THE NEW DARKTHRONE STUDIO ALBUM - COMING 25TH JUNE


His Master`s Voice [07:17]
Hate Cloak [09:16]
Wake of the Awakened [08:24]
Voyage to a North Pole Adrift [09:24]
Lost Arcane City of Uppakra [07:02]

https://i.ibb.co/2yM17Nj/Darkthrone.jpg


Очередная порция зубодробительного черного метала от неистовых норвежцев!
(2) infiltrator, Vidyadharov,
Mar 18 2021, 20:16:30 Grimm - Heksenkringen (2007)
Классная штука! Особенно в Verbranding Van Een Heks и Heksenkringen душевно поёт...
(1) nsk2008,
Mar 13 2021, 17:20:42 Necrony - Pathological Performances (1993)

320kbps
Register
(5) Amadeus, Corpuscul, Mauriciosatan, NathanSS, Occultas,
Mar 9 2021, 19:49:40 Лучший советчик МА - ПЕТУХИ, КУКУШКИ, ЖАБЫ И ГАДЮКИ
ЦИТАТА(Aresson @ Mar 9 2021, 21:40:35) *
я так и не понял, кто петух-то в итоге?

Ага, ждем разъяснений от автора темы 25.gif
(1) Foneg,
Mar 3 2021, 08:02:56 Campo De Mayo - Playing With Toys That Would Have Been Dangerous Even For Plato's Republic [demo] (2004)
ЦИТАТА(INDARKNESS @ Mar 3 2021, 00:37:30) *
Если те файлы которые, ты заливал сюда идентичны файлам которые перезалили здесь, то они не совпадают по времени с инфо на металархивах о продолжительности треков. И на renewing the call for war тоже такая же история.и пожалуй мне следовало в первую очередь начать вопрос со слова "почему?" я помню что несколько лет назад у меня было три первых вещи в low и первое демо также, но трудно теперь сказать что именно там было по содержанию.

Не нужно верить всему, что написано в интернете...


Ещё есть вопросы?
Второй диск сфоткать или так поверишь?)
(1) INDARKNESS,
Feb 22 2021, 17:51:03 Graabein - Hell Is Here [ep] (2004)

Register
(5) cancer1974, stumpheavyrock, wanderer73, wendigo, wgs73,
Jan 31 2021, 17:06:57 Flies - And As It Was, It Must Be So [ep] (2016)


*Artist: Flies
*Album: And As It Was, It Must Be So [ep]
*Year: 2016
*Genre: Black Metal
*Country: United States
*Format: mp3@CBR320kbps
*Size: 31MB

Tracklist:
1. Upon a Throne of Thorns 04:15
2. From Soil to Sky 04:29
3. The Noise Coming from Inside Children 03:40
******************************
Total playing time: 12:24



[more=Technical info]
Input File: Flies - And As It Was, It Must Be So - 02 From Soil To Sky.mp3
Channels : 2
Sample Rate : 44100
Precision : 16-bit
Duration : 00:04:29.60 = 11889272 samples = 20219.9 CDDA sectors
File Size : 10.9M
Bit Rate : 323k
Sample Encoding: MPEG audio (layer I, II or III)
Comments :
Title=From Soil To Sky
Artist=Flies
Album=And As It Was, It Must Be So
Tracknumber=2
Year=2016

[/more]

Register
(13) caro, infiltrator, kim666, Olethros, randumbum, Rosen, satanist666, SilentNidhogg, Taakeferd, VALERY, varlam4, vasiljev_sergej, wreak,
Jan 31 2021, 17:02:52 Flayed God - No Lives Matter (2020)


*Artist: Flayed God
*Album: No Lives Matter
*Year: 2020
*Genre: Black Metal
*Country: United States
*Format: mp3@CBR320kbps
*Size: 81MB

Tracklist:
1. Becoming More Than Just Another Death 04:45
2. Agony 03:12
3. No Lives Matter 02:12
4. This Is Not the Way to Succeed 03:32
5. Eliminate the Source 02:36
6. The Pentagram Will Fly Again 03:20
7. Guilty 02:31
8. I Hate This World 02:35
9. Inventing Sympathy 03:31
10. Breathe for the Last Time 02:56
******************************
Total playing time: 31:10



[more=Technical info]
Input File: Flayed God - No Lives Matter - 02 Agony.mp3
Channels : 2
Sample Rate : 44100
Precision : 16-bit
Duration : 00:03:12.66 = 8496438 samples = 14449.7 CDDA sectors
File Size : 7.87M
Bit Rate : 327k
Sample Encoding: MPEG audio (layer I, II or III)
Comments :
Title=Agony
Artist=Flayed God
Album=No Lives Matter
Tracknumber=2
Year=2020

[/more]

Register
(18) AlexSmith, atavist, dan22, EirikBloodAxe, infiltrator, kim666, Marek, Olethros, randumbum, Rosen, sagratan, satanist666, SilentNidhogg, Taakeferd, VALERY, varlam4, vasiljev_sergej, wreak,
Jan 30 2021, 19:16:14 Кино - 45 (1982)
Вот до чего доводят эти ковид-ограничения! Человека до слез довели. Не может теперь во Францию съездить на дом посмотреть!
(2) Amadeus, Ghostb,
Jan 28 2021, 20:46:35 Рекорды очереди премодерации релизов
ЦИТАТА(vam1972 @ Jan 28 2021, 09:59:13) *
Напиши в личку модераторам.

Модераторы и без моих личных сообщений хорошо отработали) Даже сами нашли релиз про который я говорил)
(2) Borderline1991, infiltrator,
Jan 27 2021, 20:32:51 Рекорды очереди премодерации релизов
По ошибке в графу стиля написал название альбома. Релиз ушел в Find Area. Название стиля я исправил. Перекинуть в нужный раздел есть возможность или нужно заново оформлять?
(2) infiltrator, Occultas,
Jan 26 2021, 20:48:25 Feorhwund - Feorhwund [ep] (2021)


*Artist: Feorhwund
*Album: Feorhwund [ep]
*Year: 2021
*Genre: Black Metal
*Country: United States
*Format: mp3@CBR320kbps
*Size: 53MB

Tracklist:
1. Inwitspell 04:00
2. Dryhtenbealu I 04:49
3. Sinsorg 04:02
4. Dryhtenbealu II 06:41
******************************
Total playing time: 19:32



[more=Technical info]
Input File: Feorhwund - 2021 - Feorhwund (EP)_[metalarea.org]_by_Kazoth.rar
Channels : 2
Sample Rate : 44100
Precision : 16-bit
Duration : 00:19:38.31 = 51963515 samples = 88373.3 CDDA sectors
File Size : 55.9M
Bit Rate : 380k
Sample Encoding: MPEG audio (layer I, II or III)

[/more]

Register
(15) caro, infiltrator, kim666, Olethros, randumbum, robertho777, Rosen, satanist666, SilentNidhogg, stub888, Taakeferd, VALERY, varlam4, vasiljev_sergej, wreak,
Jan 26 2021, 20:38:51 Faded Grave - Revival Of The Darkest Seeds [demo] (2013)


*Artist: Faded Grave
*Album: Revival Of The Darkest Seeds [demo]
*Year: 2013
*Genre: Black Metal
*Country: United States
*Format: mp3@CBR320kbps
*Size: 58MB

Tracklist:
1. The Awakening of the Specter 03:28
2. Astral Turbulence 04:36
3. Andromeda 03:01
4. The Destroyer 04:34
5. ...In Desolation, Embrace Loss 08:31
******************************
Total playing time: 24:10



[more=Technical info]
Input File: Faded Grave - Revival of the Darkest Seeds - 02 Astral Turbulence.mp3
Channels : 2
Sample Rate : 44100
Precision : 16-bit
Duration : 00:04:36.57 = 12196869 samples = 20743 CDDA sectors
File Size : 11.1M
Bit Rate : 322k
Sample Encoding: MPEG audio (layer I, II or III)
Comments :
Title=Astral Turbulence
Artist=Faded Grave
Album=Revival of the Darkest Seeds
Tracknumber=2
Year=2013

[/more]

Register
(15) caro, Ildjarn, infiltrator, kim666, Olethros, randumbum, Rosen, satanist666, SilentNidhogg, stub888, Taakeferd, VALERY, varlam4, vasiljev_sergej, wreak,
Jan 24 2021, 17:57:21 Exsedum Morcerin - Dwelling In The Unconsciousness (2017)


*Artist: Exsedum Morcerin
*Album: Dwelling In The Unconsciousness
*Year: 2017
*Genre: Black Metal
*Country: United States
*Format: mp3@CBR320kbps
*Size: 71MB

Tracklist:
1. A Nords Psychotic Journey 05:45
2. False Stories of Elite Status 06:35
3. Bestowed Mystical Uprising 04:37
4. Dwelling in the Unconsciousness 08:34
5. Just Punishment from a Goddess 04:15
******************************
Total playing time: 29:46



[more=Technical info]
Input File: Exsedum Morcerin - Dwelling In The Unconsciousness - 02 False Stories Of Elite Status.mp3
Channels : 2
Sample Rate : 44100
Precision : 16-bit
Duration : 00:06:36.04 = 17465276 samples = 29702.9 CDDA sectors
File Size : 15.9M
Bit Rate : 321k
Sample Encoding: MPEG audio (layer I, II or III)
Comments :
Title=False Stories Of Elite Status
Artist=Exsedum Morcerin
Album=Dwelling In The Unconsciousness
Tracknumber=2
Year=2017

[/more]

Register
(15) AlexSmith, atavist, bOOLty, infiltrator, kim666, Marek, Olethros, randumbum, Rosen, satanist666, SilentNidhogg, Taakeferd, varlam4, vasiljev_sergej, wreak,
Jan 24 2021, 17:53:10 Excrementum Luciferi - Nos Inducas Tuum Fetidness [demo] (2013)


*Artist: Excrementum Luciferi
*Album: Nos Inducas Tuum Fetidness [demo]
*Year: 2013
*Genre: Black Metal
*Country: United States
*Format: mp3@CBR320kbps
*Size: 54MB

Tracklist:
1. Defecration (Intro) 01:58
2. The Great God Pain 03:30
3. Procession to the Primordial Mound (The Final Cult) 06:16
4. Nos Inducas Tuum Fetidness 05:29
5. Protoplasmic Genesis 04:22
******************************
Total playing time: 21:35



[more=Technical info]
Input File: Excrementum Luciferi - Nos Inducas Tuum Fetidness - 02 The Great God Pain.mp3
Channels : 2
Sample Rate : 44100
Precision : 16-bit
Duration : 00:03:30.09 = 9264881 samples = 15756.6 CDDA sectors
File Size : 8.52M
Bit Rate : 324k
Sample Encoding: MPEG audio (layer I, II or III)
Comments :
Title=The Great God Pain
Artist=Excrementum Luciferi
Album=Nos Inducas Tuum Fetidness
Tracknumber=2
Year=2013

[/more]

Register
(14) infiltrator, kim666, Olethros, randumbum, Rosen, satanist666, SilentNidhogg, smysl, Svafrlami, Taakeferd, VALERY, varlam4, vasiljev_sergej, wreak,
Jan 23 2021, 22:14:37 Новости Black-направления
ЦИТАТА(GTrooper @ Jan 23 2021, 23:48:25) *
Ты о чем? Я переиздания последние не слушал, если че.

Оно не последнее, а аж конца 90-х

ЦИТАТА(GTrooper @ Jan 23 2021, 23:48:25) *
Это ремастеринг для винилового переиздания в том числе.

Если это аналоговый ремастеринг будет (в чем я сильно сомневаюсь) то может быть в этом и будет что-то полезное....
(1) WOLAND,
Jan 23 2021, 21:30:41 Новости Black-направления
ЦИТАТА(assonik @ Jan 23 2021, 23:29:12) *
SATYRICON сообщили о том, что провели ремастеринг первых двух альбомов, Dark Medieval Times и The Shadowthrone

Кому это нужно?
(6) Alexis The Best, ent404, infiltrator, mondlicht, Paatddal, rimfrost,
Jan 23 2021, 19:32:56 Element Of Eclipse - Heretikvlt Manifesto (2015)


*Artist: Element Of Eclipse
*Album: Heretikvlt Manifesto
*Year: 2015
*Genre: Black Metal
*Country: United States
*Format: mp3@CBR320kbps
*Size: 114MB

Tracklist:
1. Fornication ov Paradise (The Lady and the Flame) 01:40
2. The Devil's Vendetta (Defiling the Echelon ov God) 05:42
3. Unholy Terror (Aberrational Evangelism) 05:43
4. HeretiKvlt Manifesto (Light Bearer Alliance) 03:21
5. Angel ov Repugnance (Complete Transmutation ov the Worm) 05:01
6. Solve et Coagula (The Measureless Becometh) 02:26
7. Prometheus Unbound (Lethal Illumination) 04:50
8. Deadly Equinox (Exorcism ov Hemispherical Division) 04:50
9. Plague Star Apocalypse (Fresh Fever from the Skies) 05:33
10. The Azoth Formula (Alchemical Warfare) 05:55
11. The Dreaming Abyss (Ordo Obscurum) 03:26
******************************
Total playing time: 48:27



[more=Technical info]
Input File: Element Of Eclipse - HeretiKvlt Manifesto - 04 HeretiKvlt Manifesto (Light Bearer Alliance).mp3
Channels : 2
Sample Rate : 44100
Precision : 16-bit
Duration : 00:03:17.63 = 8715351 samples = 14822 CDDA sectors
File Size : 7.98M
Bit Rate : 323k
Sample Encoding: MPEG audio (layer I, II or III)
Comments :
Title=HeretiKvlt Manifesto (Light Bearer Alliance)
Artist=Element Of Eclipse
Album=HeretiKvlt Manifesto
Tracknumber=4
Year=2015

[/more]

Register
(16) AlexSmith, atavist, infiltrator, kim666, kimkayoung, Olethros, randumbum, rickzammuto, Rosen, SilentNidhogg, Taakeferd, VALERY, varlam4, vasiljev_sergej, WOLAND, wreak,
Jan 23 2021, 19:29:09 Element Of Eclipse - Divine Masque Revelation (2014)


*Artist: Element Of Eclipse
*Album: Divine Masque Revelation
*Year: 2014
*Genre: Black Metal
*Country: United States
*Format: mp3@CBR320kbps
*Size: 131MB

Tracklist:
1. Sanctum Regnum (Intro) 01:44
2. Embers to Rekindle (Rebel Awakening) 05:21
3. Will ov a Magus (Blasphemors Execrations) 05:30
4. Vanquish the Firmament (Conjuring ov the Secret Gate) 05:07
5. The Cyclic Apocalypse Is the Creation 02:45
6. Ceremony ov Isis (Mistress ov Constellations) 05:29
7. Abstract Transcendence (Me from Myself to Banish) 06:03
8. Wrath ov the Fireborn (Hear Thou, the Voice ov Fire) 05:11
9. The Splendid Lights and Bloodstained Celestel Spheres 02:43
10. Occultum Astrum Luminous (Path ov the Adeptus) 05:15
11. Pneumatic Philosophus (Spirit ov the Self-initiated) 05:56
12. Ancient Winds Escape the Cosmic Machine 03:35
******************************
Total playing time: 54:39



[more=Technical info]
Input File: Element Of Eclipse - Divine Masque Revelation - 02 Embers to Rekindle (Rebel Awakening).mp3
Channels : 2
Sample Rate : 44100
Precision : 16-bit
Duration : 00:05:16.88 = 13974496 samples = 23766.1 CDDA sectors
File Size : 12.8M
Bit Rate : 324k
Sample Encoding: MPEG audio (layer I, II or III)
Comments :
Title=Embers to Rekindle (Rebel Awakening)
Artist=Element Of Eclipse
Album=Divine Masque Revelation
Tracknumber=2
Year=2014

[/more]

Register
(4) AlexSmith, kimkayoung, SilentNidhogg, varlam4,
Jan 23 2021, 18:13:57 Matriarkathum - Curse You All Men! [demo] (2020)
Так и до Tolerastic Black Metal недалеко)
(1) nsk2008,
Jan 16 2021, 22:01:20 Dísablót - Ii [demo] (2015)


*Artist: Dísablót
*Album: Ii [demo]
*Year: 2015
*Genre: Black Metal
*Country: United States
*Format: mp3@CBR320kbps
*Size: 37MB

Tracklist:
1. The Charnel House 05:17
2. Suicide in Hate 04:28
3. Devoid of Color and Light 06:05
******************************
Total playing time: 15:50



[more=Technical info]
Input File: Dísablót - Demo II - 01 The Charnel House.mp3
Channels : 2
Sample Rate : 44100
Precision : 16-bit
Duration : 00:05:16.60 = 13961840 samples = 23744.6 CDDA sectors
File Size : 12.7M
Bit Rate : 321k
Sample Encoding: MPEG audio (layer I, II or III)
Comments :
Title=The Charnel House
Artist=Dísablót
Album=Demo II
Tracknumber=1
Year=2020

[/more]

Register
(13) infiltrator, kim666, Olethros, Pathologistov, randumbum, Rosen, SilentNidhogg, stub888, Taakeferd, VALERY, varlam4, vasiljev_sergej, wreak,
Jan 16 2021, 21:41:08 Druid - The Ways Of Thule [ep] (2020)


*Artist: Druid
*Album: The Ways Of Thule [ep]
*Year: 2020
*Genre: Black Metal
*Country: United States
*Format: mp3@CBR320kbps
*Size: 47MB

Tracklist:
1. Look to the Iron Gates 08:08
2. Kali Yuga 07:43
3. Gothi 04:00
******************************
Total playing time: 19:51



[more=Technical info]
Input File: Druid - The Ways Of Thule - 01 Look To The Iron Gates.mp3
Channels : 2
Sample Rate : 44100
Precision : 16-bit
Duration : 00:08:08.91 = 21560843 samples = 36668.1 CDDA sectors
File Size : 19.6M
Bit Rate : 321k
Sample Encoding: MPEG audio (layer I, II or III)
Comments :
Title=Look To The Iron Gates
Artist=Druid
Album=The Ways Of Thule
Tracknumber=1
Year=2020

[/more]

Register
(19) aleon, caro, kim666, Morgoth666, nemx, Olethros, randumbum, Raw1488, robertho777, Rosen, SaintVitus, SilentNidhogg, SSBandera, stub888, Taakeferd, VALERY, varlam4, vasiljev_sergej, wreak,
Jan 16 2021, 21:24:21 Dracolich - Dracolich (2020)


*Artist: Dracolich
*Album: Dracolich
*Year: 2020
*Genre: Black Metal
*Country: United States
*Format: mp3@CBR320kbps
*Size: 75MB

Tracklist:
1. The Sun Breaks Through 01:01
2. Leaving It All Behind 02:55
3. Where I Lost it All 01:35
4. Mountain Forest 02:45
5. What Lurks in the Night 04:08
6. Bring Out Your Dead 01:35
7. Necrocunt 02:07
8. Imprisoned by Sorrow 02:20
9. Depths Uncharted 02:25
10. Into the Deep Dark Caverns 01:45
11. Frigid Wastes of the Northlands 03:13
12. Destined to Reign 02:37
13. Fabled Riches Lost Within Perilous Seas 02:37
******************************
Total playing time: 31:03



[more=Technical info]
Input File: Dracolich - Dracolich - 02 Leaving it all Behind.mp3
Channels : 2
Sample Rate : 44100
Precision : 16-bit
Duration : 00:02:55.08 = 7721116 samples = 13131.1 CDDA sectors
File Size : 7.12M
Bit Rate : 325k
Sample Encoding: MPEG audio (layer I, II or III)
Comments :
Title=Leaving it all Behind
Artist=Dracolich
Album=Dracolich
Tracknumber=2
Year=2020

[/more]

Register
(20) AlexSmith, Amadeus, atavist, caro, El_Chibo, infiltrator, kim666, multizwilling, obituarydark, Olethros, Rosen, satanist666, SilentNidhogg, stub888, Taakeferd, thenecromancer, VALERY, varlam4, vasiljev_sergej, wreak,
Jan 16 2021, 20:09:50 Drachenord - Passage I (2013)


*Artist: Drachenord
*Album: Passage I
*Year: 2013
*Genre: Black Metal
*Country: United States
*Format: mp3@CBR320kbps
*Size: 74MB

Tracklist:
1. Envisioned 03:50
2. The Order 04:23
3. Archon 06:01
4. Fate 03:14
5. Passage I 10:16
6. The Vision Key 03:38
******************************
Total playing time: 31:22



[more=Technical info]
Input File: Drachenord - Passage I - 02 The Order.mp3
Channels : 2
Sample Rate : 44100
Precision : 16-bit
Duration : 00:04:23.54 = 11621982 samples = 19765.3 CDDA sectors
File Size : 10.6M
Bit Rate : 322k
Sample Encoding: MPEG audio (layer I, II or III)
Comments :
Title=The Order
Artist=Drachenord
Album=Passage I
Tracknumber=2
Year=2013

[/more]

Register
(17) atavist, caro, infiltrator, kim666, Morgoth666, Olethros, randumbum, robertho777, Rosen, satanist666, SilentNidhogg, stub888, Taakeferd, VALERY, varlam4, vasiljev_sergej, wreak,

67 Pages V   1 2 3 > » 
- Lo-Fi Version Support form
Copyrights and abuse reports form
Time is now: 18th May 2021 - 15:54:23