Welcome Guest ( Log In | Register )

Объявления

* gmail.com упорно продолжает считать почту с нас "unsolicited" и отбивает в том числе и письма активации, поэтому просьба использовать альтернативные почтовые ящики.
------------
* gmail.com continues reject all mail from us as "unsolicited" (activation mails too) therefore please use alternate mail servers.
История благодарностей участнику Kazoth ::: Спасибо сказали: 9430 раз(а)
Дата поста: В теме: За сообщение: Спасибо сказали:
Jul 8 2024, 20:53:49 Urgehal - Arma Christi (1997)
ЦИТАТА(Grummegargler @ Jul 8 2024, 22:39:14) *
Просто здесь звук ооооочень тихий и очень глухой... Но наверняка в этом и состоит музыкальная задумка и TRVE CVLT!)

Для этого есть ручка громкости и эквалайзер)
(1) Occultas,
Jul 8 2024, 20:34:11 Urgehal - Arma Christi (1997)
А кто вообще сказал что ремастер существует в природе?
(1) Occultas,
Jul 4 2024, 20:05:46 Sear Bliss - Heavenly Down (2024)
Нормальная тема! Неожиданно порадовали!
(1) Occultas,
Jun 28 2024, 14:49:15 Limbonic Art - Opus Daemoniacal (2024)
ЦИТАТА(vosmidesijatye @ Jun 28 2024, 16:13:12) *
куртка с мехом на плечах - несерьезна все это, несерьезна.

Завидуй молча)
(3) DarkHorde, Genuine Thrashiac, Occultas,
May 25 2024, 19:24:34 Deep Purple - Portable Door [single] (2024)
Судя по формату обложки - планировался кассетный релиз?
(1) Genuine Thrashiac,
May 10 2024, 14:27:28 Burzum - The Land Of Thulê (2024)
Я не понял, а зачем New в скобочках?
(4) KingBrude, mardak666, Metalass, yarrsuaa,
May 4 2024, 17:23:06 Troglodytic - Det Skogs Drøm [ep] (2000)
ЦИТАТА(crevardo @ May 4 2024, 02:06:50) *
plz reup thx

done
(1) crevardo,
May 4 2024, 17:22:45 Troglodytic - Over Det Majestetisk Skoger [ep] (2000)
ЦИТАТА(crevardo @ May 4 2024, 02:07:08) *
plz reup

done
(1) crevardo,
Mar 11 2024, 20:40:40 Helveteskrypt - D​ø​dens Prest (2023)
На сколько ж норвежский БМ деградировал за 30 лет!
Из современных неплохих из последнего прослушанного Motstand норм так зашел...
(1) Bzth,
Feb 26 2024, 19:50:04 Darkthrone - Goatlord (1996)
ЦИТАТА(Terrorizer @ Feb 26 2024, 13:16:44) *
Забавно ... Фенриз всегда говорил, что ничего кроме прикола в этом нет. Какие вы тут ищете музыкальные свершения ...

Все шедевры пишутся на серьезных щщах?
(1) DarkHorde,
Feb 18 2024, 21:43:39 Nyogthaeblisz - Abrahamic Godhead Manifested By Adversarial Usurpation (2019)
Название альбома неправильно написано
(1) Occultas,
Feb 17 2024, 20:04:57 Sepultura - Schizophrenia (1987)
ЦИТАТА(6666666 @ Feb 17 2024, 14:08:01) *
Альбом нужно перезаписать.

Зачем?
(2) DMIYUR, thenecromancer,
Feb 2 2024, 23:19:25 Why so many 320 mp3 releases? (1) hrsurvives,
Jan 21 2024, 13:37:44 Sorcier Des Glaces - Ritual Of The End (2014)
ЦИТАТА(Purestenchkvlt @ Jan 21 2024, 09:08:28) *
can someone please reup?

Register
(2) Purestenchkvlt, Schandmaske,
Nov 18 2023, 15:35:22 Tangorodrim - Unholy And Unlimited (2003)
ЦИТАТА(trixxxtar @ Nov 18 2023, 15:10:00) *
перезалейте в 320 пжл

Register
(1) wreak,
Sep 25 2023, 16:37:01 Правда ли, что Goat Black совсем не Black?
ЦИТАТА
если прислушаться и разобраться: сборная солянка брутал стилей и грязи

Ну примерно так и есть
(2) Genuine Thrashiac, Occultas,
Sep 2 2023, 11:55:32 Pan . Thy . Monium - Dream Ii [ep] [reissue 1995] (1991)


320 kbps
Register
(4) canadaspaceman, empire13, kimkayoung, Occultas,
Aug 21 2023, 18:24:18 Nocte Obducta - Karwoche - Die Sonne Der Toten Pulsiert (2023)
Как вы заколебали, черти! Начинайте уже альбом обсуждать!
(1) Chasm,
Aug 13 2023, 20:55:44 Ледовая Пустошь - Никто (1998)


*Artist: Ледовая Пустошь
*Album: Никто
*Year: 1998
*Genre: Dungeon Synth/Ambient
*Country: Russian Federation
*Format: mp3@CBR320kbps
*Size: 99MB

Tracklist:
01. Туман
02. Снежная Королева
03. Замерзший Дух
04. Когда
05. Злая
06. Добрыня И Змей
07. Хозяин Ледовой Пустоши
08. Хлад
09. Город
10. Все Жертвы
11. Наигрыш
******************************
Total playing time: 41:04

[more=Extended info]ex-Словиша[/more]

[more=Technical info]
Input File: Ледовая Пустошь - 01 - Туман.mp3
Channels : 2
Sample Rate : 44100
Precision : 16-bit
Duration : 00:02:47.67 = 7394071 samples = 12575 CDDA sectors
File Size : 6.71M
Bit Rate : 320k
Sample Encoding: MPEG audio (layer I, II or III)
Comments :
Title=Туман
Artist=Ледовая Пустошь
Album=Никто
Tracknumber=01
Year=1998

[/more]

Register
(9) Aresson, Branis, Emhyr var Emreis, ent404, Grev, Infidel, Raw1488, VALERY, vlad74,
Aug 13 2023, 18:29:56 Словиша - Сказки (1997)


*Artist: Словиша
*Album: Сказки
*Year: 1997
*Genre: Slavonic Dungeon Synth
*Country: Russian Federation
*Format: mp3@CBR320kbps
*Size: 93MB

Tracklist:
1 ЛАДА
2 Купала
3 Сё Быша…
4 В Лесу
5 Битва Снегов
6 Поход Туда, Где Не Видно Звёзд
******************************
Total playing time: 38:55

[more=Technical info]
Input File: Словиша - 02 - Купала.mp3
Channels : 2
Sample Rate : 48000
Precision : 16-bit
Duration : 00:02:01.13 = 5814288 samples ~ 9084.82 CDDA sectors
File Size : 4.85M
Bit Rate : 320k
Sample Encoding: MPEG audio (layer I, II or III)
Comments :
Title=Купала
Artist=Словиша
Album=Сказки
Tracknumber=02
Year=1997

[/more]

Register
(9) Branis, Emhyr var Emreis, Grev, helvetesrike, mizantrophist, nadin85, Raw1488, VALERY, vlad74,
Aug 13 2023, 18:23:26 Словиша - Предание Волхва (1996)


*Artist: Словиша
*Album: Предание Волхва
*Year: 1996
*Genre: Slavonic Dungeon Synth
*Country: Russian Federation
*Format: mp3@CBR320kbps
*Size: 69MB

Tracklist:
1. Сказание старого викинга 03:51
2. Словиша 02:44
3. Ansuz 01:31
4. Перуня 02:31
5. Лада и Леля (Погани суще...) 01:23
6. Asatru 01:38
7. Thor 02:26
8. Солнце-Царь (Дажьбог) 01:35
9. Ход гномов 04:01
10. Русь 03:27
11. Княгиня Ольга 03:37
******************************
Total playing time: 28:44

[more=Technical info]
Input File: Словиша - 01 - Сказание старого Викинга.mp3
Channels : 2
Sample Rate : 44100
Precision : 16-bit
Duration : 00:03:51.59 = 10213163 samples = 17369.3 CDDA sectors
File Size : 9.27M
Bit Rate : 320k
Sample Encoding: MPEG audio (layer I, II or III)
Comments :
Title=Сказание старого Викинга
Artist=Словиша
Album=Предание Волхва
Tracknumber=01
Year=1996

[/more]

Register
(6) Branis, Emhyr var Emreis, mizantrophist, Raw1488, VALERY, vlad74,
Aug 5 2023, 20:31:48 Tma - Kysucký Chlad (2023)
Да это же Burzum!
(2) judaz, smysl,
Jul 30 2023, 17:10:06 Reverorum Ib Malacht - Kyrie Eleison (2023)
Перевод 3-го трека гуглом-переводчиком если оригинал пометить как беларусский headcrab.png : "Господи, я цру от Иова… Позвольте мне фраеру быть поставленным перед Иовом как интенсивный"
P.S. Альбом - ад адский!
(2) Chasm, Occultas,
Jul 25 2023, 19:37:16 Коррозия Металла - Власть Зла [demo] (1985)
ЦИТАТА(Moonshtook @ Jul 25 2023, 01:04:35) *
Ссылка не открывается

Ссылка рабочая, но добавил mail.ru
(1) Occultas,
Jul 24 2023, 20:38:42 Какие метал альбомы на Ваш взгляд нуждаются в перезаписи?
А вспомнил - Маталлика '88 1488.gif
(2) DMIYUR, Occultas,

73 Pages V   1 2 3 > » 
- Lo-Fi Version Support form
Copyrights and abuse reports form
Time is now: 13th July 2024 - 05:24:01