Welcome Guest ( Log In | Register )

История благодарностей участнику Kazoth ::: Спасибо сказали: 8940 раз(а)
Дата поста: В теме: За сообщение: Спасибо сказали:
Dec 29 2021, 21:20:49 Hatefrost & Wolfenburg - Tęsknota Przeszłych Czasów [split] (2021)
ЦИТАТА(Winterkalte @ Dec 29 2021, 22:35:55) *
У них на обложке волки из мегатрушного фильма про жутких вампиров и оборотней "сумерки"

Это фиаско, братан)
(2) rominow, Storky,
Dec 22 2021, 21:36:12 Krolok - Funeral Winds & Crimson Sky (2021)
Слышу что пытались олдскульный звук сделать, больше ничего не слышу... До Гехенны как до луны пешком...
Как хорошо выше подмечено - музыка сделанная по лекалам...
(4) ent404, Phantom_Voodoo, Storky, WOLAND,
Dec 19 2021, 20:23:35 Maskim & Stygian - Unified Evil [split] (2002)


320kbps

Register
(4) INDARKNESS, kim666, satanist666, varlam4,
Dec 3 2021, 17:12:49 Black metal top-2021
ЦИТАТА(Alexis The Best @ Dec 3 2021, 10:05:04) *
а что же вы, товарищи, про Некромантию забыли? Ведь достойнейший посмертный релиз

Necromantia закончилась после второго альбома.
...ну последний альбом ровненький такой, без откровений...
(2) energo68, sabr,
Dec 2 2021, 20:09:11 Whoredom Rife - Winds Of Wrath (2021)
Очень добротный альбом!
Особенно A thousand Graves Endured и Einride понравились...
(1) Occultas,
Dec 2 2021, 18:57:22 Black metal top-2021
Fluisteraars ‎– Gegrepen Door De Geest Der Zielsontluiking
Niedergang - Átkoskönyv
(3) Daale, maxxxy, Storky,
Nov 28 2021, 21:42:19 Orlok - The Dark Knell (2021)
ЦИТАТА(ent404 @ Nov 28 2021, 15:43:24) *
послушал второй раз.
реальная параша.

С первого раза не понял?)
(1) Bekkerev,
Nov 25 2021, 20:59:41 Begotten - Nothing Worth Remembering [ep] (2021)
ЦИТАТА(Frisian @ Nov 25 2021, 19:47:07) *
перезалейте, пожалуйста pray.gif

MEGA живая
(1) thenecromancer,
Nov 16 2021, 16:24:37 Mork - Rota Til Ondskap [demo] (2007)


*Artist: Mork
*Album: Rota Til Ondskap [demo]
*Year: 2007
*Genre: Black Metal
*Country: Norway
*Format: mp3@CBR320kbps
*Size: 104MB

Tracklist:
1. Vandring inn i mørket
2. Hull i skogbunn
3. Hedningfølge over viddene
4. Brenn i helvete
5. Før kristen tid
6. Reise til dødsriket
7. Rota til ondskap
8. Vi jakter kun i måneskinn
9. Blod og kvist
10. Etterfulgt av skytsengler
11. Marevise (Original version)
12. Det gamle og det glemte
******************************
Total playing time: 42:54

[more=Extended info]Виниловое переиздание 2020 года с четырьмя бонус-треками[/more]

[more=Technical info]
Input File: 02. Hull I Skogbunn.mp3
Channels : 2
Sample Rate : 48000
Precision : 16-bit
Duration : 00:04:07.18 = 11864592 samples ~ 18538.4 CDDA sectors
File Size : 9.89M
Bit Rate : 320k
Sample Encoding: MPEG audio (layer I, II or III)
Comments :
Title=Hull I Skogbunn
Artist=Mork
Album=Rota Til Ondskap
Tracknumber=02
Year=2020
Genre=Black Metal
Discnumber=1

[/more]

Register
(17) artscald, cancer1974, caro, ger_man_thorn, Hell_Is_Here, kim666, kryptor, Marek, noel666, Olethros, Reverend, smes, stormhatt, VALERY, varlam4, vasiljev_sergej, wreak,
Nov 16 2021, 15:03:04 Nord - Dood (2011)
ЦИТАТА(MadCarrot @ Nov 15 2021, 23:05:13) *
Можно новую ссылку?
Спасибо

Nord - Dood (2011) [post #1198669]
(1) MadCarrot,
Nov 16 2021, 14:55:54 Whoredom Rife - Winds Of Wrath (2021)
ЦИТАТА(Woodsmoke @ Nov 15 2021, 21:26:43) *
качественный маркетинг помогает продавать. smile1.gif

Ага, надоела эта навязчивая реклама перед каждым выпуском новостей
(2) Occultas, Storky,
Nov 4 2021, 00:11:33 Ordo Templi Aeternae Lucis & Hayras - Ode Aux Annйes Froides / Terroristes De La Foi [split] (2002)
Register
(4) blaskhyrk, kvltntr00, vasiljev_sergej, wreak,
Nov 3 2021, 21:17:31 Fluisteraars - Gegrepen Door De Geest Der Zielsontluiking (2021)
Просто о12.gifуенно!
(2) Chasm, ent404,
Oct 31 2021, 19:53:32 Ulver - Scary Muzak (2021)
Ульвер предали идеалы тру норвегиан блэк метала! Стыд и срам им за это!
А народ все покупается на вывеску - вдруг они на этом альбоме вернуться к истокам.
Вот за счет этого Ульвер и существует... уже лет так 25....
(4) Baudolino, ent404, randyhermit, Storky,
Aug 20 2021, 20:54:52 Helheim - Helheim [demo] (1994)


Register
(4) dermarsoran, thenecromancer, Vitald, wreak,
Jul 30 2021, 19:46:51 Inferno - Paradeigma (Phosphenes Of Aphotic Eternity) (2021)
Гореть тебе в аду за непронумерованные треки без папки 25.gif
(2) Alexis The Best, Ash_1980,
Jul 26 2021, 21:43:24 Varde - Fedraminne (2020)
Register
(4) hellbibber, MadCarrot, SortVokter, TDM,
Jul 26 2021, 21:37:14 Varde - Fedraminne (2020)
Очередной достойный альбом прошел практически незамеченным на арейке....
(1) xnohuman,
Jul 6 2021, 16:58:12 Moonfog 2000 - A Different Perspective (1) Occultas,
Jul 5 2021, 09:56:36 Крутейшие Black Thrash Metal творения
Hellsermon - Caressed by Hellfire (Demo)
(1) Tarelka,
Jul 2 2021, 21:54:37 Therm . Eye . Flame - Solar Nebula (2002)
Первый трек тут вообще хитяра!
(1) Occultas,
Jun 26 2021, 15:47:06 Darkthrone - Eternal Hails...... (2021)
ЦИТАТА(Deze @ Jun 26 2021, 17:40:35) *
Ну, блин, я же не знал. У него репутация не очень удачного альбома группы

Это один из самых удачных альбомов группы.
(3) energo68, ent404, infiltrator,
Jun 26 2021, 15:37:37 Darkthrone - Eternal Hails...... (2021)
ЦИТАТА(Deze @ Jun 26 2021, 17:36:29) *
Так это же из дэтового периода. И именно Гоэтлорд я не слушал, только Джоней. Имеет, говоришь, смысл?

Конечно имеет, он не похож ни на один альбом Darkthrone.
(3) energo68, ent404, infiltrator,
Jun 14 2021, 21:56:33 Satanism - Whore Of Death [ep] (2021)
ЦИТАТА(avather @ Jun 13 2021, 19:50:11) *
Оригинальное название facessspalm.png

Знаешь еще группы с таким названием?)
(1) Occultas,
Jun 10 2021, 21:24:35 Armagedda - Ond Spiritism (2004)
ЦИТАТА(Metalass @ Jun 10 2021, 16:27:54) *
По странной причине данный альбом - мой самый нелюбимый. Он показался мне слишком однообразным.

Первый шаг на пути к соплежуйству Ланндома и ЛИКа
(1) Zyozic_Bandutto,

70 Pages V  < 1 2 3 4 > » 
- Lo-Fi Version Support form
Copyrights and abuse reports form
Time is now: 3rd December 2022 - 17:29:36