Welcome Guest ( Log In | Register )

История благодарностей участнику Kazoth ::: Спасибо сказали: 8593 раз(а)
Дата поста: В теме: За сообщение: Спасибо сказали:
Jan 8 2021, 17:31:46 Dark Watcher - Dark Watcher [ep] (2019)


*Artist: Dark Watcher
*Album: Dark Watcher [ep]
*Year: 2019
*Genre: Black Metal
*Country: United States
*Format: mp3@CBR320kbps
*Size: 68MB

Tracklist:
1. Scalp Hunter 08:04
2. Garroters 05:33
3. Outsiders 06:03
4. Buffalo 08:33
******************************
Total playing time: 28:13



[more=Technical info]
Input File: Dark Watcher - Dark Watcher - 02 Garroters.mp3
Channels : 2
Sample Rate : 44100
Precision : 16-bit
Duration : 00:05:33.45 = 14704925 samples = 25008.4 CDDA sectors
File Size : 13.4M
Bit Rate : 322k
Sample Encoding: MPEG audio (layer I, II or III)
Comments :
Title=Garroters
Artist=Dark Watcher
Album=Dark Watcher
Tracknumber=2
Year=2019

[/more]

Register
(17) artscald, foreverisforgotten, infiltrator, kim666, Olethros, Ostinato, randumbum, robertho777, Rosen, SilentNidhogg, Taakeferd, VALERY, varg-38ru, varlam4, vasiljev_sergej, Wail, wreak,
Jan 8 2021, 16:24:17 Darcroven - The Lost Ghosts, Vol. I [compilation] (2017)


*Artist: Darcroven
*Album: The Lost Ghosts, Vol. I [compilation]
*Year: 2017
*Genre: Black Metal
*Country: United States
*Format: mp3@CBR320kbps
*Size: 141MB

Tracklist:
1. The Voyager 09:23
2. The Descending 08:03
3. The Path of No Return 08:24
4. Through the Doorway 02:31
5. The Day He Became Lost 11:37
6. When the Sky Fell 03:17
7. Another Tempest Laden Night 15:36
******************************
Total playing time: 58:51



[more=Technical info]
Input File: Darcroven - Darcroven-The Lost Ghosts, Vol. I - 04 Through the Doorway.mp3
Channels : 2
Sample Rate : 44100
Precision : 16-bit
Duration : 00:02:31.91 = 6699231 samples = 11393.2 CDDA sectors
File Size : 6.27M
Bit Rate : 330k
Sample Encoding: MPEG audio (layer I, II or III)
Comments :
Title=Through the Doorway
Artist=Darcroven
Album=Darcroven-The Lost Ghosts, Vol. I
Tracknumber=4
Year=2017

[/more]

Register
(15) artscald, foreverisforgotten, infiltrator, kim666, Olethros, randumbum, Rosen, SilentNidhogg, supremo, Taakeferd, VALERY, varlam4, vasiljev_sergej, Wail, wreak,
Jan 8 2021, 16:22:33 Darcroven - The Imploding (2011)


*Artist: Darcroven
*Album: The Imploding
*Year: 2011
*Genre: Black Metal
*Country: United States
*Format: mp3@CBR320kbps
*Size: 154MB

Tracklist:
1. The Implosion 08:47
2. This Burdened Archetype 08:20
3. Disintegrated 03:33
4. Self-Imposed Vortex 10:25
5. Threnody 06:51
6. Ambivalence Rising 09:05
7. Noctambulant 07:55
8. Darcroven 09:43
******************************
Total playing time: 1:04:39



[more=Technical info]
Input File: Darcroven - The Imploding - 03 Disintegrated.mp3
Channels : 2
Sample Rate : 44100
Precision : 16-bit
Duration : 00:03:34.06 = 9440002 samples = 16054.4 CDDA sectors
File Size : 8.72M
Bit Rate : 326k
Sample Encoding: MPEG audio (layer I, II or III)
Comments :
Title=Disintegrated
Artist=Darcroven
Album=The Imploding
Tracknumber=3
Year=2011

[/more]

Register
(17) artscald, atavist, foreverisforgotten, infiltrator, kim666, Olethros, randumbum, robertho777, Rosen, SilentNidhogg, Svafrlami, Taakeferd, VALERY, varlam4, vasiljev_sergej, Wail, wreak,
Jan 8 2021, 14:47:00 Sallah - Avp Ep [ep] (2016)


*Artist: Sallah
*Album: Avp Ep [ep]
*Year: 2016
*Genre: Black/Thrash Metal
*Country: United States
*Format: mp3@CBR320kbps
*Size: 38MB

Tracklist:
1. The Skull Collector 04:19
2. LV-426 09:10
******************************
Total playing time: 13:29



[more=Technical info]
Input File: Sallah - AVP EP - 01 The Skull Collector.mp3
Channels : 2
Sample Rate : 44100
Precision : 16-bit
Duration : 00:04:19.91 = 11461855 samples = 19493 CDDA sectors
File Size : 10.6M
Bit Rate : 325k
Sample Encoding: MPEG audio (layer I, II or III)
Comments :
Title=The Skull Collector
Artist=Sallah
Album=AVP EP
Tracknumber=1
Year=2016

[/more]

Register
(15) boby9052, foreverisforgotten, infiltrator, METALHUNTER, Olethros, Rosen, sergsazan, SilentNidhogg, stumpheavyrock, Taakeferd, VALERY, varlam4, vasiljev_sergej, Wail, wreak,
Jan 8 2021, 14:21:44 Doom Lit Sky - Doom Lit Sky [ep] (2010)


*Artist: Doom Lit Sky
*Album: Doom Lit Sky [ep]
*Year: 2010
*Genre: Black Metal
*Country: United States
*Format: mp3@CBR320kbps
*Size: 30MB

Tracklist:
1. Disgust 05:16
2. Ogre Seed 04:39
3. Call to Arms 02:53
******************************
Total playing time: 12:48



[more=Technical info]
Input File: Doom Lit Sky - EP - 03 Call to Arms.mp3
Channels : 2
Sample Rate : 44100
Precision : 16-bit
Duration : 00:02:53.72 = 7661184 samples = 13029.2 CDDA sectors
File Size : 6.98M
Bit Rate : 321k
Sample Encoding: MPEG audio (layer I, II or III)
Comments :
Title=Call to Arms
Artist=Doom Lit Sky
Album=EP
Tracknumber=3
Year=2010

[/more]

Register
(13) foreverisforgotten, infiltrator, kim666, Olethros, randumbum, Rosen, SilentNidhogg, Taakeferd, VALERY, varlam4, vasiljev_sergej, Wail, wreak,
Jan 8 2021, 13:46:25 Alrunes - Wolves Lament (2013)


*Artist: Alrunes
*Album: Wolves Lament
*Year: 2013
*Genre: Black Metal
*Country: United States
*Format: mp3@CBR320kbps
*Size: 88MB

Tracklist:
1. The Might of Death 04:03
2. Wolves Lament 06:07
3. The Wizard's Ride 09:47
4. Snow Field 05:05
5. Beyond the Reach of Sails 10:48
******************************
Total playing time: 35:50



[more=Technical info]
Input File: Alrunes - Wolves Lament - 01 The Might of Death.mp3
Channels : 2
Sample Rate : 44100
Precision : 16-bit
Duration : 00:04:03.53 = 10739497 samples = 18264.5 CDDA sectors
File Size : 9.82M
Bit Rate : 322k
Sample Encoding: MPEG audio (layer I, II or III)
Comments :
Title=The Might of Death
Artist=Alrunes
Album=Wolves Lament
Tracknumber=1
Year=2013

[/more]

Register
(18) AlexSmith, atavist, foreverisforgotten, Hell_Is_Here, infiltrator, kim666, Olethros, randumbum, Rosen, SilentNidhogg, Taakeferd, toly1917, VALERY, varg-38ru, varlam4, vasiljev_sergej, Wail, wreak,
Jan 1 2021, 20:38:07 Uaral - From The Agony To The Hopelessness [demo] (1998)
Register
(3) infiltrator, James817, thenecromancer,
Dec 13 2020, 20:00:05 Urfaust - Teufelsgeist (2020)
Классная штука... гипнотически-атмосферная...
(1) dsp,
Dec 13 2020, 17:07:00 Лучший советчик МА - Часть 12 (МДМ) - Тур 2, Рейтингование
A Canorous Quintet - Silence of the World Beyond +1
A Soul Called Perdition - Into The Formless Dawn +1
An Abstract Illusion - Illuminate The Path +2
Auberon - The Tale Of Black 0
Aurora - Eos +1
Autumn Leaves - As Night Conquers Day +1
Blood Rainbow - Upheaval +2
Bloodshot Dawn - Demons +1
Brotthogg - Echoes of the Past +2
Compos Mentis - Fragments Of A Withered Dream +2
Crown of Autumn - Treasures Arcane +2
Dark Oath - When Fire Engulfs The Earth +1
Deathless - The Time To Be Immortal +1
Decameron - My Shadow +1
Dies Irae - Naïve +1
Dispatched - Terrorizer +2
Dulcamara - Anatómicamente Imperfecto +2
Ebony Tears - Tortura Insomniae +1
Ego Fall - Inner M +1
Garden Of Shadows - Oracle Moon +2
Gathering of Obscurity - The Pain of Humiliation +2
Invisius - The Spawn of Condemnation +1
Khrysaor - Chaos +1
Lothlorien - The Primal Event +1
Lucis Absentia - Gehenna Gate +1
Malefactor - Centurian +1
Malevolence - Martyrialized +2
Mourning Caress – Imbalance 0
Orpheus - So It Begins... (EP) +1
Sacrilege - Lost In The Beauty You Slay +1
Searing Meadow - Corroding From Inside +2
Serenity In Murder - The Eclipse +2
Sinira - The Everlorn +2
Templestowe - Cimmerian +1
The Wake - Ode To My Misery +1
Unmoored - Indefinite Soul-Extension +2
Withering Surface - Scarlet Silhouettes +2
Yuzukingdom - Dadaism 0
(5) Daale, Deze, Emm Human, infiltrator, xax,
Dec 12 2020, 21:42:08 Abigor - Totschläger (A Saintslayer's Songbook) (2020)
Кстати, тоже не услышал тут раннего творчества, во всяком случае явного... альбом больше с последними работами ассоциируется...
(3) Chasm, infiltrator, nsk2008,
Dec 7 2020, 15:49:46 Panphage - Jord (2018)
Register
(2) scrollbar, smes,
Dec 5 2020, 19:45:44 Evilfeast & Uuntar - Odes To Lands Of Past Traditions [split] (2020)
Отличный сплит! Uuntar не затерялся на фоне более именитого поляка...
(1) ent404,
Dec 4 2020, 21:27:05 The Abyss - Summon The Beast (1997)

320kbps
Register
(5) FullofHate, infiltrator, juancarock, legion01, yarrsuaa,
Nov 24 2020, 19:37:55 Neige Et Noirceur
ЦИТАТА(gnosiis @ Nov 24 2020, 06:26:24) *
20 числа вышла новая о работа Bach - Preludium Minor хотелось бы здесь это увидеть...

Ну так сделай запрос в соответствующей теме...
(2) gnosiis, infiltrator,
Nov 8 2020, 21:03:50 Лучший советчик МА - Часть 12 (МДМ) - Тур 1, Общий сбор
Midvinter - At the Sight of the Apocalypse Dragon (1997)
(3) avather, Deze, infiltrator,
Nov 2 2020, 20:48:28 Neige Et Noirceur - Hymnes De La Montagne Noire (2011)
320kbps
Register
(6) igore2911, infiltrator, MadCarrot, Purestenchkvlt, thenecromancer, varlam4,
Nov 1 2020, 21:06:47 Nocte Obducta - Sequenzen Einer Wanderung (2008)

Register
(6) gena, infiltrator, kimkayoung, MadCarrot, smes, thenecromancer,
Nov 1 2020, 18:57:57 Лучший советчик МА - Часть 11 (Готик) - Тур 2, Рейтингование
Antichrisis - Cantara Anachoreta +1
Autumnblaze - DämmerElbenTragödie +1
Beyon-D-Lusion – Intuispection 0
Con Anima - The Book Of Riddles 0
Dawn Of Dreams - Amber +2
Diathra - My Endless Sorrow 0
Dies Irae - Etherial +1
Elegeion - Through The Eyes Of Regret +2
Elizium - Relief By The Sun +1
Eterne - Deadauthor +1
Havayoth (Ancient Wisdom-side) - His Creation Reversed +2
Hefeystos - Psycho Café +1
Interitus Dei - Unholy 0
Light Of The Morning Star ‎- Nocta +3
Little Dead Bertha - Two Sides +1
Maelström – Maelstrom +1
Mordor - The Earth +1
Myriads - In Spheres Without Time +1
Myriads – Introspection +1
Nefilim (Fields Of The Nephilim-side) - Zoon 0
Öxxö Xööx - Rëvëürt +2
Painted Black - Cold Comfort +1
Regardless Of Me - The World Within 0
Savn - Savn +1
Sundown (Cemetary-side) - Design 19 +1
The Equinox Ov Gods - Fruits And Flowers Of The Spectral Garden +1
The Provenance - How Would You Like to Be Spat At 0
To Cast A Shadow - All Alone 0

Ничего до этого не слушал...
(3) acerbus, Daale, infiltrator,
Oct 28 2020, 20:17:28 Te Ruki - E Tika Mateu [ep] (2020)
ЦИТАТА(garmonbozia @ Oct 28 2020, 21:49:50) *
ne te nogi.

Те ноги в четвертой песне
(3) Kwaad, SaintVitus, smysl,
Oct 24 2020, 19:07:23 Myrkur - Folkesange (2020)
Альбом очень понравился, есть несколько запоминающихся вещей, можно сказать хитовых. Да и музыки тут по моему предостаточно...
(2) Deze, Exorcist,
Oct 11 2020, 16:47:09 Manowar - Battle Hymns (1982)
ЦИТАТА(Deze @ Oct 11 2020, 15:07:18) *
А насчёт слабейшего из альбомов 80-х я скажу, но потом. А то побьют. Ещё и заподозрят в неискренности и желании выипнуться, но это не так, он мне действительно не нравится. В соответствующей теме объясню почему. Если не убьете раньше. 1488.gif

Приму удар на себя, это 87 и 88 ))

ЦИТАТА(quicksand @ Oct 11 2020, 15:07:31) *
но все же sign of the hammer гораздо круче,

Альбом сплошь состоит из хитов!
(1) Deze,
Sep 13 2020, 10:49:29 Griffar - Monastery (2011)
Register
(2) Antichrist, MadCarrot,
Aug 6 2020, 20:02:39 Etienne Pelosoff - Trve Brutal Black Jazz (2018)


*Artist: Etienne Pelosoff
*Album: Trve Brutal Black Jazz
*Year: 2018
*Genre: Black Metal/Jass/Fusion/Funk
*Country: United Kingdom
*Format: mp3@CBR320kbps
*Size: 61MB

Tracklist:
1. So What 4:13
2. Tritone Labyrinth 3:37
3. See-Line Satan 5:33
4. Soul Power 4:46
5. Tutu 4:26
6. Trve Brutal Black Jazz 5:19
******************************
Total playing time: 27:54



[more=Technical info]
Input File: 02 - Tritone Labyrinth.mp3
Channels : 2
Sample Rate : 44100
Precision : 16-bit
Duration : 00:03:37.56 = 9594352 samples = 16316.9 CDDA sectors
File Size : 8.78M
Bit Rate : 323k
Sample Encoding: MPEG audio (layer I, II or III)
Comments :
Title=Tritone Labyrinth
Artist=Etienne Pelosoff
Album=Trve Brutal Black Jazz
Tracknumber=2/6
Year=2018
Genre=Метал
Discnumber=1/1

[/more]

Register
(27) Ash_1980, atavist, Azumin1234, BlackTroll, caro, chickenfucker, chipsgott, ent404, Evilded, gena, infiltrator, Kodel, metala, Moonshtook, nadin85, Olethros, Ostinato, randumbum, Rosen, Stutthof, supremo, tamerz, terron, varlam4, wreak, yuratroll, Сварог Барг,
Jul 1 2020, 21:00:03 Gnaargakh - Zhymørkh [demo] (2020)
Подтверждаю, очень достойная вещь!
(1) ent404,
Jul 1 2020, 14:40:29 Black Altar - Death Fanaticism (2008)

ABR ~244kbps
Register
(3) cancer1974, infiltrator, PIOJANK,

68 Pages V  < 1 2 3 4 5 > » 
- Lo-Fi Version Support form
Copyrights and abuse reports form
Time is now: 24th September 2021 - 07:14:06