Welcome Guest ( Log In | Register )

История благодарностей участнику Dead666 ::: Спасибо сказали: 715 раз(а)
Дата поста: В теме: За сообщение: Спасибо сказали:
Jan 28 2021, 02:11:35 Mortala - ...En Concierto [demo] (1993)


*Artist: Mortala
*Album: ...En Concierto [demo]
*Year: 1993
*Genre: Thrash Metal
*Country: Peru
*Format: mp3@CBR320kbps
*Size: 64MB

Tracklist:
1. Ritual de sangre 03:43
2. Sed de destrucción 04:15
3. Pacto de muerte 05:41
4. Atrapado en la inmundicia 05:13
5. Esclavo de tu agonía 05:43
6. Cuna criminal 05:36
7. Beneath the Remains (Sepultura cover) 04:36
******************************
Total playing time: 34:47

[more=Technical info]
Input File: 02 - Sed De Destrucción (En concierto - live at lima, perú 28 -11-1992) (320 kbps).mp3
Channels : 2
Sample Rate : 44100
Precision : 16-bit
Duration : 00:04:16.16 = 11296700 samples = 19212.1 CDDA sectors
File Size : 10.2M
Bit Rate : 320k
Sample Encoding: MPEG audio (layer I, II or III)

[/more]

Register
(10) Carcharoth, infiltrator, killingod, metala, Olethros, Reverend, Rosen, Svafrlami, Xtohar, Z28517,
Jan 19 2021, 04:53:49 Diabolical Darkness Dissemination - Black Fire Of Occult Power [demo] (2000)
Register
(11) Alexis The Best, dermarsoran, Ildjarn, INDARKNESS, infiltrator, MortSathynr, Olethros, Orkkh, Svafrlami, thenecromancer, varlam4,
Jan 18 2021, 23:52:42 Diabolical Darkness Dissemination - Black Fire Of Occult Power [demo] (2000)


*Artist: Diabolical Darkness Dissemination
*Album: Black Fire Of Occult Power [demo]
*Year: 2000
*Genre: Raw Black Metal
*Country: Brazil
*Format: mp3@VBR128kbps
*Size: 10MB

Tracklist:
1. Preludium Part I 01:24
2. Apocaliptic Beast 01:27
3. Preludium Part II 01:00
4. Black Fire of Occult Power 00:40
5. Satanic Sword and Bloody Axe 01:48
6. Preludium Part III 01:31
7. Diabolic Blood 00:54
8. Devastation of Inferior Beast 00:46
9. March to the Glory of Satanas!!! 01:10
10. Diabolic Blood (Version '2000) 00:49
******************************
Total playing time: 11:29

[more=Technical info]
Input File: 02 - Apocaliptic Beast.mp3
Channels : 2
Sample Rate : 44100
Precision : 16-bit
Duration : 00:01:27.15 = 3843403 samples = 6536.4 CDDA sectors
File Size : 1.39M
Bit Rate : 128k
Sample Encoding: MPEG audio (layer I, II or III)

[/more]

Register
(8) Carcharoth, infiltrator, kim666, Orkkh, Rosen, Svafrlami, varlam4, vasiljev_sergej,
Jan 18 2021, 07:50:29 Urghar Moork - Begeesterd Door Den Bozen [demo] (1998)


*Artist: Urghar Moork
*Album: Begeesterd Door Den Bozen [demo]
*Year: 1998
*Genre: Black Metal
*Country: Belgium
*Format: mp3@VBR157kbps
*Size: 22MB

Tracklist:
1. Kraaien Overschaduwen... 01:25
2. Mijn Bloedvisioen 06:37
3. Wintertoorn 04:32
4. 'T Smalle Huisch 05:12
5. Begeesterd Door Den Bozen 00:37
******************************
Total playing time: 18:22

[more=Technical info]
Input File: 03 - Wintertoorn.mp3
Channels : 2
Sample Rate : 44100
Precision : 16-bit
Duration : 00:04:31.57 = 11976149 samples = 20367.6 CDDA sectors
File Size : 5.50M
Bit Rate : 162k
Sample Encoding: MPEG audio (layer I, II or III)
Comments :
Title=Wintertoorn
Artist=Urghar Moork
Album=Begeesterd door den Bozen
Genre=138

[/more]

Register
(14) Carcharoth, Ildjarn, INDARKNESS, infiltrator, kim666, Olethros, Reverend, Rosen, smysl, Svafrlami, thenecromancer, varlam4, vasiljev_sergej, Абигор,
Aug 29 2018, 00:16:43 Blizzard - The Path To Spiritside [demo] (1998)
Register
(4) dermarsoran, maringlen, Wail, warrr,
Aug 22 2018, 21:42:27 Black Goatsemen - Black Bloodletting [demo] (1997)
Register
(5) Fenrirsson, thenecromancer, Wail, warrr, wgs73,
Aug 22 2018, 21:36:21 Grimlorn - Rise Of The Black Dawn [demo] (2005)
Register
(2) kim666, varg-38ru,
Aug 18 2018, 21:15:12 Lord Profane - Mortes Saisons [demo] (2003)


*Artist: Lord Profane
*Album: Mortes Saisons [demo]
*Year: 2003
*Genre: Black Metal
*Country: Canada
*Format: mp3@VBR215kbps
*Size: 32MB

Tracklist:
1. Solitude Hivernale
2. À Travers Un Passé Désolé
3. Le Pouvoir De La Nuit
4. Les Vents D'une Mort Éternelle
******************************
Total playing time: 22:36

[more=Technical info]
Input File: 04 - Les Vents Dune Mort Eternelle.mp3
Channels : 2
Sample Rate : 44100
Precision : 16-bit
Duration : 00:06:41.24 = 17694684 samples = 30093 CDDA sectors
File Size : 10.8M
Bit Rate : 216k
Sample Encoding: MPEG audio (layer I, II or III)
Comments :
Title=Les Vents d'une Mort Eternelle
Artist=Lord Profane
Album=Mortes Saisons
Tracknumber=4
Year=200x
Genre=Black Metal

[/more]

Register
(23) 1968_janeart, ambre, artscald, axdambient, ent404, Evilded, Ildjarn, INDARKNESS, infiltrator, kim666, kramer820, Ostinato, Rosen, satanist666, sethurius, smysl, stub888, Svafrlami, thenecromancer, varg-38ru, vasiljev_sergej, Wail, YDV.SVARTVIND,
Aug 18 2018, 20:21:09 Crucifixion Wounds - Crumbling Of The Heavenly Kingdom [demo] (2002)
Register
(6) James817, kim666, LordHaart, morbidangelo, varg-38ru, Wail,
Aug 18 2018, 18:51:16 Cadaver - Abnormal Deformity [demo] (1989)
Register
(9) Alfredoelruso, canadaspaceman, dermarsoran, INDARKNESS, Metalass, thenecromancer, Wail, wgs73, xtormlord,
Aug 18 2018, 18:50:37 Cadaver - Sunset At Dawn [demo] (1989)
Register
(12) Alfredoelruso, artscald, canadaspaceman, dermarsoran, INDARKNESS, Metalass, METALHUNTER, PVGNACES, thenecromancer, thornfields, wreak, xtormlord,
Aug 18 2018, 18:50:01 Cadaver - Into The Outside [demo] (1988)
Register
(6) Alfredoelruso, Metalass, morbidangelo, thenecromancer, Wail, wgs73,
Aug 18 2018, 18:49:36 Cadaver - Necrosis (2004)
Register
(8) Alfredoelruso, canadaspaceman, dermarsoran, maochen, Metalass, Rikardo90, sharkattak, wgs73,
Aug 18 2018, 18:49:00 Cadaver - Hallucinating Anxiety (1990)
Register
(8) audisucks, dermarsoran, Metalass, PerYngveOhlin, PVGNACES, sabr, thenecromancer, wgs73,
Aug 18 2018, 18:48:17 Cadaver - ...in Pains (1992)
Register
(10) Alfredoelruso, Aresson, audisucks, dermarsoran, INDARKNESS, Metalass, Newbie2020, sharkattak, skogtroll, thenecromancer,
Aug 18 2018, 18:14:36 In Tha Umbra - Of The Singing Dusk... [demo] (1996)
Register
(7) infiltrator, kim666, thenecromancer, varg-38ru, varlam4, vasiljev_sergej, wendigo,
Aug 18 2018, 15:00:16 Holocaust - Hellfire Holocaust [ep] (2000)
Register
(8) Alfredoelruso, dermarsoran, infiltrator, Pinhead666, varg-38ru, Wail, wgs73, wreak,
Aug 14 2018, 01:25:02 Sumeria - All Paths Lead To Insanity (2006)
Register
(6) artscald, dermarsoran, kim666, sarrum, varg-38ru, wendigo,
Aug 13 2018, 02:28:54 Mons Veneris - A Floresta Maligna [demo] (2004)
Register
(6) artscald, Cramloth, Naarseth, obituarydark, varg-38ru, varlam4,
Aug 12 2018, 01:32:19 Baal Hamon - The Land Of The Forgotten Souls... [demo] (2002)
Register
(5) dermarsoran, James817, kim666, varg-38ru, Wail,
Aug 11 2018, 23:22:10 Ominous - Hymn To The Dark World [demo] (2001)
Register
(4) kim666, thenecromancer, varg-38ru, vasiljev_sergej,
Aug 11 2018, 20:25:10 Obscurnal - ...From The Mystical Side [demo] (1994)


*Artist: Obscurnal
*Album: ...From The Mystical Side [demo]
*Year: 1994
*Genre: Death Metal
*Country: Unknown
*Format: mp3@CBR192kbps
*Size: 37MB

Tracklist:
01. Catholic Priest Conversion
02. Embers Of Perial Pain
03. Exorcised Child
04. From The Mystical Side
05. Human Cruality
06. Lucifers Accomplishment
07. Obscurnal
******************************
Total playing time: 27:18

[more=Technical info]
Input File: 04 - From The Mystical Side.mp3
Channels : 2
Sample Rate : 44100
Precision : 16-bit
Duration : 00:04:04.16 = 10767588 samples = 18312.2 CDDA sectors
File Size : 5.86M
Bit Rate : 192k
Sample Encoding: MPEG audio (layer I, II or III)
Comments :
Title=From the Mystical Side
Artist=Obscurnal

[/more]

Register
(12) Alfredoelruso, artscald, Burzumen, enslaver, Evilded, metala, Proteus_666, Rosen, satanist666, Svafrlami, thenecromancer, wgs73,
Aug 11 2018, 14:05:22 Defunctis - Introspectrum (2000)
Register
(6) Impetus7, James817, jorgeguldur, lawronchik, marrtins, varg-38ru,
Aug 11 2018, 04:21:52 Funeral Fog - Beyond A Bloodstained Moon [demo] (1997)


*Artist: Funeral Fog
*Album: Beyond A Bloodstained Moon [demo]
*Year: 1997
*Genre: Black Metal
*Country: Italy
*Format: mp3@VBR261kbps
*Size: 66MB

Tracklist:
1. Intro - Regie Sathanas
2. Azrael, A Hymn To Khaos
3. Aura Of Death (Necromantica Qliphoth)
4. Beltane
5. Spiritistisch Or A Gothick Suspirium
6. Necroi Sahbbat
7. Possessed (Bathory Cover)
******************************
Total playing time: 33:52

[more=Technical info]
Input File: 2 - Azrael, A Hymn To Khaos.mp3
Channels : 2
Sample Rate : 48000
Precision : 16-bit
Duration : 00:04:54.82 = 14151168 samples ~ 22111.2 CDDA sectors
File Size : 9.64M
Bit Rate : 262k
Sample Encoding: MPEG audio (layer I, II or III)
Comment : 'Genre=Other'

[/more]

Register
(26) 1968_janeart, artscald, dermarsoran, Evilded, Ildjarn, INDARKNESS, kefka, kim666, Legacy100, maringlen, Moldavite, Occultas, Rosen, RunningWild_AT, rupturedsouls, satanist666, stub888, Svafrlami, templ, thenecromancer, udt4050, varg-38ru, vasiljev_sergej, Vlosinssrigg, Wail, wgs73,
Aug 9 2018, 00:35:27 Nekrovoid - Kill Your Local Priest [demo] (2004)
Register
(3) dermarsoran, kim666, varg-38ru,

6 Pages V   1 2 3 > » 
- Lo-Fi Version Support form
Copyrights and abuse reports form
Time is now: 1st July 2022 - 04:46:53