Welcome Guest ( Log In | Register )

История благодарностей участнику mirotvorets ::: Спасибо сказали: 3776 раз(а)
Дата поста: В теме: За сообщение: Спасибо сказали:
Jul 22 2021, 18:00:21 Negură Bunget - Om (2006)
То чувство, когда в каждый момент времени, в каждую секунду текущую и последующую ты

слышишь самую настоящую музыку таинств, звуки соединения небесных сфер, схождения

миров и распада малейших частиц, шелест травы и рёв лавины, ты здесь, тебя пронизывают

вибрации эфира и его мощь, сдвиги тектонических плит и плач цикад - видишь и

ощущаешь прекрасное оцепенение величия - пронизывает насквозь и уносится, побеспокоив

толщу воды над головой туда, где твердь земная сходит в необъятный космос и звёзды

растворяются в прохладе ночного воздуха. Отчётливо видимая картина в данном месте,

стоит отвести взгляд, расплывается и течёт. Звёзды становятся луной, парящая в небе птица

становится отражением Луны, а шёпот ветра колышет неясный силуэт. Видишь ясно и

отчётливо небо в сполохах огня, плавящего лёд и горячими каплями стекающими в открытое

окно, и в следующий момент выныриваешь со дна глубочайшего озера и ничего не помнишь,

только эхо забытой мелодии и отголоски прекрасного сна.
(1) sarcophagus,
Jul 20 2021, 14:07:44 Blut Aus Nord - The Work Which Transforms God (2003)
Диссонирующе индустриальные разновидности нойзов не смешиваются и идут в последовательном соединении с музыкой black metal.
Прекрасное подтверждение идеи об использовании воршипа, в данном случае - Godflesh - в качестве не цели, а средства и интсрумента для выражения собственных идей и мыслей. Группа, имеющая много и дающая ещё больше начал. Классный альбом.
(1) HviteGuden,
Jul 19 2021, 13:54:55 Decoherence - System I (2021)
ЦИТАТА(ent404 @ Jul 19 2021, 16:50:18) *
BANанных клонов не существует - они съедаются либо остаются BANанами.

banana.gif
(1) plfan93,
Jul 17 2021, 16:02:14 Spektr - The Art To Disappear (2016)
____Сон андроида, вызванный полётом дрона вокруг информационного терминала за секунду до окончания ознакомительного периода. %%% Овцы - биотехи созданы для развлечения бога-садиста, в рассматриваемых вариантах случайной выборки самообучаемы, если искусственный интеллект научить/запрограммировать на сочинение музыкального black%metal без задачи чётких параметров, и в обучающую программу включить радиопостановки из свободного эфира, обычный трёп радио станций , увидеть результат можно на дисплее демиурга, веселящегося/потешающегося над своими детищами, как режим сна в летнюю ночь накладывается сэмплами на тревожное тремоло и порождает прекрасное чудовище-гибрид acid%jazz%trip% hop-bop модифицированный avant.blak.2.2.0, мастер-искусник создаёт так, как хочет исключительные гармонии, сплетая уникальными линиями риффовки, заходящей за повседневные границы событий.
____Сухой звук выплывающих голосов и инструментов, прагматично излагает сложное повествование для передачи во внешний мир своего внутреннего представления. Случайные параметры обрывков и фраз, резких ритмических  и мелодических решений сплетаются понятным только для творца образом, предоставляя слушателю самостоятельно интерпретировать полученные звуковые образы. Интеграция иллюзорных полей информационных констант во вдохновение живого мыслящего разума завершена и всё, что мы видим — дешифрованный  обман перевода сна наполовину живого мыслящего творчески создания в аналоговую форму в глазу бога%.
(1) vosmidesijatye,
Jul 15 2021, 10:40:58 Decoherence - System I (2021)


*Artist: Decoherence
*Album: System I
*Year: 2021
*Genre: Black Metal
*Country: United Kingdom
*Format: mp3@CBR320kbps
*Size: 102MB

Tracklist:
1.Line of Force 05:22
2.Ray Spallation 07:36
3.Dichotomic Observables 08:28
4.Gate Error 03:58
5.Dimension Witness 03:49
6.Non-Holistic Constraints 04:32
7.In Perpendicular Planes 05:54
8.The Wait 04:11
******************************
Total playing time: 43:50



[more=Extended info]Stroda - All instruments
See also: Palus Somni, Stroda
Prior - Noise, Electronics
Tahazu - Vocals (2018-present)
See also: Cryptic Evil, Decarabia, Monarch of Blood, Ordo Malum, Pythonissam, Tahazu, The Anointing Maelstrom, We Are Beasts, ex-SludgeFactory, ex-Throne ov Ose, ex-Nihil Rising, ex-Fetal Harm, ex-In Time of the Plague, ex-Nihil Rising[/more]

[more=Technical info]
Input File: 02. Ray Spallation.mp3
Channels : 2
Sample Rate : 44100
Precision : 16-bit
Duration : 00:07:36.60 = 20135884 samples = 34244.7 CDDA sectors
File Size : 18.6M
Bit Rate : 325k
Sample Encoding: MPEG audio (layer I, II or III)
Comments :
Title=Ray Spallation
Artist=Decoherence
Album=System I
Tracknumber=2
Year=2021

[/more]

Register
(20) AlexSmith, bOOLty, caro, gusto24191, HviteGuden, infiltrator, kim666, Marek, nemx, Olethros, Reverend, robertho777, supremo, Taakeferd, Tino, toly1917, VALERY, Xor, yuratroll, дивин,
Jul 15 2021, 10:20:14 Ison - Aurora (2021)


*Artist: Ison
*Album: Aurora
*Year: 2021
*Genre: Post-Rock/Ethereal Wave/Shoegaze
*Country: Sweden
*Format: mp3@CBR320kbps
*Size: 160MB

Tracklist:
1. Jupiter 09:24
2. Waves 09:10
3. Aurora 08:25
4. Meridian 11:58
5. Celestial 08:36
6. Retrograde 07:58
7. Penumbra 06:54
8. Aquarian 07:45
******************************
Total playing time: 1:10:10



[more=Extended info]ISON is the solo project from multi instrumentalist Daniel Änghede (Venus Principle, ex Crippled Black Phoenix)
The 4th album will be released in 2021 and features guest vocals from Sylvaine, Cammie Gilbert, Gogo Melone & Carline Van Roos amoung others.
The first 3 albums features Heike Langhans of Draconian on vocals & lyrics.
[youtube]Zy_-2OQBJWo[/youtube][/more]

[more=Technical info]
Input File: 02. Waves.mp3
Channels : 2
Sample Rate : 44100
Precision : 16-bit
Duration : 00:09:10.22 = 24264878 samples = 41266.8 CDDA sectors
File Size : 22.0M
Bit Rate : 320k
Sample Encoding: MPEG audio (layer I, II or III)
Comments :
Title=Waves
Artist=ISON
Album=Aurora
Tracknumber=2
Year=2021
Genre=Post-Rock

[/more]

Register
(16) chefo, craP_cillA, DJAHAN, gena, grimoir, Krosis, Kwaad, leks, Old Vyaine, Olethros, popen13, ripper33, tOmV, uncolored, VVP123, yuratroll,
Jul 15 2021, 10:07:24 Zön - Desert Universe (2018)


*Artist: Zön
*Album: Desert Universe
*Year: 2018
*Genre: Krautrock/Noise/Post-Rock/Drone Metal
*Country: United States
*Format: mp3@CBR320kbps
*Size: 193MB

Tracklist:
1.The Journey 21:57
2.Rubidium Funeral Dirge 22:51
3.Desert Universe 17:27
4.Decurion and Steed 22:27
******************************
Total playing time: 1:24:42



[more=Technical info]
Input File: 02. Rubidium Funeral Dirge.mp3
Channels : 2
Sample Rate : 44100
Precision : 16-bit
Duration : 00:22:51.17 = 60468509 samples = 102838 CDDA sectors
File Size : 55.0M
Bit Rate : 321k
Sample Encoding: MPEG audio (layer I, II or III)
Comments :
Title=Rubidium Funeral Dirge
Artist=ZÖN
Album=Desert Universe
Tracknumber=2
Year=2018

[/more]

Register
(2) gena, Olethros,
Jul 14 2021, 10:50:46 Omniscient - The Evil That Cannot Be Defeated [ep] (2021)


*Artist: Omniscient
*Album: The Evil That Cannot Be Defeated [ep]
*Year: 2021
*Genre: Progressive Death Metal
*Country: Canada
*Format: mp3@CBR320kbps
*Size: 41MB

Tracklist:
1.The Boy ft Kyle Chapman 02:40
2.Pray for Death ft Michael Alvarez and Kyle Chapman 06:23
3.The Mist Calls 04:30
4.The Evil that Cannot be Defeated ft Kyle Chapman 04:04
******************************
Total playing time: 17:37



[more=Extended info]Omniscient is a two man project that aims to combine elements of depressive suicidal black metal and technical death metal.
[youtube]RfrxXBTcYes[/youtube][/more]

[more=Technical info]
Input File: 02. Pray for Death (feat. Michael Alvarez & Kyle Chapman).mp3
Channels : 2
Sample Rate : 44100
Precision : 16-bit
Duration : 00:06:23.58 = 16915878 samples = 28768.5 CDDA sectors
File Size : 16.1M
Bit Rate : 335k
Sample Encoding: MPEG audio (layer I, II or III)
Comments :
Title=Pray for Death (feat. Michael Alvarez & Kyle Chapman)
Artist=Omniscient
Album=The Evil That Cannot Be Defeated
Tracknumber=2
Year=2021

[/more]

Register
(14) caro, chipsgott, infiltrator, kimkayoung, Marek, metala, Olethros, stumpheavyrock, VALERY, Vitald, vyacheslav, Wail, wanderer73, yuratroll,
Jul 14 2021, 10:36:54 Vessel Of Iniquity - The Key (2020)


*Artist: Vessel Of Iniquity
*Album: The Key
*Year: 2020
*Genre: Black/Death Metal/Noise/Black Ambient
*Country: United Kingdom
*Format: mp3@CBR320kbps
*Size: 82MB

Tracklist:
1.The Key, Part I 19:16
2.The Key, Part II 16:31
******************************
Total playing time: 35:47



[more=Technical info]
Input File: 01. The Key, Part I.mp3
Channels : 2
Sample Rate : 44100
Precision : 16-bit
Duration : 00:19:16.51 = 51002003 samples = 86738.1 CDDA sectors
File Size : 46.4M
Bit Rate : 321k
Sample Encoding: MPEG audio (layer I, II or III)
Comments :
Title=The Key, Part I
Artist=Vessel Of Iniquity
Album=The Key
Tracknumber=1
Year=2020

[/more]

Register
(10) caro, Doooomed, infiltrator, Kaotik, obituarydark, Olethros, Reverend, smysl, supremo, Wail,
Jul 8 2021, 15:18:17 The Devouring Void - Hypnagogic Hallucinations (2021)
С претензией на глубину и осмысленность - судя по названиям композиций, общую концепцию альбома - сомнамбулический пост блэко дет. Очень хороший, объемный саунд, спокойный вокс, размах и своеобразная успокаивающая воздушность, размытая абстрактная мелодика, вводят в отстраненное умиротворенное состояние. Приятный релакс.
(2) Chasm, MorsPulchra,
Jul 5 2021, 18:46:34 At The Gates - The Nightmare Of Being (2021)
ЦИТАТА(6666666 @ Jul 5 2021, 21:31:00) *
Прочитал, просто согласен только с тем, что мутный. 4-й послушал и нашел где-то полтора интересных риффа и где-то столько же интересных решений в принципе. Прошлый был лучше.


Прошлый был "обычный At The Gates". Их и сравнивать то сложно, по видимому новый гитарист включился в сочинительство и сложных, читай - мутных, решений - здесь привалило добре. Учитывая, что мне вообще параллельно их всё творчество, а этот альбом уже два раза прогнал, это точно не тот ATG.
(2) Exorcist, WOLAND,
Jul 5 2021, 18:30:21 Крутейшие Black Thrash Metal творения
Sarcofago - I.N.R.I.
(1) Alexis The Best,
Jul 5 2021, 16:33:14 At The Gates - The Nightmare Of Being (2021)
ЦИТАТА(6666666 @ Jul 5 2021, 15:32:32) *
И это мягко сказано.


Ты предложение до конца не дочитал.
(2) Deze, Exorcist,
Jul 4 2021, 15:34:30 夢遊病者 - Noč Na Krayu Sveta (2021)


*Artist: 夢遊病者
*Album: Noč Na Krayu Sveta
*Year: 2021
*Genre: Atmospheric Black Metal/Noise Rock/Psychedelic Rock
*Country: International
*Format: mp3@CBR320kbps
*Size: 74MB

Tracklist:
1.Boundless Love / Resilience 14:30
2.Redemption / Retaliation 14:30
******************************
Total playing time: 29:00



[more=Extended info]夢遊病者 (aka Sleepwalker) is an abstract, improvisational, and experimental psychedelic black metal band in existence since 2015. Members are based in Osaka, Japan, Tver, Russia, and New York, USA. The band was formed after members became acquainted online, and everything is written sharing ideas and recordings over the internet and finally, the three members convene somewhere in person to record.
[youtube]63l3Ya0skuU[/youtube][/more]

[more=Technical info]
Input File: 01. Boundless Love - Resilience.mp3
Channels : 2
Sample Rate : 44100
Precision : 16-bit
Duration : 00:14:30.11 = 38371895 samples = 65258.3 CDDA sectors
File Size : 34.8M
Bit Rate : 320k
Sample Encoding: MPEG audio (layer I, II or III)
Comments :
Title=Boundless Love / Resilience
Artist=夢遊病者
Album=Noč Na Krayu Sveta
Tracknumber=1
Year=2021

[/more]

Register
(12) aleon, blackmetalmilitia, caro, Forest Silence, gena, Olethros, Ostinato, Taakeferd, vasiljev_sergej, Wail, wreak, yuratroll,
Jul 4 2021, 15:17:09 Glyptoglossio - Yottaannums In The Byss (2019)


*Artist: Glyptoglossio
*Album: Yottaannums In The Byss
*Year: 2019
*Genre: Technical Death Metal/Experimental/Free Improvisation
*Country: United States
*Format: mp3@CBR320kbps
*Size: 79MB

Tracklist:
1.3 18:41
2.4 15:21
******************************
Total playing time: 34:02



[more=Extended info]Nondor Nevai: Kondukting, Perkussion, Skripture, Proklamations

Eliane Gazzard: fingers bass, phased telepatholalia, RITUAL (bow, goo-xeang, stringskrape, droan)

Colin Marston: pick guitar, tapped neon superleads, phased telepatholalia, RITUAL (goo-xeang, droan, ritual coals n bowls), rekording, Strukturing, mikxing, masterlin[/more]

[more=Technical info]
Input File: 01. 3.mp3
Channels : 2
Sample Rate : 44100
Precision : 16-bit
Duration : 00:18:41.37 = 49452461 samples = 84102.8 CDDA sectors
File Size : 44.9M
Bit Rate : 320k
Sample Encoding: MPEG audio (layer I, II or III)
Comments :
Title=3
Artist=Glyptoglossio
Album=YOTTAANNUMS in the BYSS
Tracknumber=01/2
Year=2019
Discnumber=1/1

[/more]

Register
(6) andreikun, caro, chipsgott, Olethros, Taakeferd, Wail,
Jun 30 2021, 09:17:11 Nursing - Self Care (2021)


*Artist: Nursing
*Album: Self Care
*Year: 2021
*Genre: Mathcore/Black Metal
*Country: United States
*Format: mp3@CBR320kbps
*Size: 68MB

Tracklist:
1.Dining Room Chandelier 02:36
2.Hydrangea Bouquet 01:26
3.Charcuterie Plate 00:49
4.Silk Sheets 02:40
5.Cedarwood Soap 02:16
6.Champagne Gift Basket 03:17
7.Seven Fold Tie 01:57
8.Floral Wedding Cake 02:21
9.Dress Shirt 02:49
10.Skin Care Masking Set 03:04
11.Silver Cufflinks 04:15
******************************
Total playing time: 27:30



[more=Extended info]Blackened Chaotic Mathgrind
[youtube]1aOkZKEFN7U[/youtube][/more]

[more=Technical info]
Input File: 02. Hydrangea Bouquet.mp3
Channels : 2
Sample Rate : 44100
Precision : 16-bit
Duration : 00:01:26.58 = 3818046 samples = 6493.28 CDDA sectors
File Size : 3.88M
Bit Rate : 359k
Sample Encoding: MPEG audio (layer I, II or III)
Comments :
Title=Hydrangea Bouquet
Artist=Nursing
Album=Self Care
Tracknumber=2
Year=2021

[/more]

Register
(14) caro, CletusVII, Hell_Is_Here, metala, Olethros, Ostinato, Sanctus, sludge666, StabWound, VALERY, varlam4, vasiljev_sergej, Wail, wreak,
Jun 28 2021, 19:09:56 Monolito Project - First Principles (2021)
WOLAND, это всё один человек сваял, типа сольник - и жнец и чтец и на дуде игрец.
(1) WOLAND,
Jun 26 2021, 16:43:23 Darkthrone - Eternal Hails...... (2021)
Гулкость и звук эха от удара по крышке гроба  слышит только находящийся снаружи гроба, ибо находящийся внутри ничего уже не слышит.  Хороший альбом. Гулкий.
(3) Hexer, infiltrator, sethurius,
Jun 26 2021, 15:22:48 Monolito Project - First Principles (2021)


*Artist: Monolito Project
*Album: First Principles
*Year: 2021
*Genre: Progressive Heavy Metal/Gothic Metal
*Country: United States
*Format: mp3@CBR320kbps
*Size: 96MB

Tracklist:
01. The Fight 04:34
02. Sea of Mud 03:46
03. A Gladiator's Tale 03:09
04. Outbreak 04:10
05. Prelude 01:45
06. Rise of the Smoking Snake 05:00
07. The Collector 04:19
08. Underworld 02:56
09. Dawn of the Brave 03:53
10. Outbreak (Radio Edit) 03:50
11. Underworld (Radio Edit) 02:26
******************************
Total playing time: 39:48



[more=Extended info]
Monolito Project is an independent and solo music project by Augusto Rocha, all written, recorded and produced by the musician himself.
[youtube]HTYWfPsf5AI?list=OLAK5uy_m2B0_dNvSkPhw4x-Jl6nCgOtngdO_4NlY[/youtube]

[youtube]IuS-lkaynx4?list=OLAK5uy_m2B0_dNvSkPhw4x-Jl6nCgOtngdO_4NlY[/youtube]

[youtube]xO6J2FkAVPQ[/youtube][/more]

[more=Technical info]
Input File: 02. Sea of Mud.mp3
Channels : 2
Sample Rate : 44100
Precision : 16-bit
Duration : 00:03:46.11 = 9971231 samples = 16957.9 CDDA sectors
File Size : 9.11M
Bit Rate : 322k
Sample Encoding: MPEG audio (layer I, II or III)
Comments :
Title=Sea of Mud
Artist=Monolito Project
Album=First Principles
Tracknumber=02
Year=2021
Genre=Progressive Heavy Metal | Hard Rock

[/more]

Register
(15) after21allD, caro, Cartman223, chipsgott, HMHamster, infiltrator, infozahist, kimkayoung, metala, Olethros, Rover, Taakeferd, Wail, WOLAND, wreak,
Jun 26 2021, 14:33:24 Luen-Ta - Parasited Evolution (2006)
Смелая, экспрессивная геометрия неправильных углов между мощным, замысловатым риффингом, индустриальными сэмплами и хардкоровой ритмикой. Опередившая своё время, эмоциональная и полная прекрасных хуковых моментов, работа. К сожалению, никому такая музыка оказалась не нужной.

192 kb/s
Register


[youtube]WsewPFuxAQ8[/youtube]
(2) kimkayoung, wreak,
Jun 24 2021, 19:57:49 Beherit - The Oath Of Black Blood [compilation] (1991)
Здесь дыхание раскалённой Финляндии - последнего островка жизни, испепелённой

лучами ближайшей звезды сквозь истончённый озоновый слой, покрытой слоями

умерщвлённой биомассы - высохшей уже и обглоданной крысами. Ожидаются Движения

удушающих масс, несущихся неотвратимо и направляемые вибрацией Демонической пыли, сводки

информационных сообщений о которых - Богинь и прочих прихожан Культа Содомии и Научного

Извращения - заставляют возопить о приходе Черных ветров и трёх Черных Сердец,

благословенных Лунным Штормом. А далее в исступлении сучить щупальцами и стучать

копытцами под звуки сирены, зарывшись в бомбоубежище и нацепив противогазы. Тик-так.

Тик-так. Таймер ведёт обратный отсчёт. Остаётся ждать и не верить в благоприятный исход,

понимая неотвратимость Явления. Ужас понимания и осознания содеянного и проведённых

экспериментов по созданию Сферы Дайсона, безысходность неправильного решения. Нет Бога,

нет сил, позволяющих разуму вырваться за пределы Вселенной. Мироздание, источник и цель

потеряны. Остаётся только трагическая ошибка, издыхающий свет от аккумулятора и

клаустрофобия.
(1) Zyozic_Bandutto,
Jun 19 2021, 13:48:52 L'alba Di Morrigan - I'm Gold, I'm God (2021)


*Artist: L'alba Di Morrigan
*Album: I'm Gold, I'm God
*Year: 2021
*Genre: Gothic Doom/Progressive/Post-Metal
*Country: Italy
*Format: mp3@CBR320kbps
*Size: 133MB

Tracklist:
1.Satya Yuga 04:30
2.I Fiumi Di Rosso Sangue 03:33
3.Where Everything We Know Begins And Ends 04:39
4.I'm Lucifer 04:47
5.I Am Gold, I Am God 05:14
6.Aiwass 04:20
7.The Chant Of The Universe 05:28
8.Kali Yuga 04:11
9.Alpha Supernova 05:24
10.The Voice Of Choronzon 03:45
11.Rosa Mundi 07:10
12.Morrigan's Dawn 04:50
******************************
Total playing time: 57:51



[more=Extended info][youtube]I_ckb3gpJcQ[/youtube][/more]

[more=Technical info]
Input File: 02. I Fiumi Di Rosso Sangue.mp3
Channels : 2
Sample Rate : 44100
Precision : 16-bit
Duration : 00:03:33.33 = 9407853 samples = 15999.8 CDDA sectors
File Size : 8.71M
Bit Rate : 327k
Sample Encoding: MPEG audio (layer I, II or III)
Comments :
Title=I Fiumi Di Rosso Sangue
Artist=L'Alba Di Morrigan
Album=I'm Gold, I'm God
Tracknumber=2
Year=2021

[/more]

Register
(18) BERZERK, bOOLty, caro, Cartman223, fylopaloma, HMHamster, infiltrator, infozahist, JantoHadez, marilin, Olethros, quarantine, sergsazan, thenecromancer, VALERY, Wail, wreak, yuratroll,
Jun 17 2021, 18:32:04 Dreams Of The Drowned - Missed Springs [ep] (2021)


*Artist: Dreams Of The Drowned
*Album: Missed Springs [ep]
*Year: 2021
*Genre: Experimental Black Metal
*Country: France
*Format: mp3@CBR320kbps
*Size: 93MB

Tracklist:
1.They Poisoned the Waters 07:01
2.And You Shall Forever Be 02:19
3.La Sorcière te Regarde 08:42
4.Estudo No. 11 (Heitor Villa-Lobos) 04:00
5.Je suis elle - Elle et moi 10:47
6.Ved Buens Ende 2006 Medley 05:55
******************************
Total playing time: 38:44



[more=Extended info]Camille - (Astral Diadem, Dreams of the Drowned, Smohalla, ex-Howlin Poetry, Stagnant Waters, ex-Apostle of Dementia, ex-Human Meat, ex-Dødheimsgard (live), ex-Sveta Istina Vještica ex-Течёт Кровь) All instruments, Vocals

[youtube]-T7dBtD-mws[/youtube][/more]

[more=Technical info]
Input File: 02. And You Shall Forever Be.mp3
Channels : 2
Sample Rate : 44100
Precision : 16-bit
Duration : 00:02:19.53 = 6153273 samples = 10464.8 CDDA sectors
File Size : 7.02M
Bit Rate : 403k
Sample Encoding: MPEG audio (layer I, II or III)
Comments :
Title=And You Shall Forever Be
Artist=Dreams of the Drowned
Album=Missed Springs
Tracknumber=2
Year=2021

[/more]

Register
(16) infiltrator, kimkayoung, KoreanGringo, obituarydark, Olethros, rammmirez, robertho777, SilentNidhogg, stub888, Taakeferd, VALERY, varlam4, vasiljev_sergej, Wail, wreak, yuratroll,
Jun 17 2021, 07:02:44 Fossilization - He Whose Name Was Long Forgotten [ep] (2021)
Проект парней из Jupiterian, с соответствующей атмосферой. Мрак, космос, медленные отрезки тяжелым камнем погружаются в глубины дум-дет метал, интенсивные моменты веют холодом из измерения оккультного, ритуального Death Metal.
(1) Zyozic_Bandutto,
Jun 13 2021, 11:33:20 Adeia - Serenity (2016)


320
Register
(1) wreak,

38 Pages V   1 2 3 > » 
- Lo-Fi Version Support form
Copyrights and abuse reports form
Time is now: 26th July 2021 - 00:31:36