Welcome Guest ( Log In | Register )

История благодарностей участнику mirotvorets ::: Спасибо сказали: 5622 раз(а)
Дата поста: В теме: За сообщение: Спасибо сказали:
Today, 12:05:23 Ordo Rosarius Equilibrio - Nihilist Notes (And The Perpetual Quest 4 Meaning In Nothing) (2022)
Register
(1) as71,
Yesterday, 16:31:39 Qrixkuor - Zoetrope [ep] (2022)


*Artist: Qrixkuor
*Album: Zoetrope [ep]
*Year: 2022
*Genre: Death/Black Metal
*Country: United Kingdom
*Format: mp3@CBR320kbps
*Size: 56MB

Tracklist:
1.Zoetrope (Psychospiritual Sparagmos) 24:34
******************************
Total playing time: 24:34



[more=Technical info]
Input File: 01. Zoetrope (Psychospiritual Sparagmos).mp3
Channels : 2
Sample Rate : 44100
Precision : 16-bit
Duration : 00:24:34.41 = 65021437 samples = 110581 CDDA sectors
File Size : 59.1M
Bit Rate : 321k
Sample Encoding: MPEG audio (layer I, II or III)
Comments :
Title=Zoetrope (Psychospiritual Sparagmos)
Artist=Qrixkuor
Album=Zoetrope
Tracknumber=01
Year=2022

[/more]

Register
(2) madera, yuratroll,
Yesterday, 16:12:54 Ordo Rosarius Equilibrio - Nihilist Notes (And The Perpetual Quest 4 Meaning In Nothing) (2022)


*Artist: Ordo Rosarius Equilibrio
*Album: Nihilist Notes (And The Perpetual Quest 4 Meaning In Nothing)
*Year: 2022
*Genre: Neofolk/Martial Industrial
*Country: Sweden
*Format: mp3@CBR320kbps
*Size: 116MB

Tracklist:
1. Nothing, Nada, Null 1:39
2. I Set Fire to Cathedrals, With the Flame Inside My Heart 4:21
3. How I Paint the World in Flames 4 You 3:53
4. I Remember, the Perpetual Search for the Meaning in Nothing 4:38
5. Let's Forsake Your Peace, and Embrace My War 3:26
6. In the Skies That Burn There's No Refuge 4 Man 4:47
7. Sing to My Enemies, and Those Who Did Not Make It 4:35
8. To the Gods That Kill and Forever Will 4:24
9. Never Shall the Stars Be Touched or the Roses Fall 4:21
10. Of All the Pearls We Cast to Swine 4:48
11. The Sins That I Did, and All the Sin I'll Ever Do 4:07
12. Every Fiend I Have Lost and Friends Abandoned 4:10
13. Somewhere There's a Cross That Won't Defile You 1:26
******************************
Total playing time: 50:35

Preview

[more=Extended info]"За каждым витком череда завершений, лишь голод и страх не дают умереть, истории ход ничего не изменит, ведь жизнь победит, а героев ждёт смерть"
[youtube]OH5EUxI1SW8?list=OLAK5uy_nOP2X7d8bMRWHOsYeU-h-kRUOdF30IvI4[/youtube][/more]

[more=Technical info]
Input File: 02. I Set Fire To Cathedrals, With The Flame Inside My Heart.mp3
Channels : 2
Sample Rate : 44100
Precision : 16-bit
Duration : 00:04:21.01 = 11510409 samples = 19575.5 CDDA sectors
File Size : 10.4M
Bit Rate : 320k
Sample Encoding: MPEG audio (layer I, II or III)
Comments :
Title=I Set Fire To Cathedrals, With The Flame Inside My Heart
Artist=Ordo Rosarius Equilibrio
Album=Nihilist Notes [And The Perpetual Quest 4 Meaning In Nothing]
Tracknumber=2
Year=2022
Genre=Neofolk

[/more]

Register
(1) kefka,
Dec 2 2022, 07:36:42 Celestial Season - Mysterium II (2022)
Пластиковая ударка ужасно введена в микс, торчит(хотя у них всегда на передке она была) и портит всю катрину. Для действующего драммера, как Jason стыдно, однако допускать подобный бюджетный вариант. Мог бы ещё и при таком количестве задействованных музыкантов, в живую прописать.
(1) Faust_Vulkan_16,
Nov 30 2022, 18:21:53 Monolithe - Kosmodrom (2022)
ЦИТАТА(Terrorizer @ Nov 30 2022, 16:18:04) *
А где эксперимент? Вполне себе традиционный дум с небольшими вольностями.


На альбоме достаточно много вольностей. Для экспериментов конечно слишком традиционна мелодичная составляющая, характерная мелодичному думу, но подача материала (здесь прог метал в обертке дума), неожиданная гармоническая структура (когда казалось бы заканчивающаяся мелодия берёт странные альтерации), нелинейное построение с многочисленными отклонениями (масштабные ландшафты с массой отступлений, и я не зря Имперский марш упомянул), для старого поклонника полно сюрпризов, чтобы получить удовольствие от новизны звучания.

ЦИТАТА(Faust_Vulkan_16 @ Nov 30 2022, 16:29:06) *
Французы всегда хорошо играли.
Сабж местами похож на СептикФлеш досимфонических времен.
Про старую безмозглую Валю Терешкову есть песня, интересно?



Симфонизма здесь действительно дочёрта. По бибанутости для меня этакий дум близок к Esoteric, а по космогонии вспомнил первенца Krux с их запуском Лунохода.
(1) Faust_Vulkan_16,
Nov 26 2022, 16:28:41 Effluence - Sarmat [ep] (2022)


*Artist: Effluence
*Album: Sarmat [ep]
*Year: 2022
*Genre: Brutal Death Metal/Goregrind/Free Improvisation
*Country: United States
*Format: mp3@CBR320kbps
*Size: 61MB

Tracklist:
1. Undulating Alala 26:25
******************************
Total playing time: 26:25



[more=Technical info]
Input File: 01. Undulating Alala.mp3
Channels : 2
Sample Rate : 44100
Precision : 16-bit
Duration : 00:26:25.75 = 69931531 samples = 118931 CDDA sectors
File Size : 63.5M
Bit Rate : 320k
Sample Encoding: MPEG audio (layer I, II or III)
Comments :
Title=Undulating Alala
Artist=Effluence
Album=Sarmat
Tracknumber=01
Year=2022

[/more]

Register
(3) artscald, supremo, varlam4,
Nov 26 2022, 16:19:48 Effluence - Liquefied [ep] (2022)


*Artist: Effluence
*Album: Liquefied [ep]
*Year: 2022
*Genre: Brutal Death Metal/Goregrind/Free Improvisation
*Country: United States
*Format: mp3@CBR320kbps
*Size: 50MB

Tracklist:
1. Mix 00:37
2. Blend 01:00
3. Chop 05:12
4. Dice 01:07
5. Mince 03:31
6. Pulverize 01:30
7. Puree 01:54
8. Liquefy 02:07
9. Liquefied 04:47
******************************
Total playing time: 21:45



[more=Technical info]
Input File: 02. Blend.mp3
Channels : 2
Sample Rate : 44100
Precision : 16-bit
Duration : 00:01:00.90 = 2685558 samples = 4567.28 CDDA sectors
File Size : 2.59M
Bit Rate : 340k
Sample Encoding: MPEG audio (layer I, II or III)
Comments :
Title=Blend
Artist=Effluence
Album=Liquefied
Tracknumber=2
Year=2022

[/more]

Register
(4) Altkiller, artscald, supremo, varlam4,
Nov 25 2022, 19:49:24 In The Woods... - Diversum (2022)
ЦИТАТА(Faust_Vulkan_16 @ Nov 25 2022, 08:36:22) *
Последние альбомы вообще скатились куда-то в унылую Боркнагаровщину.


Это ты сильно польстил сабжу , всё намного хуже.
(1) Faust_Vulkan_16,
Nov 25 2022, 19:43:10 Monolithe - Kosmodrom (2022)
Очень хорошо.
Неожиданно торжественная для французских экспериментаторов история. Плазменная дубинушка в рёве тахионных двигателей Имперского марша и разгуляй просторе русского готического романса.
(3) Chasm, KVRT, nsk2008,
Nov 25 2022, 13:39:45 My Dying Bride - The Light At The End Of The World (1999)
Бесстрастный альбом, музыканты сами успокоились то ли. После драматичных на надрыве первенцев и рисковых процентов, воздушная сбалансированная вещь. Не самый удачный у них альбом, по моему мнению, достаточно спокойно его слушаю, без эмоциональных каких либо неожиданностей. Есть тут дум-детовый тяжёлый драйв, мрачность, но как то вполне сыто и уравновешенно. Даже для атмосферного эпика альбом несколько простой.
(1) Chasm,
Nov 25 2022, 09:50:30 Controlled Bleeding - Music From The Scourging Ground (1987)


*Artist: Controlled Bleeding
*Album: Music From The Scourging Ground
*Year: 1987
*Genre: Neoclassical Darkwave/Dark Ambient/Industrial
*Country: United States
*Format: mp3@CBR320kbps
*Size: 113MB

Tracklist:
1. The Shallow Sky 6:19
2. After Separation 5:37
3. Voices Of The Dead 4:37
4. The Peacock (Music For Four Guitars) 2:48
5. Bright Shadows 3:36
6. In Blind Embrace 5:01
7. Near The Water (Vocal Version) 2:39
8. An Awakening 3:59
9. The Turning 3:17
10. In Drowning Hands 11:16
******************************
Total playing time: 49:09

[more=Extended info][youtube]dlFqRfMaiXk?list=OLAK5uy_lfufQXZ6nzvSA61bpn4MG4hu2ertF-unA[/youtube]

1989, Reissue, KK Records Discogs[/more]

[more=Technical info]
Input File: 02. After Separation.mp3
Channels : 2
Sample Rate : 44100
Precision : 16-bit
Duration : 00:05:39.04 = 14951620 samples = 25427.9 CDDA sectors
File Size : 13.6M
Bit Rate : 320k
Sample Encoding: MPEG audio (layer I, II or III)
Comments :
Title=After Separation
Artist=Controlled Bleeding
Album=Music from the Scourging Grounds
Tracknumber=2/10
Year=1989
Genre=Indie Rock

[/more]

Register
(1) zobero,
Nov 23 2022, 07:17:50 Paradise Lost - Shades Of God (1992)
ЦИТАТА(Coolvuk @ Nov 22 2022, 15:58:26) *
Ага, угу, словно критик из 92го года, впервые услышавший что-то не такое, как Металлика) Понять можно.
Я к тому, что с самого момента выхода этого альбома были такие нападки, точь в точь (вплоть до Draconian Times, там-то ликования вообще были, особенно по-поводу песни Forever Failure), что уже говорит о том, что слишком сильным был эффект от альбома.


C годами у меня сгладилось негативное впечатление от сабжа и DT (на который в принципе возникла непереносимость на момент выхода) из того периода. Если попытаться один выделять, самый-самый, могу выделить Icon, как беспросветно мрачный и безысходный по ощчущениям. Ну и да, 93 для меня был годом не простым, когда я в основном слушал попеременно Darkthrone и Paradise Lost. И тут уж сердцу не прикажешь, это глубоко внутри. Так, после этого появляется DT, который я интерпретировал как уход от мрачного тру в коммерческие розовенькие сопельки. Много лет спустя к нему отношеие постепенно переменилось, и сейчас я бы дал ему неплохую оценку и воспринимаю его не как неудачный дум, а вполне удачный готик. Вот такие метаморфозы восприятия. Напомню, что я слушаю эту группу всю сознательную жизнь и потому и осознание её протекает, взрослеет а теперь и стареет вместе с ней.

ЦИТАТА(Coolvuk @ Nov 22 2022, 15:58:26) *
А как это, он в такт не попадает? А кто не слабый то тогда? Я запутался.


Ещё бы он в такт не попадал. Примитивное исполнение основная претензия. Ли Морис несравненно интереснее заполняет пространство аскетичного наполнения уже на DT. Это удачное приобретение. И как надо звучать ударнику в подобном минималистичном контенте, чтобы понять, надо сравнить Тени с работой Рика из Невесты или драммера на дебюте Cathedral.


ЦИТАТА(Faust_Vulkan_16 @ Nov 22 2022, 22:24:12) *
на сабже вокал очень "как Хэтфилд", помню это еще с 93 года когда кассета появилась с альбомом у меня.
После двух первых альбомов подумал - что это за хрень я купил??


Появилась кассета с миньоном Cathedral "Soul Sacrifice". Поэтому у меня вонзник двой ной ват зе фак.

ЦИТАТА(Coolvuk @ Nov 22 2022, 17:44:18) *
Так он вроде по всем проехался, кроме басиста. Неужели, только басист тут, нормальный парень?

Басисты вообще ребята неплохие. Нормальные парни.
(3) 6666666, Faust_Vulkan_16, Formaldehyd,
Nov 22 2022, 12:44:33 Paradise Lost - Shades Of God (1992)
Вчера переслушал сабж и потому имею самые свежие о нём впечатления. Готического метала на нём, конечно нет, есть Trouble, Black Sabbath и Metallica. Несколько утомительно для меня он всегда звучал, в этом ничего не поменялось. Неестественное растяжение хронометража некоторых треков (был тут такой эксперимент) не компенсируется развитием усложненных переходов, партии ритм гитары (на которые здесь упор ) можно было бы сократить, некоторое однообразие риффов ведёт к линейности и скудности, стабильной статике процесса. Благодаря хетфилдоориентированному Нику и хемметонаяривающему Грегу, в большинстве песен прокралась тлетворная чёрная плесень, что придаёт говнарский оттенок работе. Особое непочтение криворукому ударнику, слабому звену в ритм секции. Плюсы в новационном подходе, создании переходного тамбура между андеграундом и Music for Nations, прекрасных, неизменно узнаваемых мелодиях Грега и наличии такого хита как Your Hand in Mine. Но безусловно, дебютный полноформат от того же года, не говорю уже о миньонах, от Моей Умирающей Невесты, значительно пиɜже.
(3) 6666666, Faust_Vulkan_16, Formaldehyd,
Nov 22 2022, 07:26:24 Cocteau Twins - Treasure (1984)


*Artist: Cocteau Twins
*Album: Treasure
*Year: 1984
*Genre: Ethereal Wave
*Country: United Kingdom
*Format: mp3@CBR320kbps
*Size: 95MB

Tracklist:
1. Ivo 3:54
2. Lorelei 3:42
3. Beatrix 3:11
4. Persephone 4:25
5. Pandora (For Cindy) 5:31
6. Amelia 3:30
7. Aloysius 3:26
8. Cicely 3:27
9. Otterley 4:00
10. Donimo 6:12
******************************
Total playing time: 41:18

[more=Extended info][youtube]gF8fnsyjCoI?list=PLfimnwaZdumjmd9hZvZCsSmL7btRaE1Bf[/youtube][/more]

[more=Technical info]
Input File: 02. Lorelei.mp3
Channels : 2
Sample Rate : 44100
Precision : 16-bit
Duration : 00:03:42.29 = 9803033 samples = 16671.8 CDDA sectors
File Size : 8.89M
Bit Rate : 320k
Sample Encoding: MPEG audio (layer I, II or III)
Comments :
Title=Lorelei
Artist=Cocteau Twins
Album=Treasure
Tracknumber=2/10
Year=1984

[/more]

Register
(2) EvgeniusLongus, Tyrone,
Nov 16 2022, 10:22:39 Paradise Lost - Shades Of God (1992)
Вот и добрались до примитивно-монотонных, зацикленных риффов, характерных готик-металу.
(1) brutolex,
Nov 16 2022, 08:36:40 Paradise Lost - Shades Of God (1992)
ЦИТАТА(Formaldehyd @ Nov 15 2022, 22:36:43) *
Но вот при звуках дудки слон теряет волю Селтик Фроста мне никогда готшные соборы не чудились, и даже кладбища тоже как то нет. Разве что, тётки голые, да и то, в комплексе с Валетом Мечей, Рином и другими родственниками и знакомыми однорукого бога.


Селтик Фрост можно сопоставить с Муркоковской мрачной фентези. Образ героический и трагический одновременно есть и тут и там. Но с гототой никак не вяжется. В гототе ничего героического нет - декаданс, артистичная меланхолия .
(1) Formaldehyd,
Nov 16 2022, 08:19:59 Paradise Lost - Shades Of God (1992)
ЦИТАТА(Aresson @ Nov 16 2022, 10:07:39) *
а что делать людям, у которых разглядывания соборов не вызывают никаких настроений?


Любое произведение искусства, будь то музыка, архитектура, живопись или театр, вызывает определённый спектр эмоций и в той или иной степени изменяет восприятие окружающего, расширяет внутренний мир. Воздействие искусства индивидуально, и если тебя не трогает внешний вид готического собора, попробуй уделить внимание синагоге.
(1) Formaldehyd,
Nov 15 2022, 18:22:28 Paradise Lost - Shades Of God (1992)
Чтобы определить имеется ли готичность в музыке нужно сопоставить её мысленно с воображаемым готческим собором,если соответствует настроению, значит - она. И для контрольной проверки представить танцующую при луне полуголую сексуальную вампирку в чулках...так . о чём это я.
(2) BleedingSun, Formaldehyd,
Nov 15 2022, 10:14:21 Four Stroke Baron - Monoqueen (2020)
На этом альбоме сборка перезаписей и каверов на группы, которые халяльному металлисту и знать не положено. Банда прикольная, я их послушал раньше (я и не выкупил, что на этом альбоме кавера, даже планировал один альбом в голосовальную солянку пихнуть, был остановлен крупье) да и 2018 года альбом Planet Silver Screen понравился. У них - то что экспериментал помечено - это сложная взвесь из Prog, Alternative и New Wave. Хорошая группа для любителей таких нагромождений.
А вот так звучит Broken Whiskey Glass в оригинале.
[youtube]Vlhf_WONU-8?t=152[/youtube]
(1) Yarri,
Nov 14 2022, 06:26:59 Paradise Lost - As I Die [single] (1993)
ЦИТАТА(Coolvuk @ Nov 13 2022, 23:58:18) *
Так это и есть кавер.


Когда эту вещь исполняет например, Eternal Tears of Sorrow.
(1) Aresson,
Nov 11 2022, 10:47:40 SS-18 - Cryoholocaust (2022)



Formaldehyd, ты просто завидуешь тому что у них соляки есть.
(1) Formaldehyd,
Nov 11 2022, 10:12:25 SS-18 - Cryoholocaust (2022)
Случайное сочетание свойств материи создало человечество, общество умственно одарённых людей, пошедшее путем промышленного прогресса, приближающееся ныне к теоретическим пределам собственной эффективности. Срок актуальности подобного вида организации живых существ близок к финалу — человечество, выбравшее путь Угра-кармы, достойно такого явления, как SS-18.

Что делает это образование? Поёт и играет на музыкальных инструментах? Да, и это тоже, но скорее — декламирует и возвещает. Как звучит амузыкальный рёв турбин, помехи радиочастотного диапазона и вакуум в межпланетном пространстве, так же звучит провозглашение зова труб семи ангелов в партитуре разрушения царства урбанизации антихриста, состоящего из промышленной плоти, соединённой медиа иллюзией, насыщенной бессмыслицей или опасной фикцией и эксплуатируемого козлогархами криолитозоны, населённой рабами информационного голода, агрессивными эгоистами, отравленными регулярным приёмом одурманивающих веществ. 

Мы как будто слышим прорывающиеся вопли из летящего в бездну локомотива, крики перекрывающие друг друга, нестройная анархия звука. Болезненная стихийная экспрессия, детонация психопатических состояний соединения разных личностей из  длительного промежутка времени, сменяющиеся лики искалеченного рода людского в агонии иссякающего мира в жанре ядерного холокоста.  

Семя Нуклеарптерикса проросло под пеплом измельчённых грехом биоотходов из нечистого прошлого, преданного мерзости и лжи, семя рвущееся к переходу. Через разрушение фараонов, погрязших в зрелищах, изысканных удовольствиях и комфорте, потерявших разум, ставших рабами похоти. Переход болезненный, через перерождение в проросшем огне очищения от насилия насилием, бедами, градом, кровью, горечью вод, затмениями в привходящем факеле Северного сияния Феникса. Трансформация плоти неизбежно приведет к перевоплощению рода людского, но сначала он должен пройти через Дератизацию.

Письма мертвого человечества. Именно так они звучат.
(4) Chasm, FullofHate, sethurius, Варяг,
Nov 10 2022, 13:03:42 SS-18 - Cryoholocaust (2022)
Собсна, Садист не играет блацк метал в этом проекте. Это - True Death Metal pray.gif
(1) Chasm,
Nov 5 2022, 20:18:20 Cryptopsy - None So Vile (1996)
ЦИТАТА(INDARKNESS @ Nov 5 2022, 22:11:28) *
и что это значит?

Либеральная молодежь сообщает о важности левацкой группы, пытавшейся изобразить дет метал, но потом осознав правду о себе, заигравшей деткор. Ничего интересного.
(2) Formaldehyd, INDARKNESS,
Nov 5 2022, 15:06:39 Suffocation - Pierced From Within (1995)


Они, в общем - крипто коды, живущие в цифровых полях, питающиеся техногенными цепочками звуковых символов, математически стабильны, людям не понятны, но враждебны с высокой степенью опасности. Потому то некоторые человеческие особи чувствуют дискомфорт и бесчеловечную угрозу в их присутствии. Это - закономерно.
(1) Chasm,

51 Pages V   1 2 3 > » 
- Lo-Fi Version Support form
Copyrights and abuse reports form
Time is now: 4th December 2022 - 13:55:54