Welcome Guest ( Log In | Register )

История благодарностей участнику mirotvorets ::: Спасибо сказали: 4661 раз(а)
Дата поста: В теме: За сообщение: Спасибо сказали:
Today, 05:43:57 Кому-то Неймётся, или Переголосовалка Попсачей - Часть 1: 1980 - 1984
Убийцы.

Всех убить.


выбирал по обложкам, топор с молотком - всяко лучше чем "в верхней картинке девушка испуганно смотрит, как в нижней картинке кто то оборвал себе яйки."


[attachment=9865:777.jpg]
(8) Lux, maxmagmas, Old Vyaine, plfan93, randyhermit, Tular, vam1972, Yarri,
Yesterday, 16:34:49 Colonel Petrov's Good Judgement - Hypomaniac (2021)
ЦИТАТА(Piob @ Jan 23 2022, 23:38:23) *
Lossless

FLAC
Register

mp3@320
Register





(3) AndreFrancis, Mencae77, Piob,
Yesterday, 15:50:03 Кому-то Неймётся, или Переголосовалка Попсачей - Часть 1: 1980 - 1984
ЦИТАТА(NeonKnight @ Jan 24 2022, 16:50:02) *
Гневно наставим минус-двоек, конечно же.


ЦИТАТА(Alamar @ Jan 24 2022, 17:34:02) *
Для [мат->бан]ов типа Бентона и Барнса точно не жалко будет.



Не следует забывать о запасе всего в один боекомплект каках на год. Так что следует постараться не ошибиться. Сапер же один раз ошибается. Не говорите, что не предупреждали. Эта прого мафия, она такая коварная, знаете ли. Набирает радикалов- смертников среди юных неокрепших душ.

А death metal в 90х был повышенной прочности.
(1) Deze,
Jan 23 2022, 11:39:52 Kairon; Irse! - Polysomn (2020)


*Artist: Kairon; Irse!
*Album: Polysomn
*Year: 2020
*Genre: Shoegaze/Space Rock/Post-Rock/Progressive Rock
*Country: Finland
*Format: mp3@CBR320kbps
*Size: 117MB

Tracklist:
1.Psionic Static 06:28
2.Retrograde 05:42
3.Welcome Blue Valkyrie 06:40
4.An Bat None 06:04
5.Mir Inoi 05:05
6.Altaïr Descends 06:40
7.Hypnogram 06:06
8.White Flies 03:51
9.Polysomn 02:25
******************************
Total playing time: 49:01



[more=Extended info]Dmitry Melet - Vocals, Bass, Guitar
Johannes Kohal - Drums
Lasse Luhta - Guitar, Bass
Niko Lehdontie - Guitar, Synth, Programming, Backing vocals
[youtube]kE5bf9BiEEs[/youtube][/more]

[more=Technical info]
Input File: 02. Retrograde.mp3
Channels : 2
Sample Rate : 44100
Precision : 16-bit
Duration : 00:05:42.93 = 15123257 samples = 25719.8 CDDA sectors
File Size : 13.9M
Bit Rate : 324k
Sample Encoding: MPEG audio (layer I, II or III)
Comments :
Title=Retrograde
Artist=Kairon; IRSE
Album=Polysomn
Tracknumber=02/09
Year=2020
Genre=Shoegaze

[/more]

Register
(1) marilin,
Jan 23 2022, 11:17:35 Colonel Petrov's Good Judgement - Hypomaniac (2021)


*Artist: Colonel Petrov's Good Judgement
*Album: Hypomaniac
*Year: 2021
*Genre: Progressive Metal/Jazz-Rock/Sludge Metal
*Country: Germany
*Format: mp3@CBR320kbps
*Size: 94MB

Tracklist:
1.Hypomaniac 03:48
2.Black Swan 06:51
3.Mating Season 04:48
4.Pendulum 05:31
5.Violent Meditator 05:40
6.Oscillopsia 03:03
7.Cyclothymia 05:14
8.Earth Escape Pod 05:43
******************************
Total playing time: 40:38



[more=Extended info]Sebastian Müller: Guitar
Leonhard Huhn: Saxophone, Electronics
Reza Askari: Bass
Rafael Calmam: Drums[/more]

[more=Technical info]
Input File: 02. Black Swan.mp3
Channels : 2
Sample Rate : 44100
Precision : 16-bit
Duration : 00:06:51.14 = 18131318 samples = 30835.6 CDDA sectors
File Size : 16.5M
Bit Rate : 322k
Sample Encoding: MPEG audio (layer I, II or III)
Comments :
Title=Black Swan
Artist=Colonel Petrov's Good Judgement
Album=Hypomaniac
Tracknumber=2/8
Year=2021

[/more]

Register
(8) artscald, cesar, gena, KoreanGringo, metala, Ostinato, SatanicPanzer, StabWound,
Jan 23 2022, 10:52:47 Zaqqoem - Anarchic Rapture Of Withering [ep] (2021)


*Artist: Zaqqoem
*Album: Anarchic Rapture Of Withering [ep]
*Year: 2021
*Genre: Death/Black Metal
*Country: Netherlands
*Format: mp3@CBR320kbps
*Size: 28MB

Tracklist:
1.Desist 03:00
2.Light Like Hope to Mortals Given 03:01
3.The Serpent Dream of Abrazakyz 06:09
******************************
Total playing time: 12:10




[more=Extended info]G. Zezax: vox - guitars
Sha: drums - bass - synths - backing vox[/more]

[more=Technical info]
Input File: 02. Light Like Hope to Mortals Given.mp3
Channels : 2
Sample Rate : 44100
Precision : 16-bit
Duration : 00:03:01.17 = 7989685 samples = 13587.9 CDDA sectors
File Size : 7.50M
Bit Rate : 331k
Sample Encoding: MPEG audio (layer I, II or III)
Comments :
Title=Light Like Hope to Mortals Given
Artist=Zaqqoem
Album=Anarchic Rapture of Withering
Tracknumber=02/3
Year=2021
Discnumber=1

[/more]

Register
(10) artscald, dermarsoran, Doooomed, Marek, Mencae77, Ostinato, stumpheavyrock, Taakeferd, vasiljev_sergej, wanderer73,
Jan 23 2022, 10:26:30 Five The Hierophant - Magnetic Sleep Tapes Vol. Ii [ep] (2019)


*Artist: Five The Hierophant
*Album: Magnetic Sleep Tapes Vol. Ii [ep]
*Year: 2019
*Genre: Dark Jazz/Dark Ambient
*Country: United Kingdom
*Format: mp3@CBR320kbps
*Size: 94MB

Tracklist:
1.I 21:58
2.II 19:02
******************************
Total playing time: 41:00



[more=Technical info]
Input File: 02. II.mp3
Channels : 2
Sample Rate : 44100
Precision : 16-bit
Duration : 00:19:02.58 = 50387954 samples = 85693.8 CDDA sectors
File Size : 45.8M
Bit Rate : 320k
Sample Encoding: MPEG audio (layer I, II or III)
Comments :
Title=II
Artist=Five The Hierophant
Album=Magnetic Sleep Tapes Vol. II
Tracknumber=2
Year=2019

[/more]

Register
(2) as71, Hell_Is_Here,
Jan 23 2022, 10:25:14 Five The Hierophant - Magnetic Sleep Tapes Vol. I [ep] (2019)


*Artist: Five The Hierophant
*Album: Magnetic Sleep Tapes Vol. I [ep]
*Year: 2019
*Genre: Dark Jazz/Dark Ambient
*Country: United Kingdom
*Format: mp3@CBR320kbps
*Size: 78MB

Tracklist:
1.I 15:27
2.II 10:03
3.III 08:20
******************************
Total playing time: 33:50




[more=Technical info]
Input File: FIVE THE HIEROPHANT - Magnetic Sleep Tapes - Vol I - 02 II.mp3
Channels : 2
Sample Rate : 44100
Precision : 16-bit
Duration : 00:10:03.54 = 26616246 samples = 45265.7 CDDA sectors
File Size : 24.2M
Bit Rate : 320k
Sample Encoding: MPEG audio (layer I, II or III)
Comments :
Title=II
Artist=FIVE THE HIEROPHANT
Album=Magnetic Sleep Tapes - Vol I
Tracknumber=2
Year=2019

[/more]

Register
(1) Hell_Is_Here,
Jan 21 2022, 18:58:43 Кому-то Неймётся, или Переголосовалка Попсачей - Часть 1: 1980 - 1984
ЦИТАТА(Alamar @ Jan 21 2022, 20:45:39) *
Священных коров надо периодически гонять кнутом по полю. Чтоб жиром не заплывали.

Никому попущения не будет. Всех по полю погоняем. Коров, скорпионов, бабу железную.
(2) Deze, Lux,
Jan 21 2022, 11:35:43 Кому-то Неймётся, или Переголосовалка Попсачей - Часть 1: 1980 - 1984
ЦИТАТА(Deze @ Jan 21 2022, 13:32:48) *
Точно. Залёт, однако! sirt.gif


Не, ну после прилюдного обсирания статуи Dream Theater в храме поклонения симфо-року. Я уже ничему не удивляюсь.
(1) plfan93,
Jan 21 2022, 10:42:36 Лучшие альбомы в дум метале за 2021 // Best Doom Metal Albums of 2021

Leprous Fire - Mouth Of Graves (2021) Psychedelic Doom Metal

Shamael - Melancholie Der Engel (2021) Atmospheric/Funeral Doom Metal

Pantheist - Closer To God (2021) Funeral Doom Metal/Neoclassical Darkwave
(1) Emm Human,
Jan 21 2022, 09:11:38 Wreche - All My Dreams Came True (2021)
Довольно динамичная музыка. Разный уровень накала страстей от умиротворения до игривой животной жестокости. Подошла бы звуковой дорогой к какому-нибудь красочному фильму про природу. Знаете, BBC такие выпускает. Вот пасторальная картинка, на которой стайка дельфинов кружится в лучах солнышка. Вот набежала тучка и гепард нагнал детёныша антилопы и кушает свою добычу.

Мелодическими линиями и построениями напомнило Krallice.

У этого чувака ещё и Steinway есть.
(1) Occultas,
Jan 20 2022, 12:13:51 Кому-то Неймётся, или Переголосовалка Попсачей - Часть 1: 1980 - 1984
ЦИТАТА(Deze @ Jan 20 2022, 14:12:38) *
Дело в том, что же вам должен внештатшную часть Советчика по Тру-блэку.


Она ж уже была. И прошла единственно правдивым способом. Советчики сожгли свои списки и потом самоубились.
(3) Deze, Exorcist, Lux,
Jan 20 2022, 08:40:25 Кому-то Неймётся, или Переголосовалка Попсачей - Часть 1: 1980 - 1984
ЦИТАТА(Alamar @ Jan 20 2022, 11:14:50) *
Другое дело, что SE тоже испытали влияние американских прогрессивщиков.

Американские прогрессивщики они такие, оказывать влияние могут. Например, Watchtower.
Вообще считаю, что ветка с приседанием на линейную технику - W, на атмосферность и многоуровневость - FW. По году старта обеих формаций как то так получается.
(1) Alamar,
Jan 17 2022, 10:46:42 Кому-то Неймётся, или Переголосовалка Попсачей - Часть 1: 1980 - 1984
ЦИТАТА(Exorcist @ Jan 17 2022, 13:18:05) *
Не видел ни одной афиши с большого феста, где пересекались обе группы, на которой лого Accept было бы больше лого Manowar. Всегда было наоборот. Сольно качки обычно играют в залах побольше, Киев - не исключение.


Лого больше. Тоже мне аргумент! У Мановар трусы - трушные, а у Accept - какие то подозрительные.
[more="сравнение"]
[/more]
(2) Formaldehyd, hammer,
Jan 17 2022, 07:07:37 Кому-то Неймётся, или Переголосовалка Попсачей - Часть 1: 1980 - 1984
Я не особый поклонник линейного хэви, поэтому кое-где балл умышленно завышен в режиме благоговейного трепета перед классикой.

1980
Judas Priest - British Steel 2 Безоговорочный топ этого не самого сильного периода стиля - становление основ, не отнять. Риффовая техника уже вполне сформирована, хоровые распевки, пафосные настроения - прямые указания для базовых настроек последователей.
Black Sabbath - Heaven And Hell 3 Фантастическая работа. Богатейшая палитра средств украшения мелодии и развития музыкальной темы в узких рамках стили. Божественный вокал, талантливейший гитарист эпохи, адская ритм-секция. Что может быть лучше. Погружение без рассуждений.
Iron Maiden - Iron Maiden -1 Это какая то мякота. У меня абсолютное неприятие. На кассете был единственный альбом этой группы - Седьмой сын.
Motorhead - Ace Of Spades -1 Совершенно противоествественная для меня музыка. Угар, ветер в харю, я хуарю. Здесь большое влияние психодела и Hawkwind, алкогольные трипы, и это - единственный плюс.

1981
Accept - Breaker -1 Немцы прагматично относятся к своему делу. Делают хорошо, но без изысков. Крепкий академический металл.
Iron Maiden - Killers 1 Уже получше. Неплохие соло, смены настроения и изящные гармонические решения. Всё ещё в радостном ключе. Молодость стиля. Вся жизнь впереди.
Ozzy Osbourne - Diary of a Madman 2 Randy Rhoads - очень крут. И баллада Tonight несколько компромиссна, но имеет прекрасное романтическое наполнение и хорошое соло. Среднетемповый мелодический метал с влиянием 70-х, харда, попсы и даже … барокко. Мистический эпатаж делает своё дело. Оккультный кладбищенский дух правит вихрями энергий в этом достаточно опасном, непредсказуемом и безумном опусе.
Venom - Welcome To Hell -1 Мажор с козлом на обложке.Бравый застольный ритм и слишком много позитивных вибраций. Нет Сатаны в этих звуках. Я подожду последователей. Ничего против веном не имую, просто никогда не любил.

1982
Iron Maiden - The Number Of The Beast -1 Не в этой жизни. Потыкал, не могу это слушать.
Accept - Restless And Wild -1
Judas Priest - Screaming For Vengeance 1 Квадратные формы, чёткая геометрия. Без ызысков, четко сформулированные позиции в хорошем звуке.

1983
Accept - Balls To The Wall -1 Достаточно было мне металлического сердца. Оно покрепче того, что To The Wall.
Metallica - Kill'Em All 1 Кто то должен был.
Slayer - Show No Mercy 1 Драли с веном и моторхед - и не только, и добавляли толику своего неумения тотального плагиата. Проглядывают сквозь заимствования лики грядущего величия.
Iron Maiden - Piece Of Mind -1 Неуверенный ритм, вокал, пробуксовки, когда тема внезапно обывается ритмической сбивкой. Политкорректный результат - не определятся со следующим шагом. Обрывки невнятные. У меня с этой группой развивается синдром ложной слепоты - не складывается картина, что там они собираются мне донести. Или паралич мозга, кому -как. Но я честно - пытался.
Dio - Holy Diver -1 Поверхностная, нецепляющая работа. Не старались не вникая в суть.
Ozzy Osbourne - Bark At The Moon 2 А вот здесь блеснул клавишник Don Airey. Прекрасные гармонии в мистическом ключе.

1984
Metallica - Ride The Lighting 2 Эволюционный феномен.
Judas Priest - Defenders Of The Faith 2 Любимейший альбом группы.
Grave Digger - Heavy Metal Breakdown -1 Когда то мне понравился Heart of Darkness. Знакомство с остальными работами группы ни к чему не привело.
W.A.S.P - W.A.S.P 1 Жизнеутверждающие хулиганы. Был на их живом выступлении. Круты.
Iron Maiden - Powerslave -1 Опять. И снова.
Manowar - The Sign of the Hammer 2 Ветераны эпик метала. Болшой респект и золотой фонд этой группы.
Mercyful Fate - Don't Break The Oath 2 Мрачные замысловатые эпики выглядят достаточно голодными и недоброжелательными.
Running Wild - Gates To Purgatory 1 Этот период группы достаточно слушабелен. Это не совсем моё.
Scorpions - Love At First Sting 1 Когда мне попадались синенькие такие гибкие пластинки из журнала Кругозор, ух, я их до дыр затирал на родительском монофоническом чуде проигрывателе. После в составе всяких сборников слушались. Но вот полный альбом сейчас несколько утомителен. Ну хороший вокал, и Шенкер. Остальное - в силу исторических заслуг и популяризации косух и напульсников.
Dio - The Last In Line -1 Зевал.
Sodom - In The Sign Of Evil (EP) -1 Заснул.
Manowar - Hail To England 3 А вот и приз личной симпатии. Вычурные мелодические эпитеты поднимут даже самый безнадёжно поникший тонус. Веха пафосной тестостероновой доблести и гимн творческой потенции. Если отставить приевшиеся шутки про Мужиков Металла, то вещь Each Dawn I Die - это убийственно мрачная тема, до сих пор до костей пробирает.
(2) Formaldehyd, Tular,
Jan 16 2022, 17:32:04 Anaal Nathrakh - Total Fucking Necro [best of/compilation] (2002)
Стало интересно, как их вокалист потянет De Mysteriis Dom Sathanas. Ну что ж - вокал довольно куражный - получилось достойно и достаточно в стельку.
(1) Occultas,
Jan 16 2022, 13:21:09 Кому-то Неймётся, или Переголосовалка Попсачей - Часть 1: 1980 - 1984
ЦИТАТА(Deze @ Jan 16 2022, 14:52:21) *
а вы уверены, что нейтральная оценка вообще существует? Вопрос звучит глупо, да, но я вот про что:


Если ставить вопрос так - нет, ты не возьмешь этот альбом с собой на обитаемый остров или ты возьмешь этого человека в разведку. Тут да или нет. Нейтрали - не существует.
(1) Deze,
Jan 14 2022, 11:06:07 Mayhem
ЦИТАТА(sethurius @ Jan 11 2022, 20:24:54) *
Чтобы eбашить Мэйхем в две тысячи двадцать первом году, нужно сделать все правильно. А именно.

пригласить бабу, гомика и сирийца.

Второй ковер даже более аутентичен - с тёлкой - нойз рокершей. Группа Deathcrush достаточно андерграундна, что и олицетворяет суть Mayhem pray.gif , а не эти успешные в жизни напыщенные индюки.
(3) Faust_Vulkan_16, sethurius, SSWolf88,
Jan 13 2022, 19:55:23 Noltem - Illusions In The Wake (2021)
20.gif

Register
(1) vasiljev_sergej,
Jan 13 2022, 19:10:08 Shedfromthebody - To Hold The Ripened Sun (2021)


*Artist: Shedfromthebody
*Album: To Hold The Ripened Sun
*Year: 2021
*Genre: Shoegaze/Post-Metal/Doom Metal/Ethereal Wave
*Country: Finland
*Format: mp3@CBR320kbps
*Size: 107MB

Tracklist:
1.It Grows Tall 03:12
2.We'll Be Lifting Our Arms to the Sky in Joy and Wonder 04:26
3.The Hollowing of Girls 03:28
4.Hours 06:17
5.In the Pines 03:50
6.Aino (Interlude) 01:21
7.Fascia 04:14
8.Irti 04:18
9.Shrines 05:40
10.Halfsorrow 04:13
11.To Hold The Ripened Sun 04:01
******************************
Total playing time: 45:00



[more=Extended info][youtube]LEucB-DlP6U[/youtube][/more]

[more=Technical info]
Input File: 2. Shedfromthebody - We\'ll Be Lifting Our Arms To the Sky in Joy and Wonder.mp3
Channels : 2
Sample Rate : 44100
Precision : 16-bit
Duration : 00:04:26.08 = 11733908 samples = 19955.6 CDDA sectors
File Size : 11.0M
Bit Rate : 330k
Sample Encoding: MPEG audio (layer I, II or III)
Comments :
Title=We'll Be Lifting Our Arms To the Sky in Joy and Wonder
Artist=Shedfromthebody
Album=To Hold The Ripened Sun
Tracknumber=2/11
Year=2021
Discnumber=1/1

[/more]

Register
(9) aleon, artscald, caro, Olethros, robertho777, stone88, Stutthof, VALERY, yuratroll,
Jan 13 2022, 10:52:26 Кому-то Неймётся, или Переголосовалка Попсачей - Часть 1: 1980 - 1984
ЦИТАТА(maxmagmas @ Jan 13 2022, 00:58:20) *
Мейден в Слеере 83 есть, как и другие значимые английские группы того времени. Там хоть садись с карандашом, включай альбом и начинай записывать. Я последний раз, когда слушал, а делал это пару лет назад, то обнаружил там: Venom / Motorhead (как мы договорились и я с этим согласен - это очень родственные группы, поэтому в музыке Слеер 83 их можно считать за одно заимствование), Judas Priest, Black Sabbath, Iron Maiden.


Это потому, что экстремальный музон развивался по принципу "как бы нам сделать музыку шумнее и злобнее, чем наши кумиры". Некоторая осмысленность в этом была, тот же Слеер понимал, что нужно а) увеличить темп, б) сделать применение таких приемов, как palm muting, и далее - в) перегрузить гитары, а ещё лучше-дисторшена накрутить, г) орать в микрофон более свирепо и яростно. Но в силу того, что погрешности вносились непрофессионализмом музыкантов - самоучек. Т.е играть получалось через призму своих собственных индивидуальностей - наработок - у кого как получалось. На слух примерно услышанное, неправильно спи3женное, игралось как получилось. В этом и похожесть, и уникальность стремительно образовавшихся новых групп.
(1) hammer,
Jan 11 2022, 14:36:20 Perturbator - I Am The Night (2012)
ЦИТАТА(Shadowman @ Jan 11 2022, 16:25:26) *
но все же здесь не помешало бы чуть более изящное разрешение гармоний.

С определенным уфологическим шармом француза подкину тогда - Hollywood Burns - с мелодичными нелинейно симфо кинематографическими набросками работы, выпускается не часто, и квадратностью точно не страдает, накручено - порядком!
(1) Shadowman,
Jan 11 2022, 08:29:37 Mayhem
Наверное, только Снорре имел право так похабно сыграть соло Евронимуса на Freezeng Moon - главное гитарное соло всего блэк метал. У Некробатчера в этот момент выражение лица такое отстраненное, вспоминает, выпил ли он с утра таблетки от давления.
(1) Faust_Vulkan_16,
Jan 10 2022, 20:58:27 Perturbator - I Am The Night (2012)
ЦИТАТА(Shadowman @ Jan 10 2022, 23:36:13) *
Да, явная отсылка ) Послушал уже на ютубе выборочно. Вроде, и неплохо, но Perturbator мне нравится однозначно больше. Офигенный проект, кто бы там что ни говорил.


У греков, думаю это - разовое явление, оба клавишника оторвались, скорее всего был материал уже, и они его реализовали без прочих участников под знаменем ХСН, оба профи, им тесновато в рамках даже и экспериментального блэкового проекта. Один из них в серьезном джаз-роковом проекте Uthull задействован. Последует ли продолжение?
А француз, понятно, в развитии уже зарекомендовал себя.
(1) Shadowman,

44 Pages V   1 2 3 > » 
- Lo-Fi Version Support form
Copyrights and abuse reports form
Time is now: 25th January 2022 - 18:49:34