Welcome Guest ( Log In | Register )

Объявления

* gmail.com упорно продолжает считать почту с нас "unsolicited" и отбивает в том числе и письма активации, поэтому просьба использовать альтернативные почтовые ящики.
------------
* gmail.com continues reject all mail from us as "unsolicited" (activation mails too) therefore please use alternate mail servers.
История благодарностей участнику mirotvorets ::: Спасибо сказали: 7256 раз(а)
Дата поста: В теме: За сообщение: Спасибо сказали:
Jul 7 2024, 16:56:15 Tiamat - A Deeper Kind Of Slumber (1997)
ЦИТАТА(ent404 @ Jul 7 2024, 19:41:50) *
в таком случае желаю всем ценителям сабжа, чтобы их бросили их половины, авось после нечто великолепное родиться)
шутка конечно, но какие комментарии - такие и шутки.


Под влиянием жизненных встрясок и эмоций рождаются самые шедевры. Разве нет? Не от хорошей жизни окунаются в творчество. Творчество рождается в муках .
(1) ent404,
Jul 7 2024, 16:39:29 Tiamat - A Deeper Kind Of Slumber (1997)
Получается, его девушка приняла участие, хоть и косвенное, в рождении этого великолепного альбома.
(1) 6666666,
Jul 6 2024, 16:25:01 Diary Of Dreams - Melancholin (2023)
У него с оркестром альбом вышел - для фанатов, если интересно. Вещи с разных альбомов, я так понял.


Сабж понравился, хотя как то спокойно к DOD относился. В All Is Fragile услышал бадаламентивский мотив из Твин Пикс.
(1) ivreactor,
Jul 6 2024, 08:25:54 Tiamat - A Deeper Kind Of Slumber (1997)
ЦИТАТА(Grummegargler @ Jul 6 2024, 10:21:08) *
ремастер или переиздание.


info

Register
(1) Grummegargler,
Jun 30 2024, 19:59:41 Angel Death - From Deepest​.​.​. (2024)
Мда. Трудновато, поди, сеньору Giovanni столько лет в такой аццкой компании обретаться
(1) vosmidesijatye,
Jun 29 2024, 19:55:03 Krallice - Inorganic Rites (2024)
Register
(14) acerbus, aesteticvice, AHBAnep, forfolja, Leo3, Marek, nemx, Occultas, Piob, salamalal, SerpentineLords, stormhatt, Tankleberry, Wail,
Jun 29 2024, 07:22:33 Krallice - Inorganic Rites (2024)


*Artist: Krallice
*Album: Inorganic Rites
*Year: 2024
*Genre: Avant-Garde Black Metal
*Country: United States
*Format: mp3@CBR320kbps
*Size: 153MB

Tracklist:
1.Parataxis 06:23
2.Flatlines Encircled Residue 10:07
3.Irdischen 03:33
4.Here Forever 05:23
5.Feel Time Begin 04:40
6.Faustian Bargain 04:49
7.Universe Ancestral Talisman 10:00
8.Death By Misadventure 04:32
9.Fatestorm Sanctuary 13:54
10.Hinderer 03:07
******************************
Total playing time: 1:06:28



[more=Extended info]Nicholas McMaster Guitars, Vocals, Songwriting (tracks 1, 3, 5, 6, 8), Lyrics (tracks 1, 3, 6, 8)
Colin Marston Synthesizers, Guitars, Vocals, Songwriting (tracks 2, 7, 9), Lyrics (track 9)
Mick Barr Bass, Guitars, Vocals, Songwriting (tracks 4, 5, 10), Lyrics (tracks 2, 4, 10)
Lev Weinstein Drums
[youtube]qmRZyoqexXU[/youtube][/more]

[more=Technical info]
Input File: 02. Flatlines Encircled Residue.mp3
Channels : 2
Sample Rate : 44100
Precision : 16-bit
Duration : 00:10:07.62 = 26795954 samples = 45571.4 CDDA sectors
File Size : 24.5M
Bit Rate : 323k
Sample Encoding: MPEG audio (layer I, II or III)
Comments :
Title=Flatlines Encircled Residue
Artist=Krallice
Album=Inorganic Rites
Tracknumber=2
Year=2024

[/more]

Register
(41) Altkiller, Angeldemon617, artscald, as71, Bannanik, BlackSwordMaster88, Buregon, Carcharoth, dcatagua, ENDSMOUTH, Femto, Grev, kefka, kolar666, madera, Mannard, maochen, marilin, Mencae77, metala, Metalass, metaljosue, MMMMM, nemx, obituarydark, prinzsh, Reverend, skidnik, smysl, stormhatt, VALERY, valgalder, Veligor, Wail, Weikai, wreak, xska, yuratroll, ZamanFu, ZambuL, Zer0,
Jun 28 2024, 19:30:27 Новости Death Metal направления
ЦИТАТА(Chasm @ Jun 28 2024, 21:40:17) *
вобщем чего, эмбиент еще раз ждать?


Интригующе выглядит.
(1) Occultas,
Jun 28 2024, 18:00:10 Новости Death Metal направления
ЦИТАТА(vosmidesijatye @ Jun 27 2024, 13:20:59) *
Blood Incantation - Absolute Elsewhere - 04 // 10 // 24


1. The Stargate 20:20
2. The Message 23:23



Guest/session musicians - Thorsten Quaeschning

Thorsten Quaeschning is the current leader of the ambient/electronic band Tangerine Dream that have been active since 1967 and leaded by the founder Edgar Froese until is the death in 2015, which means the band has no original members left.
Before joining Tangerine Dream his main project was the post-rock band Picture Palace Music.
(2) Chasm, Occultas,
Jun 26 2024, 06:17:37 Burzum - The Land Of Thulê (2024)
Очень одобряю его современную музыку. В 90-х был нужен оголтелый анархистский Варг, полный деструктивной ауры - и нам это было понятно и своевременно. Сейчас такое не по плечу ни ему, ни мне, может, что то ещё теплится, но не от него. Он свою реку уже прошёл. А вот healing music Варга сейчас очень уместна и .. актуальна. Для гармонизации потрепанной психики, восстановления разрушенных ранее храмов и покаяния.
(2) Chasm, ent404,
Jun 25 2024, 13:49:32 Abysskvlt - MDzod Rum (2024)
На платформах zvuk.com и qobuz.com реализована версия с треком4 g.Yang-Ma в (cut version)
https://www.qobuz.com/gb-en/album/mdzod-rum...t/axloqnvaj0kbb
https://zvuk.com/release/33697156

на Deezer - пятитрековый вариант:
sGo, lDemig, Phuglam, Nags Ligbu, Rigpa'i Khubyug

на BC - g.Yang-Ma - на 31:21 минуту - для самых стойких.
(1) Occultas,
Jun 25 2024, 06:18:31 Abysskvlt - MDzod Rum (2024)


*Artist: Abysskvlt
*Album: MDzod Rum
*Year: 2024
*Genre: Funeral Doom Metal/Ritual Ambient
*Country: Russian Federation
*Format: mp3@CBR320kbps
*Size: 298MB

Tracklist:
1.sGo 11:47
2.lDemig 11:42
3.Phuglam 15:14
4.g.Yang-Ma (cut version) 19:31
5.'Dre'i Khroba 19:25
6.Nags Ligbu 16:56
7.Rigpa'i Khubyug 14:21
8.Mu Zhi mThu 19:46
******************************
Total playing time: 2:08:43



[more=Technical info]
Input File: 02. Abysskvlt - lDemig.mp3
Channels : 2
Sample Rate : 44100
Precision : 16-bit
Duration : 00:11:42.14 = 30964154 samples = 52660.1 CDDA sectors
File Size : 28.7M
Bit Rate : 327k
Sample Encoding: MPEG audio (layer I, II or III)
Comments :
Title=lDemig
Artist=Abysskvlt
Album=mDzod Rum
Tracknumber=2/8
Year=2024
Genre=Metal

[/more]

Register
(30) Altkiller, artscald, autumnwood, Branis, Dante_D, deadterror, DMIYUR, gena, Grev, Infidel, kefka, Mist13Signifier, nadin85, Occultas, Requiescat, rominow, Sanctus, Satanspell, Shadechaser, StoneTemple, supremo, tOmV, Tormentor6, VALERY, vlad74, vyacheslav, Wail, wreak, XxNachtmahRxX, ZambuL,
Jun 25 2024, 05:54:02 Templum Anima Morti - Essentia [ep] (2023)


*Artist: Templum Anima Morti
*Album: Essentia [ep]
*Year: 2023
*Genre: Black Metal
*Country: Russian Federation
*Format: mp3@CBR320kbps
*Size: 21MB

Tracklist:
1.Essentia 05:30
2.Глиняное Веко 03:00
******************************
Total playing time: 8:30



[more=Technical info]
Input File: 01. Templum Anima Morti - Essentia.mp3
Channels : 2
Sample Rate : 44100
Precision : 16-bit
Duration : 00:05:30.86 = 14591014 samples = 24814.6 CDDA sectors
File Size : 14.0M
Bit Rate : 338k
Sample Encoding: MPEG audio (layer I, II or III)
Comments :
Title=Essentia
Artist=Templum Anima Morti
Album=Essentia
Tracknumber=1/2
Year=2024
Genre=Metal

[/more]

Register
(10) artscald, Boozer, dcatagua, deadterror, dermarsoran, Evrom, Grev, stormhatt, supremo, wreak,
Jun 24 2024, 13:31:46 Ulcerate - Cutting The Throat Of God (2024)
ЦИТАТА(valash @ Jun 24 2024, 16:04:35) *
Есть пачка примеров. Пошёл на "тучу". купил винил, отдав зарплату. Послушал. Удовлетворение оказалось неполным. Продал или поменял.
Спустя полгода понял, что ошибся, избавившись. Пошёл и потратил ещё одну зряплату. Через год понял, что шайба лежит мертвым грузом, потому что вот. Продал. Когда пошёл покупать в очередной раз, винилов уже нету, есть CD.
И по итогам вот она, скотина, в виде мп3, всю кровь выпила гадина за 40 лет.
Историческая справка. 1988 год. Фирменный Motorhead "Iron Fist" - 50 рэ. "Метла" "And justice for all..." - 280. Зарплата пролетария низкой квалификации - от 120.



Ключевой момент - в осознанном выборе. Сам решил - сам осуществил. Повторил. Каеф-движняк то какой.

А тут выше пациентам насыпали силоса, они его втёрли и жалуются, что у них онанизм теперь не такой какой-то.
(1) Ainar,
Jun 16 2024, 10:12:28 Sfeerverzieker - Disciple Of The Damned [ep] (2024)
ЦИТАТА(Razorbladeswaltz @ Jun 15 2024, 18:47:48) *
лося бы.


Register
(1) Razorbladeswaltz,
Jun 15 2024, 10:16:55 Rhys Fulber - Balance Of Fear (2024)


*Artist: Rhys Fulber
*Album: Balance Of Fear
*Year: 2024
*Genre: Industrial Techno
*Country: Canada
*Format: mp3@CBR320kbps
*Size: 98MB

Tracklist:
1.Fall Awake 06:29
2.Damage C'est Damage 04:09
3.Technology 04:46
4.European Skies 05:05
5.Circle Of Absolutes 05:40
6.The Heir 05:44
7.Despite The Noise 05:56
8.Driven 04:48
******************************
Total playing time: 42:37



[more=Extended info][youtube]EVRaaSot1No[/youtube][/more]

[more=Technical info]
Input File: 02. Damage C\'est Damage.mp3
Channels : 2
Sample Rate : 44100
Precision : 16-bit
Duration : 00:04:09.09 = 10985045 samples = 18682 CDDA sectors
File Size : 10.2M
Bit Rate : 328k
Sample Encoding: MPEG audio (layer I, II or III)
Comments :
Title=Damage C'est Damage
Artist=Rhys Fulber
Album=Balance Of Fear
Tracknumber=2/8
Year=2024
Genre=Electro, Industrial

[/more]

Register
(5) gwar, Hell_Is_Here, JPV, lucifix, ZamanFu,
Jun 11 2024, 18:42:26 Empusae & Peter Bjärgö - Onus (2024)


*Artist: Empusae & Peter Bjärgö
*Album: Onus
*Year: 2024
*Genre: Dark Ambient/Post-Industrial | Dark Ambient/Neoclassical Darkwave
*Country: Belgium | Sweden
*Format: mp3@CBR320kbps
*Size: 92MB

Tracklist:
1.Overwhelming Cruelty 10:21
2.Coiling Despair 09:55
3.Unavoidable Darkness 11:25
4.The Unsound of Love 08:05
******************************
Total playing time: 39:46



[more=Extended info][youtube]jQHsClZRkzw[/youtube]
[youtube]-yqEfq899hs[/youtube][/more]

[more=Technical info]
Input File: 02. Coiling Despair.mp3
Channels : 2
Sample Rate : 44100
Precision : 16-bit
Duration : 00:09:55.11 = 26244131 samples = 44632.9 CDDA sectors
File Size : 23.9M
Bit Rate : 321k
Sample Encoding: MPEG audio (layer I, II or III)
Comments :
Title=Coiling Despair
Artist=Empusae / Peter Bjärgö
Album=Onus
Tracknumber=2/4
Year=2024
Genre=Alternatif et Indé
Discnumber=1/1

[/more]

Register
(12) Boozer, ent404, gena, Hell_Is_Here, Infidel, leks, lucifix, nemx, POMAHOB, qazaqra, vlad74, ZamanFu,
Jun 11 2024, 08:40:19 Ulcerate - Cutting The Throat Of God (2024)
ЦИТАТА(sewage @ Jun 11 2024, 11:18:02) *
mirotvorets, Я слушаю академический авангард, только не нью-йоркской школы, фри импров, но только европейский, этник джаз, но только не норвежский, нью скул дип, но только не нью скул текстеп.


Теперь, надеюсь, у нас появился полный перечень диагнозов двачёвской илиты.
(1) 6666666,
Jun 11 2024, 08:05:01 Ulcerate - Cutting The Throat Of God (2024)
sewage, а что скажешь про Rock in Opposition ?
(1) Daale,
Jun 8 2024, 20:17:32 Ulcerate - Cutting The Throat Of God (2024)
ЦИТАТА(Фо @ Jun 8 2024, 22:51:54) *
Прорыв был на The Destroyers Of All, и хороший флещбек на Shrines Оf Paralysis, далее же просто стали держать марку, и мал по малу становиться чуть изи-листенинг. Академичность - путь к закостенению. King Crimson или Tool - такую дрянь не слушаю.


Прорыв -для меня как субъективного слушателя, уточню ещё раз, следящего за творчеством. Тот момент когда услышал -о .это точно мое. А по текущему альбому могу добавить, что он является логичным продолжением предыдущего и последовательным развитием творчества.
Нужны сюрпризы ? - не мне. Не от Ulcerate.
ЦИТАТА(Фо @ Jun 8 2024, 22:51:54) *
и мал по малу становиться чуть изи-листенинг.


Разве это плохо, что они становятся более медодичными.
Хотя, не представляю, что такое изи на стримингах в чартах взлетит.
(1) metaljosue,
Jun 8 2024, 19:28:49 Ulcerate - Cutting The Throat Of God (2024)
ЦИТАТА(Фо @ Jun 8 2024, 21:52:23) *
Я не в эйфории, и довольно внятно, надеюсь, описал его недостатки.
Можно добавить и упростить: альбом хороший, потому что он хорош настолько, на сколько не может быть плох. Но, не более. Не могут переступить через себя и пролвинуться или же, отступить. Пытаются по восточному - подождать, пока мимо не проплывёт их труп. Тогда будет индульгенция на делай всё, что хочешь. А покуда - заперты в себе, и запах слегка начинает просачиваться.
Социалистическая революция, о необходимости которой так долго говорили большевики, свершилась!
(Тринадцать лет назад надо было меня слушать 1488.gif )



Запаха никакого в соей локации не обнаружил, хотя уже n-раз послушал, фактически весь день только его и слушаю, предполагаю - проблема не в альбоме.

Я, напротив, вижу большой потенциал в их творчестве, хотя уже и давно одна из любимейших, но прорыв - на прошлой работе, и тут уж ниша есть - определенная, которую они сами себе создали. Какие тут эксперименты, только микронастройки могут быть. Они сами себе академики со стилем уникальным.
Изменения есть, и если их услышать - то вставляет. Конечно, предыдущий альбом мне просто вынес макуху, этот уже несколько умиротворяюще растворяет в потоке. Он тоньше, детально прорисован, менее экспрессивен. Написан нотами и прочувствован композитором. По величию конечно не так, но по подходу и размаху могу сравнить с King Crimson или Tool. Вещь в себе со своим законом.
(2) HelenVaughan, metaljosue,
Jun 8 2024, 18:27:14 Ulcerate - Cutting The Throat Of God (2024)
ЦИТАТА(ent404 @ Jun 8 2024, 21:05:44) *
это здесь очередь на самую пространственную рецензию?
ой, простите. пространную!



*подпространственную.

Не, мы просто в эйфории от альбома, а кто вчера куюями Ульцерейтов обкладывал - сегодня - в бане. Делай выводы.
(1) metaljosue,
Jun 8 2024, 17:53:14 Ulcerate - Cutting The Throat Of God (2024)
Губительно пассивное созерцание и самолюбование. И здесь опять события складываются насыщенно вариативностью трансформаций и маневров — таков эволюционный выбор. Информационная накачка пространства интенсивно глубинная. Цепочки вращающихся веретеном битов зашкаливают параметры передаваемых массивов во вне из центра стремительного ускорения. Игра разума по изменению состояния отрицательного времени и нулевого вакуума, игра в шахматы с противником, имеющим вероятностные модели фигур в арсенале от светло-черного — до темно-серого. Всё поле возможностей. Правила иллюзорны, а когда единица с нулём устремляются навстречу друг другу в поисках гармонии в коитусе инцеста (а ведь, как известно, ноль и единица - одно и то же), рождается целый сонм потомков — и трёх четвертых, и семи восьмых, и девяти десятых., становится понятно, что существование консонанса — это самообман, всего лишь игра психики, неосуществимая выдумка или просто красивая легенда.

Странное и недоступное пониманию Явление, описанное на языке жестов существу, состоящему из единого туловища, пребывающему в иной системе координат и имеющему иные принципы мышления. Догадки о воспринимаемом мире по ложным сформированным образам, определяющимся исходя из накопленного опыта. Агнозия пространственного восприятия - ведь истина не имеет значения, важна лишь способность не выпасть из событийной сцены. Но мир не такой, как мы его представляем - всё, что мы видели ранее можно списать и забыть. Майя нашепчет нам иные формулировки и мы по другому услышим скрежет червоточины.


Сейчас — так. Как будет дальше — там посмотрим.
(3) Chasm, Mencae77, metaljosue,
Jun 7 2024, 12:57:17 Richard Henshall - Mu Vol. I [ep] (2024)


*Artist: Richard Henshall
*Album: Mu Vol. I [ep]
*Year: 2024
*Genre: Progressive Metal
*Country: United Kingdom
*Format: mp3@CBR320kbps
*Size: 53MB

Tracklist:
01. Yang 04:46
02. Granular 06:21
03. Land Aliens 04:02
04. Mu 07:33
******************************
Total playing time: 22:42





[more=Extended info]Line Up:
Richard Henshall - Guitar, Bass, Keyboards
Adam Carillio - Saxophones
Lang Zhao - Drums[/more]

[more=Technical info]
Input File: 02. Richard Henshall - Granular.mp3
Channels : 2
Sample Rate : 44100
Precision : 16-bit
Duration : 00:06:21.10 = 16806422 samples = 28582.4 CDDA sectors
File Size : 15.5M
Bit Rate : 326k
Sample Encoding: MPEG audio (layer I, II or III)
Comments :
Title=Granular
Artist=Richard Henshall
Album=Mu Vol. I
Tracknumber=2/4
Year=2024

[/more]

Register
(7) AHBAnep, artscald, gwynnbleid, ivanasyanin, KLOP, wreak, Yarri,
Jun 7 2024, 06:10:44 Insect Ark - Raw Blood Singing (2024)


*Artist: Insect Ark
*Album: Raw Blood Singing
*Year: 2024
*Genre: Doom/Sludge Metal/Noise Rock
*Country: Germany
*Format: mp3@CBR320kbps
*Size: 102MB

Tracklist:
01. Birth of a Black Diamond 01:13
02. The Frozen Lake 07:29
03. Youth Body Swayed 07:06
04. Cleaven Hearted 06:35
05. The Hands 04:04
06. Psychological Jackal 08:21
07. Inverted Whirlpool 06:59
08. Ascension 02:35
******************************
Total playing time: 44:22





[more=Extended info]Dana Schechter (bass, lap steel, electronics) + Tim Wyskida (drums, electronics)

Music written by Dana Schechter and Tim Wyskida
Lyrics written by Dana Schechter
Larkspur Lullabies Music, BMI © and © 2024 Insect Ark
Dana Schechter: Bass, Vocals, Lap Steel Guitar, Synthesizers, Piano
Tim Wyskida: Drums, Percussion, Backing Vocals
Guests:
Ville Leppilahti, Piano (4) , Synthesizers (5, 6)
Colin Marston Synthesizers (7)
Recorded by Nikos Giagkoudakis and Socrates Bebis at Unreal Studio, Athens
Assistant Engineering by Alex Ketenjian and Nikos Dimitrakakos
Produced by Insect Ark and Nikos Giagkoudakis
Additional Production and Recording, Torben Utecht, Dana Schechter, Berlin
Mixed by Colin Marston at Menegroth Studios, New York
Mastered by James Plotkin at PlotkInworks, Pennsylvania
<br /https://www.insectark.com/rawbloodsinging[/more]

[more=Technical info]
Input File: 02. Insect Ark - The Frozen Lake.mp3
Channels : 2
Sample Rate : 44100
Precision : 16-bit
Duration : 00:07:29.52 = 19823700 samples = 33713.8 CDDA sectors
File Size : 18.2M
Bit Rate : 325k
Sample Encoding: MPEG audio (layer I, II or III)
Comments :
Title=The Frozen Lake
Artist=Insect Ark
Album=Raw Blood Singing
Tracknumber=2/8
Year=2024

[/more]

Register
(20) artscald, as71, chickenfucker, CuRSeD, denver, Evrom, gena, Grev, HMHamster, metala, RodJohnson, skidnik, stumpheavyrock, VALERY, vlad74, Weikai, wreak, XxNachtmahRxX, ZamanFu, дивин,

63 Pages V   1 2 3 > » 
- Lo-Fi Version Support form
Copyrights and abuse reports form
Time is now: 13th July 2024 - 05:12:41