Welcome Guest ( Log In | Register )

История благодарностей участнику Kitalter ::: Спасибо сказали: 87 раз(а)
Дата поста: В теме: За сообщение: Спасибо сказали:
Jul 7 2021, 15:19:00 Mors Silens - Under The Dark Sun (2021)
всё по канонам жанра, но не один трек не зацепил. Обидно(
(1) WOLAND,
Mar 9 2021, 08:32:07 Mystericon - Мёртвый Лист (2020)


*Artist: Mystericon
*Album: Мёртвый Лист
*Year: 2020
*Genre: Symphonic/Gothic Metal
*Country: Russian Federation
*Format: mp3@CBR320kbps
*Size: 132MB

Tracklist:
01. Ангел
02. Мёртвый лист
03. Вечность ждёт
04. Шаги палача (интро)
05. Палач
06. Вечный огонь (Kreator cover)
07. Письмо
08. Ночь
09. Таинственный страж
10. Мёртвый лист (вокал Ариадна)
11. Отчаяние (версия для фортепиано)
12. Everlasting Flame (Kreator cover)
13. Полет за мечтой (на музыку Е. Крылатова)
******************************
Total playing time: 1:05:19



[more=Technical info]
Input File: 01 Ангел.mp3
Channels : 2
Sample Rate : 44100
Precision : 16-bit
Duration : 00:05:13.66 = 13832186 samples = 23524.1 CDDA sectors
File Size : 12.5M
Bit Rate : 320k
Sample Encoding: MPEG audio (layer I, II or III)
Comments :
Title=Àíãåë
Artist=Mystericon
Album≠ðòâûé ëèñò
Tracknumber=01
Year=2020
Genre=Symphonic Gothic Metal

[/more]

Register
(15) Cartman223, gwar, HMHamster, infiltrator, loicv70, Mogozoz, oldvarg, Olethros, Phlebotomized, postal67, randumbum, Taakeferd, VALERY, VLADISLAV_V_K, Сварог Барг,
Mar 3 2021, 04:14:01 Phobos Monolith - When The Light Will Fade [ep] (2021)
поклонникам жанра категорически рекомендую ознакомиться с данным мини-альбомом
(1) isvili,
Mar 2 2021, 17:42:46 Phobos Monolith - When The Light Will Fade [ep] (2021)


*Artist: Phobos Monolith
*Album: When The Light Will Fade [ep]
*Year: 2021
*Genre: Melodic Death/Doom Metal
*Country: Mexico
*Format: mp3@VBR192kbps
*Size: 29MB

Tracklist:
01. The Fractal Undertow
02. Storm Breaker
03. Oktober (Lunar Ellipse)
04. Credo (Amaranthine)
05. When The Light Will Fade
******************************
Total playing time: 20:59

[more=Technical info]
Input File: 01. The Fractal Undertow.mp3
Channels : 2
Sample Rate : 44100
Precision : 16-bit
Duration : 00:03:41.33 = 9760653 samples = 16599.8 CDDA sectors
File Size : 5.32M
Bit Rate : 192k
Sample Encoding: MPEG audio (layer I, II or III)
Comments :
Title=The Fractal Undertow
Artist=Phobos Monolith
Album=When The Light Will Fade
Tracknumber=1
Year=2021
Genre=Melodic Death Metal

[/more]

Register
(18) cesar, chipsgott, DCLXVI-135, Hell_Is_Here, infiltrator, lacrimoza, Marek, Mogozoz, Mrakobes, Olethros, randumbum, satanist666, stumpheavyrock, Taakeferd, VALERY, VLADISLAV_V_K, wreak, Сварог Барг,
Feb 14 2021, 22:05:47 Alijumala - Musta Kultti [ep] (2021) (2) AHBAnep, infiltrator,
Feb 12 2021, 19:43:25 Sirenia - Riddles, Ruins & Revelations (2021)
кавер отличный! Остальное на альбоме слушать нечего
(1) Ellaya,
Feb 12 2021, 11:14:48 Икотка - Плач Вдовы По Мужу [ep] (2020)


*Artist: Икотка
*Album: Плач Вдовы По Мужу [ep]
*Year: 2020
*Genre: Atmospheric Black Metal
*Country: Russian Federation
*Format: mp3@CBR320kbps
*Size: 58MB

Tracklist:
01. Я с Тобою не Расстануся
02. Злодейка-Душегубица
03. Владыкой Света Послана
04. Схорони Меня
05. Ты Прощайся
******************************
Total playing time: 26:20



[more=Technical info]
Input File: 01. Я с Тобою не Расстануся.mp3
Channels : 2
Sample Rate : 44100
Precision : 16-bit
Duration : 00:05:08.42 = 13601366 samples = 23131.6 CDDA sectors
File Size : 12.4M
Bit Rate : 322k
Sample Encoding: MPEG audio (layer I, II or III)
Comments :
Title=Я с Тобою не Расстануся
Artist=Икотка
Album=Плач Вдовы по Мужу (EP)
Tracknumber=1
Year=2020

[/more]

Register
(17) Aresson, Ash_1980, cesar, cist, El_Chibo, infiltrator, judaz, kim666, oldvarg, Olethros, randumbum, robertho777, SilentNidhogg, Slavas, VALERY, varlam4, wreak,
Feb 10 2021, 06:49:25 Nekroyd - Dead Angels [single] (2020)


*Artist: Nekroyd
*Album: Dead Angels [single]
*Year: 2020
*Genre: Black/Death Metal
*Country: Russian Federation
*Format: mp3@CBR320kbps
*Size: 10MB

Tracklist:
01. Dead Angels
******************************
Total playing time: 4:19



[more=Technical info]
Input File: 01. Dead Angels.mp3
Channels : 2
Sample Rate : 44100
Precision : 16-bit
Duration : 00:04:19.00 = 11421900 samples = 19425 CDDA sectors
File Size : 10.4M
Bit Rate : 321k
Sample Encoding: MPEG audio (layer I, II or III)
Comments :
Title=Dead Angels
Artist=Nekroyd
Album=Dead Angels (Single)
Tracknumber=1
Year=2020

[/more]

Register
(7) caro, infiltrator, Olethros, Rosen, Taakeferd, varlam4, wreak,
Feb 10 2021, 05:43:06 Kreator - Endless Pain (1985)
старая школа, как она есть)
(1) Occultas,
Feb 9 2021, 19:04:08 Wolfanger - Hunter & Prey [single] (2021)


*Artist: Wolfanger
*Album: Hunter & Prey [single]
*Year: 2021
*Genre: Melodic Death Metal
*Country: Ukraine
*Format: mp3@CBR320kbps
*Size: 9MB

Tracklist:
01. Hunter & Prey
******************************
Total playing time: 3:50



[more=Technical info]
Input File: 01. Hunter & Prey.mp3
Channels : 2
Sample Rate : 44100
Precision : 16-bit
Duration : 00:03:50.83 = 10179603 samples = 17312.2 CDDA sectors
File Size : 9.35M
Bit Rate : 324k
Sample Encoding: MPEG audio (layer I, II or III)
Comments :
Title=Hunter&Prey
Artist=Wolfanger
Album=Hunter & Prey (Single)
Tracknumber=1
Year=2021

[/more]

Register
(9) caro, chipsgott, infiltrator, Olethros, Rosen, Storky, terron, thenecromancer, wreak,
Feb 9 2021, 17:22:57 Stratovarius - Twilight Time (1992)
ЦИТАТА(vosmidesijatye @ Feb 9 2021, 21:10:39) *
И в этом особая прелесть записей тех лет. bye.gif

Банд и исполнителей, косящих под олдкул, сейчас до фига и больше, так как ща своеобразная мода на это в тяже, но вот именно ДУХ тех времен мало кому из современных исполнителей удается передать на все 100.

золотые слова! smile1.gif
(1) vosmidesijatye,
Jan 8 2021, 18:15:01 Amorphis - Eclipse (2006)
лучший альбом Аморфис!!! Просто бомба!!!
(1) MeatWolf,
Jan 5 2021, 10:10:32 Return Of The Soul - Digital Dream. Pt. 1. Echoes Of Thunder (2020)
Modern Metal
(1) satanist666,
Nov 30 2020, 09:38:18 4 Dead In 5 Seconds - Bestiary: The Book Of Beasts [ep] (2014)
не, дэткор вообще не люблю
(1) Borderline1991,
Nov 26 2020, 15:33:21 Paralydium - Worlds Beyond (2020)
Всё красиво сыграно, хитовость чувствуется. Но блин, как-то, не зацепило.
(1) smes,
Nov 26 2020, 14:58:49 Freaks And Clowns - Justice Elite (2020)
вокал отличный, но инструментальная часть меня не впечатлила. В общем - мимо
(1) Shadowman,
Nov 24 2020, 07:42:58 Hatebreed - Weight Of The False Self (2020)
ЦИТАТА(Bloodn Lord @ Nov 23 2020, 21:20:18) *
Стал за пару дней?)))))

почти сразу, как только послушал))
(1) Bloodn Lord,
Nov 6 2020, 11:23:23 Shattered Hope - Vespers (2020)
Bloodn Lord, спасибо за столь убедительное разъяснение по поводу альбома! Если получится скачать - обязательно скачаю.
(1) Bloodn Lord,

- Lo-Fi Version Support form
Copyrights and abuse reports form
Time is now: 26th July 2021 - 21:22:45