Welcome Guest ( Log In | Register )

История благодарностей участнику Kitalter ::: Спасибо сказали: 148 раз(а)
Дата поста: В теме: За сообщение: Спасибо сказали:
Jun 18 2022, 14:49:28 Dead City Crown - Beasts Of Fiction [ep] (2022)
это, скорее, Modern Melodic Death Metal

каверок зашёл)
(1) Andrew,
Jun 16 2022, 14:00:20 Neroth - Nocturnal Woods [ep] (2022)
осторожно: чистый вокал
(1) Occultas,
Jun 7 2022, 15:45:14 Torn Between Two Worlds - As If We Never Existed [ep] (2022)


*Artist: Torn Between Two Worlds
*Album: As If We Never Existed [ep]
*Year: 2022
*Genre: Symphonic Gothic Metal
*Country: United Kingdom
*Format: mp3@CBR320kbps
*Size: 47MB

Tracklist:
01. The Beauty Of Deception
02. Transparent
03. The Woman That Never Was
04. All Eyes On Me
05. Hello (Adele cover)
******************************
Total playing time: 20:29



[more=Technical info]
Input File: 01. The Beauty Of Deception.mp3
Channels : 2
Sample Rate : 48000
Precision : 16-bit
Duration : 00:03:32.36 = 10193280 samples ~ 15927 CDDA sectors
File Size : 8.50M
Bit Rate : 320k
Sample Encoding: MPEG audio (layer I, II or III)
Comments :
Title=The Beauty Of Deception
Artist=Torn Between Two Worlds
Album=As If We Never Existed
Tracknumber=1
Year=2021

[/more]

Register
(20) after21allD, aleon, Alpha_Prime, artscald, Bloodline Christian, caro, Cartman223, chipsgott, Dante_D, GorAtheist, gwar, HMHamster, infozahist, Mogozoz, Olethros, quarantine, Reverend, sergsazan, VALERY, wreak,
Jun 2 2022, 15:36:46 Salem - Ignis (2019)


*Artist: Salem
*Album: Ignis
*Year: 2019
*Genre: Heavy Metal
*Country: Spain
*Format: mp3@CBR320kbps
*Size: 106MB

Tracklist:
01 - La Bruja de Salem
02 - Quiero Ser Ceniza
03 - Siempre en Mi Corazón
04 - Fuerzas Opuestas
05 - Miro Atrás
06 - Eón
07 - Hoy por Fin
08 - La Hermandad
09 - Vástagos del Mal
10 - Canción de Odio y Amor
******************************
Total playing time: 46:40


 i 

2.3.в.
 




[more=Technical info]
Input File: 01 - La Bruja de Salem.mp3
Channels : 2
Sample Rate : 44100
Precision : 16-bit
Duration : 00:04:26.10 = 11735054 samples = 19957.6 CDDA sectors
File Size : 10.6M
Bit Rate : 320k
Sample Encoding: MPEG audio (layer I, II or III)
Comments :
Title=La Bruja de Salem
Artist=Salem
Album=Ignis
Tracknumber=1
Year=2019
Genre=Heavy Metal
Discnumber=1

[/more]

Register
(1) Xtohar,
Jun 1 2022, 16:42:50 Final Punishment - Dark Star Falling (2021)


*Artist: Final Punishment
*Album: Dark Star Falling
*Year: 2021
*Genre: Melodic Deathcore
*Country: United States
*Format: mp3@CBR320kbps
*Size: 145MB

Tracklist:
01. Impending
02. Pull Me Over
03. Sour Patch Kids
04. Moon Sugar
05. Donut Lord
06. Cortex
07. Falling Into...
08. Dark Star Falling
09. Life Infection
10. Formidable
11. Cookie
12. Concupiscence
13. Everyday Shooter
******************************
Total playing time: 1:03:39



[more=Technical info]
Input File: 01. Impending.mp3
Channels : 2
Sample Rate : 44100
Precision : 16-bit
Duration : 00:01:02.67 = 2763835 samples = 4700.4 CDDA sectors
File Size : 2.55M
Bit Rate : 326k
Sample Encoding: MPEG audio (layer I, II or III)
Comments :
Title=Impending
Artist=Final Punishment
Album=Dark Star Falling
Tracknumber=01
Year=2021
Discnumber=1

[/more]

Register
(3) infozahist, Olethros, zhol,
Jan 24 2022, 19:07:18 Travel To Eternity - Follow The Stars [ep] (2021)


*Artist: Travel To Eternity
*Album: Follow The Stars [ep]
*Year: 2021
*Genre: Modern Melodic Death Metal
*Country: Russian Federation
*Format: mp3@CBR320kbps
*Size: 41MB

Tracklist:
01. Great Atractor
02. Follow The Stars
03. Ghosts Of Mars
04. In Space And Time
******************************
Total playing time: 17:26

[more=Technical info]
Input File: 01 - Great Atractor.mp3
Channels : 2
Sample Rate : 44100
Precision : 16-bit
Duration : 00:04:12.00 = 11113200 samples = 18900 CDDA sectors
File Size : 10.3M
Bit Rate : 326k
Sample Encoding: MPEG audio (layer I, II or III)
Comments :
Title=Great Atractor
Artist=Travel to Eternity
Album=Follow The Stars
Tracknumber=1
Year=2021

[/more]

Register
(9) artscald, caro, chipsgott, csgmnk, Mogozoz, Old Vyaine, Olethros, VALERY, wreak,
Jan 23 2022, 12:07:34 Burning Attic - Pool Of Blood [ep] (2021)


*Artist: Burning Attic
*Album: Pool Of Blood [ep]
*Year: 2021
*Genre: Melodic Death Metal/Metalcore
*Country: Canada
*Format: mp3@CBR320kbps
*Size: 62MB

Tracklist:
01. Intro
02. Pool Of Blood
03. My Life
04. Wasteland
05. My Little Lambchop
06. We All Burn
******************************
Total playing time: 26:52



[more=Technical info]
Input File: 01 - Intro.mp3
Channels : 2
Sample Rate : 44100
Precision : 16-bit
Duration : 00:02:04.85 = 5505709 samples = 9363.45 CDDA sectors
File Size : 5.00M
Bit Rate : 320k
Sample Encoding: MPEG audio (layer I, II or III)
Comments :
Title=Intro
Artist=Burning Attic
Album=Pool Of Blood (EP)
Tracknumber=1
Year=2021

[/more]

Register
(8) artscald, caro, csgmnk, Marek, Mogozoz, VALERY, wreak, zhol,
Sep 16 2021, 17:09:31 Social Scream - From Ashes To Hope (2021)


*Artist: Social Scream
*Album: From Ashes To Hope
*Year: 2021
*Genre: Heavy Metal
*Country: Greece
*Format: mp3@CBR320kbps
*Size: 211MB

Tracklist:
CD1:
1. Spartan Blood
2. Faith
3. Social Scream
4. Smell the Demon
5. D.N.A Eternal
6. Where the Storm Goes
7. Blacksmith R.I.P (Bonus Track)
8. New Era (Bonus Track)
CD2:
1. Rainbow of Souls
2. Metal Retaliation
3. Prison of Freedom
4. List of Sins
5. Wolf Karma
6. No Faces Reflected
7. Unblood
8. Initiation to the Myths
10. From Ashes to Hope (Bonus Track)
******************************
Total playing time: 1:31:07

[more=Technical info]
Input File: 01 - Spartan Blood.mp3
Channels : 2
Sample Rate : 44100
Precision : 16-bit
Duration : 00:04:00.00 = 10584000 samples = 18000 CDDA sectors
File Size : 9.82M
Bit Rate : 327k
Sample Encoding: MPEG audio (layer I, II or III)
Comments :
Title=Spartan Blood
Artist=Social Scream
Album=From Ashes to Hope
Tracknumber=1
Year=2021-15-01
Genre=GetMetal.club
Discnumber=1

[/more]

Register
(16) andreikun, aviacademy, caro, gwar, HMHamster, Lukittaz, Marek, metala, Mogozoz, Olethros, Rover, sergsazan, stumpheavyrock, Wail, wreak, Xtohar,
Jul 7 2021, 15:19:00 Mors Silens - Under The Dark Sun (2021)
всё по канонам жанра, но не один трек не зацепил. Обидно(
(1) WOLAND,
Mar 9 2021, 08:32:07 Mystericon - Мёртвый Лист (2020)


*Artist: Mystericon
*Album: Мёртвый Лист
*Year: 2020
*Genre: Symphonic/Gothic Metal
*Country: Russian Federation
*Format: mp3@CBR320kbps
*Size: 132MB

Tracklist:
01. Ангел
02. Мёртвый лист
03. Вечность ждёт
04. Шаги палача (интро)
05. Палач
06. Вечный огонь (Kreator cover)
07. Письмо
08. Ночь
09. Таинственный страж
10. Мёртвый лист (вокал Ариадна)
11. Отчаяние (версия для фортепиано)
12. Everlasting Flame (Kreator cover)
13. Полет за мечтой (на музыку Е. Крылатова)
******************************
Total playing time: 1:05:19



[more=Technical info]
Input File: 01 Ангел.mp3
Channels : 2
Sample Rate : 44100
Precision : 16-bit
Duration : 00:05:13.66 = 13832186 samples = 23524.1 CDDA sectors
File Size : 12.5M
Bit Rate : 320k
Sample Encoding: MPEG audio (layer I, II or III)
Comments :
Title=Àíãåë
Artist=Mystericon
Album≠ðòâûé ëèñò
Tracknumber=01
Year=2020
Genre=Symphonic Gothic Metal

[/more]

Register
(15) Cartman223, gwar, HMHamster, infiltrator, loicv70, Mogozoz, oldvarg, Olethros, Phlebotomized, postal67, randumbum, Taakeferd, VALERY, VLADISLAV_V_K, Сварог Барг,
Mar 3 2021, 04:14:01 Phobos Monolith - When The Light Will Fade [ep] (2021)
поклонникам жанра категорически рекомендую ознакомиться с данным мини-альбомом
(1) isvili,
Mar 2 2021, 17:42:46 Phobos Monolith - When The Light Will Fade [ep] (2021)


*Artist: Phobos Monolith
*Album: When The Light Will Fade [ep]
*Year: 2021
*Genre: Melodic Death/Doom Metal
*Country: Mexico
*Format: mp3@VBR192kbps
*Size: 29MB

Tracklist:
01. The Fractal Undertow
02. Storm Breaker
03. Oktober (Lunar Ellipse)
04. Credo (Amaranthine)
05. When The Light Will Fade
******************************
Total playing time: 20:59

[more=Technical info]
Input File: 01. The Fractal Undertow.mp3
Channels : 2
Sample Rate : 44100
Precision : 16-bit
Duration : 00:03:41.33 = 9760653 samples = 16599.8 CDDA sectors
File Size : 5.32M
Bit Rate : 192k
Sample Encoding: MPEG audio (layer I, II or III)
Comments :
Title=The Fractal Undertow
Artist=Phobos Monolith
Album=When The Light Will Fade
Tracknumber=1
Year=2021
Genre=Melodic Death Metal

[/more]

Register
(19) cesar, chipsgott, DCLXVI-135, Hell_Is_Here, infiltrator, lacrimoza, Marek, Mogozoz, Mrakobes, Olethros, quarantine, randumbum, satanist666, stumpheavyrock, Taakeferd, VALERY, VLADISLAV_V_K, wreak, Сварог Барг,
Feb 14 2021, 22:05:47 Alijumala - Musta Kultti [ep] (2021) (2) AHBAnep, infiltrator,
Feb 12 2021, 19:43:25 Sirenia - Riddles, Ruins & Revelations (2021)
кавер отличный! Остальное на альбоме слушать нечего
(1) Ellaya,
Feb 12 2021, 11:14:48 Икотка - Плач Вдовы По Мужу [ep] (2020)


*Artist: Икотка
*Album: Плач Вдовы По Мужу [ep]
*Year: 2020
*Genre: Atmospheric Black Metal
*Country: Russian Federation
*Format: mp3@CBR320kbps
*Size: 58MB

Tracklist:
01. Я с Тобою не Расстануся
02. Злодейка-Душегубица
03. Владыкой Света Послана
04. Схорони Меня
05. Ты Прощайся
******************************
Total playing time: 26:20



[more=Technical info]
Input File: 01. Я с Тобою не Расстануся.mp3
Channels : 2
Sample Rate : 44100
Precision : 16-bit
Duration : 00:05:08.42 = 13601366 samples = 23131.6 CDDA sectors
File Size : 12.4M
Bit Rate : 322k
Sample Encoding: MPEG audio (layer I, II or III)
Comments :
Title=Я с Тобою не Расстануся
Artist=Икотка
Album=Плач Вдовы по Мужу (EP)
Tracknumber=1
Year=2020

[/more]

Register
(17) Aresson, Ash_1980, cesar, cist, El_Chibo, infiltrator, judaz, kim666, oldvarg, Olethros, randumbum, robertho777, SilentNidhogg, VALERY, varlam4, Wilczygniew Strzygoń, wreak,
Feb 10 2021, 06:49:25 Nekroyd - Dead Angels [single] (2020)


*Artist: Nekroyd
*Album: Dead Angels [single]
*Year: 2020
*Genre: Black/Death Metal
*Country: Russian Federation
*Format: mp3@CBR320kbps
*Size: 10MB

Tracklist:
01. Dead Angels
******************************
Total playing time: 4:19



[more=Technical info]
Input File: 01. Dead Angels.mp3
Channels : 2
Sample Rate : 44100
Precision : 16-bit
Duration : 00:04:19.00 = 11421900 samples = 19425 CDDA sectors
File Size : 10.4M
Bit Rate : 321k
Sample Encoding: MPEG audio (layer I, II or III)
Comments :
Title=Dead Angels
Artist=Nekroyd
Album=Dead Angels (Single)
Tracknumber=1
Year=2020

[/more]

Register
(7) caro, infiltrator, Olethros, Rosen, Taakeferd, varlam4, wreak,
Feb 10 2021, 05:43:06 Kreator - Endless Pain (1985)
старая школа, как она есть)
(1) Occultas,
Feb 9 2021, 19:04:08 Wolfanger - Hunter & Prey [single] (2021)


*Artist: Wolfanger
*Album: Hunter & Prey [single]
*Year: 2021
*Genre: Melodic Death Metal
*Country: Ukraine
*Format: mp3@CBR320kbps
*Size: 9MB

Tracklist:
01. Hunter & Prey
******************************
Total playing time: 3:50



[more=Technical info]
Input File: 01. Hunter & Prey.mp3
Channels : 2
Sample Rate : 44100
Precision : 16-bit
Duration : 00:03:50.83 = 10179603 samples = 17312.2 CDDA sectors
File Size : 9.35M
Bit Rate : 324k
Sample Encoding: MPEG audio (layer I, II or III)
Comments :
Title=Hunter&Prey
Artist=Wolfanger
Album=Hunter & Prey (Single)
Tracknumber=1
Year=2021

[/more]

Register
(9) caro, chipsgott, infiltrator, Olethros, Rosen, Storky, terron, thenecromancer, wreak,
Feb 9 2021, 17:22:57 Stratovarius - Twilight Time (1992)
ЦИТАТА(vosmidesijatye @ Feb 9 2021, 21:10:39) *
И в этом особая прелесть записей тех лет. bye.gif

Банд и исполнителей, косящих под олдкул, сейчас до фига и больше, так как ща своеобразная мода на это в тяже, но вот именно ДУХ тех времен мало кому из современных исполнителей удается передать на все 100.

золотые слова! smile1.gif
(1) vosmidesijatye,
Jan 17 2021, 06:18:43 Amorphis - Silent Waters (2007)
Лучший альбом Аморфис!!!!!
(1) vo140182fav,
Jan 8 2021, 18:15:01 Amorphis - Eclipse (2006)
лучший альбом Аморфис!!! Просто бомба!!!
(1) MeatWolf,
Jan 5 2021, 10:10:32 Return Of The Soul - Digital Dream. Pt. 1. Echoes Of Thunder (2020)
Modern Metal
(1) satanist666,
Nov 30 2020, 09:38:18 4 Dead In 5 Seconds - Bestiary: The Book Of Beasts [ep] (2014)
не, дэткор вообще не люблю
(1) Moldavite,
Nov 26 2020, 15:33:21 Paralydium - Worlds Beyond (2020)
Всё красиво сыграно, хитовость чувствуется. Но блин, как-то, не зацепило.
(1) smes,
Nov 26 2020, 14:58:49 Freaks And Clowns - Justice Elite (2020)
вокал отличный, но инструментальная часть меня не впечатлила. В общем - мимо
(1) Shadowman,

2 Pages V   1 2 >
- Lo-Fi Version Support form
Copyrights and abuse reports form
Time is now: 15th August 2022 - 23:09:05