Welcome Guest ( Log In | Register )

Объявления

* gmail.com упорно продолжает считать почту с нас "unsolicited" и отбивает в том числе и письма активации, поэтому просьба использовать альтернативные почтовые ящики.
------------
* gmail.com continues reject all mail from us as "unsolicited" (activation mails too) therefore please use alternate mail servers.
История благодарностей участнику Kitalter ::: Спасибо сказали: 648 раз(а)
Дата поста: В теме: За сообщение: Спасибо сказали:
Apr 23 2024, 07:01:53 Bridge To Solace - Kingdom Of The Dead [ep] (2004)


*Artist: Bridge To Solace
*Album: Kingdom Of The Dead [ep]
*Year: 2004
*Genre: Melodic Death Metal/Metalcore
*Country: Hungary
*Format: mp3@CBR320kbps
*Size: 41MB

Tracklist:
01. Prologue: Enter The Gates Of The Living Dead
02. Believe
03. Kingdom Of The Dead
04. Will You Rewrite History With Me
05. In Search Of
******************************
Total playing time: 17:29





[more=Technical info]
Input File: 02. Believe.mp3
Channels : 2
Sample Rate : 44100
Precision : 16-bit
Duration : 00:04:00.00 = 10584000 samples = 18000 CDDA sectors
File Size : 9.89M
Bit Rate : 330k
Sample Encoding: MPEG audio (layer I, II or III)
Comments :
Title=Believe
Artist=Bridge to Solace
Album=Kingdom of the Dead
Tracknumber=2
Year=2004
Genre=Melodic Death Metal/Metalcore

[/more]

Register
(4) artscald, infozahist, sergsazan, VALERY,
Apr 19 2024, 12:09:25 Osirions - Реинкарнации [ep] (2023)


*Artist: Osirions
*Album: Реинкарнации [ep]
*Year: 2023
*Genre: Symphonic/Gothic Metal
*Country: Russian Federation
*Format: mp3@CBR320kbps
*Size: 43MB

Tracklist:
01. Интро
02. Искушение
03. Зверь
04. Призрак
05. Королева Льда
06. Оутро
******************************
Total playing time: 18:33


Preview 2
Preview 3

[more=Technical info]
Input File: 02 - Искушение.mp3
Channels : 2
Sample Rate : 44100
Precision : 16-bit
Duration : 00:03:41.00 = 9746100 samples = 16575 CDDA sectors
File Size : 8.95M
Bit Rate : 324k
Sample Encoding: MPEG audio (layer I, II or III)
Comments :
Title=Искушение
Artist=Osirions
Album=Реинкарнации (EP)
Tracknumber=2/6
Year=2023
Genre=Symphonic / Gothic Metal

[/more]

Register
(5) Alpha_Prime, Cartman223, infozahist, quarantine, VALERY,
Apr 19 2024, 08:18:47 Lyarva - Молчаливая Злость (2024)


*Artist: Lyarva
*Album: Молчаливая Злость
*Year: 2024
*Genre: Deathcore/Metalcore
*Country: Belarus
*Format: mp3@CBR320kbps
*Size: 71MB

Tracklist:
01. Кто Я В Твоих Глазах?
02. Спальный Район
03. Молчаливая Злость
04. Забытые В Подъездах
05. Дрянь
06. Привычка Верить
07. Медленная Смерть Совести
08. Типы С Окраины Столицы
******************************
Total playing time: 30:30


Preview 2
Preview 3

[more=Technical info]
Input File: 01 Кто Я В Твоих Глазах.mp3
Channels : 2
Sample Rate : 44100
Precision : 16-bit
Duration : 00:04:09.35 = 10996159 samples = 18701 CDDA sectors
File Size : 10.1M
Bit Rate : 324k
Sample Encoding: MPEG audio (layer I, II or III)
Comments :
Title=Кто я в твоих глазах?
Artist=Lyarva
Album=Молчаливая Злость
Tracknumber=1
Year=2024

[/more]

Register
(6) Aresson, artscald, chipsgott, infozahist, Vitald, wreak,
Apr 18 2024, 12:50:11 Lightworker - How The Beautiful Decay (2024)


*Artist: Lightworker
*Album: How The Beautiful Decay
*Year: 2024
*Genre: Melodic Metalcore
*Country: United States
*Format: mp3@CBR320kbps
*Size: 92MB

Tracklist:
01. Hellscape
02. First Light
03. A Bastard's Shame
04. Burn Scar
05. Evergreen
06. Mea Culpa (feat. Wolves At The Gate & Fallujah)
07. Unmaker
08. Blurred Vision
09. Rusted Crown
10. How the Beautiful Decay
******************************
Total playing time: 39:40




[more=Technical info]
Input File: 01. -Hellscape.mp3
Channels : 2
Sample Rate : 44100
Precision : 16-bit
Duration : 00:03:47.46 = 10031118 samples = 17059.7 CDDA sectors
File Size : 9.25M
Bit Rate : 325k
Sample Encoding: MPEG audio (layer I, II or III)
Comments :
Title=Hellscape
Artist=Lightworker
Album=How The Beautiful Decay
Tracknumber=01/10
Year=2024
Discnumber=1/1

[/more]

Register
(7) artscald, chipsgott, infozahist, Rover, VALERY, wreak, zhol,
Apr 16 2024, 11:36:57 Вейя - Дракон [single] (2023)


*Artist: Вейя
*Album: Дракон [single]
*Year: 2023
*Genre: Symphonic Folk Metal
*Country: Russian Federation
*Format: mp3@CBR192kbps
*Size: 8MB

Tracklist:
01. Дракон
******************************
Total playing time: 4:41


Preview 2

[more=Technical info]
Input File: 01. Дракон.mp3
Channels : 2
Sample Rate : 44100
Precision : 16-bit
Duration : 00:04:42.00 = 12436200 samples = 21150 CDDA sectors
File Size : 7.02M
Bit Rate : 199k
Sample Encoding: MPEG audio (layer I, II or III)
Comments :
Title=Дракон
Artist=ВЕЙЯ
Album=Дракон
Tracknumber=1
Year=2023

[/more]

Register
(4) Aresson, Cartman223, gwar, Wail,
Apr 12 2024, 07:22:54 Tarot - Glimpse Of The Dawn (2024)
я тоже в теме, ребят...
(1) vosmidesijatye,
Apr 11 2024, 17:24:46 AfterDreams - AfterDreams (2010)


*Artist: AfterDreams
*Album: AfterDreams
*Year: 2010
*Genre: Power Metal
*Country: Argentina
*Format: mp3@CBR192kbps
*Size: 52MB

Tracklist:
01. Afterdreams (Intro)
02. Fight Till The End
03. Bloody Hands
04. Reality
05. Live Again
06. Once Again
07. Stay With Me
08. A Sun In Her Soul
09. Tears With Your Name
******************************
Total playing time: 37:46




[more=Technical info]
Input File: 01. Afterdreams (Intro).mp3
Channels : 2
Sample Rate : 44100
Precision : 16-bit
Duration : 00:01:28.47 = 3901351 samples = 6634.95 CDDA sectors
File Size : 2.19M
Bit Rate : 198k
Sample Encoding: MPEG audio (layer I, II or III)
Comments :
Title=AfterDreams (Intro)
Artist=AfterDreams
Album=AfterDreams
Tracknumber=1
Year=2010

[/more]

Register
(6) boby9052, gwar, infozahist, MеtalHead, sergsazan, watasan,
Apr 11 2024, 08:06:53 A Sense Of Purpose - All The Grief Was Gone [ep] (2022)


*Artist: A Sense Of Purpose
*Album: All The Grief Was Gone [ep]
*Year: 2022
*Genre: Progressive Metalcore
*Country: United States
*Format: mp3@CBR320kbps
*Size: 49MB

Tracklist:
01. Waste Away
02. Labyrinth
03. Ceding To Absence
04. Moonflower
05. Devil In The Room
06. In Reverie, Alone
07. Death Of A Daydream
******************************
Total playing time: 20:56




[more=Technical info]
Input File: 01 - Waste Away.mp3
Channels : 2
Sample Rate : 44100
Precision : 16-bit
Duration : 00:03:53.81 = 10311109 samples = 17535.9 CDDA sectors
File Size : 9.45M
Bit Rate : 323k
Sample Encoding: MPEG audio (layer I, II or III)
Comments :
Title=Waste Away
Artist=A Sense of Purpose
Album=All the Grief Was Gone
Tracknumber=1
Year=2022
Discnumber=1/1

[/more]

Register
(4) artscald, Dante_D, Marek, wreak,
Apr 10 2024, 12:54:30 Abascaban - A Fleeting Memory [ep] (2024)


*Artist: Abascaban
*Album: A Fleeting Memory [ep]
*Year: 2024
*Genre: Melodic Death Metal/Deathcore
*Country: Germany
*Format: mp3@CBR320kbps
*Size: 36MB

Tracklist:
01. A Fleeting Memory
02. Pale Blue Dot
03. Pieces
04. Fractured
******************************
Total playing time: 15:35


Preview 2

[more=Extended info]released February 19, 2024[/more]

[more=Technical info]
Input File: 01. A Fleeting Memory.mp3
Channels : 2
Sample Rate : 44100
Precision : 16-bit
Duration : 00:03:43.21 = 9843341 samples = 16740.4 CDDA sectors
File Size : 8.97M
Bit Rate : 321k
Sample Encoding: MPEG audio (layer I, II or III)
Comments :
Title=A Fleeting Memory
Artist=Abascaban
Album=A Fleeting Memory
Tracknumber=01
Year=2024

[/more]

Register
(4) artscald, Marek, wreak, zhol,
Apr 7 2024, 16:42:38 Suicidal Angels - Profane Prayer (2024)
О Боже! Какой классный альбом получился! Я в восторге! pray.gif
(1) Metalass,
Mar 30 2024, 20:53:54 Words Of Farewell - Stories To Forget [ep] (2024)
Modern Melodic Death Metal
очень крепкая работа! 4 из 5 треков зашли (причём, "на ура!"). Именно модерн мдм, без веяний индастриала и электроники, как чаще бывает в этом стиле. На прошлой ЕР 2021 года понравился только один трек, а тут прям подгон, так подгон! Буду слушать в своём главном плейлисте в телефоне и балдеть. 18.gif
(1) doomTemplar,
Mar 26 2024, 17:43:11 Brokenheads - Waiting For The End (2024)
поклонникам направления рекомендую. Крепкая работа!
(1) Andrew,
Mar 26 2024, 10:49:06 A Fatal Black - Fatal Shades Of Black [ep] (2024)


*Artist: A Fatal Black
*Album: Fatal Shades Of Black [ep]
*Year: 2024
*Genre: Blackened Deathcore/Metalcore
*Country: United States
*Format: mp3@CBR320kbps
*Size: 68MB

Tracklist:
01. Monacan Hill
02. The Hollow
03. MOTH
04. Spiked With Blood
05. Cimiterium
06. Forevermore
******************************
Total playing time: 29:41





[more=Extended info]released February 2, 2024[/more]

[more=Technical info]
Input File: 01. Monacan Hill.mp3
Channels : 2
Sample Rate : 44100
Precision : 16-bit
Duration : 00:05:13.12 = 13808768 samples = 23484.3 CDDA sectors
File Size : 12.6M
Bit Rate : 321k
Sample Encoding: MPEG audio (layer I, II or III)
Comments :
Title=Monacan Hill
Artist=A Fatal Black
Album=Fatal Shades Of Black
Tracknumber=01
Year=2024

[/more]

Register
(7) artscald, Dante_D, infozahist, LiarOfAngmar, Marek, VALERY, wreak,
Mar 26 2024, 08:03:53 Pravus - Indigo Blooms [ep] (2024)


*Artist: Pravus
*Album: Indigo Blooms [ep]
*Year: 2024
*Genre: Progressive Metalcore
*Country: Germany
*Format: mp3@CBR320kbps
*Size: 62MB

Tracklist:
01. Wanderlust
02. Journey
03. Bleeding Skies
04. Snowblind
05. Disappear
******************************
Total playing time: 27:01




[more=Technical info]
Input File: 01. Wanderlust.mp3
Channels : 2
Sample Rate : 44100
Precision : 16-bit
Duration : 00:05:31.00 = 14597100 samples = 24825 CDDA sectors
File Size : 13.4M
Bit Rate : 323k
Sample Encoding: MPEG audio (layer I, II or III)
Comments :
Title=Wanderlust
Artist=Pravus
Album=Indigo Blooms
Tracknumber=1
Year=2024-02-09
Genre=Metal
Discnumber=1

[/more]

Register
(4) artscald, chipsgott, infozahist, wreak,
Mar 25 2024, 21:18:19 Sacricide - Nearer The Flame (2024)


*Artist: Sacricide
*Album: Nearer The Flame
*Year: 2024
*Genre: Melodic Death/Groove Metal/Metalcore
*Country: United States
*Format: mp3@CBR320kbps
*Size: 69MB

Tracklist:
01. Nearer The Flame
02. Beyond The Veil
03. Certain Death
04. Face Destruction
05. A Will To Survive
06. Evil Whispers
07. To Desolation
******************************
Total playing time: 30:11





[more=Extended info]released January 26, 2024[/more]

[more=Technical info]
Input File: 01. Nearer The Flame.mp3
Channels : 2
Sample Rate : 44100
Precision : 16-bit
Duration : 00:05:23.10 = 14248842 samples = 24232.7 CDDA sectors
File Size : 13.0M
Bit Rate : 321k
Sample Encoding: MPEG audio (layer I, II or III)
Comments :
Title=Nearer the Flame
Artist=Sacricide
Album=Nearer the Flame
Tracknumber=01
Year=2024

[/more]

Register
(10) akym, artscald, chipsgott, infozahist, Marek, Mogozoz, stumpheavyrock, VALERY, wreak, zhol,
Mar 21 2024, 19:16:33 Coventhrall - Legacy Of Morfuidra (2024)
добротный павер. Для фанатов Dragonforce
(1) Foneg,
Mar 21 2024, 13:12:49 Antistrophe - Simul Incipit Ipse (2024)
эти ребятки не вкатили, к сожалению(
(1) Andrew,
Feb 22 2024, 15:02:06 Firekeeper - Firekeeper (2024)


*Artist: Firekeeper
*Album: Firekeeper
*Year: 2024
*Genre: Deathcore
*Country: Germany
*Format: mp3@CBR320kbps
*Size: 84MB

Tracklist:
01. Darksign
02. Embedded in Chaos
03. Death Sacrament
04. Radiance (feat. Andy Cizek)
05. Ov Death and Disease
06. Harmonies of Oolacile
07. Primeval Nature
08. Hopelessness
09. Painted World
10. Ov Sunlight and Cinder
******************************
Total playing time: 35:51




[more=Technical info]
Input File: 01. Darksign.mp3
Channels : 2
Sample Rate : 44100
Precision : 16-bit
Duration : 00:02:21.00 = 6218100 samples = 10575 CDDA sectors
File Size : 5.83M
Bit Rate : 331k
Sample Encoding: MPEG audio (layer I, II or III)
Comments :
Title=Darksign
Artist=Firekeeper
Album=Firekeeper
Tracknumber=1
Year=2024-01-29

[/more]

Register
(7) artscald, CaptianGoreGrind, infozahist, Marek, respect, wreak, Zer0,
Feb 21 2024, 13:01:56 Иксион - Последняя Симфония (2024)
на удивление оказалось неплохо!
(1) Phlebotomized,
Feb 19 2024, 18:54:54 Nefarius - Nefarius [ep] (2024)


*Artist: Nefarius
*Album: Nefarius [ep]
*Year: 2024
*Genre: Blackened Deathcore
*Country: Germany
*Format: mp3@CBR320kbps
*Size: 47MB

Tracklist:
01. Ricvul
02. The Ritual
03. Blasphemian Torment (feat. Consvmer)
04. Behold The Power Of The...
05. Supreme God (feat. Daniel Gorgievski)
******************************
Total playing time: 19:41

Preview 1


[more=Technical info]
Input File: 01. Ricvul.mp3
Channels : 2
Sample Rate : 44100
Precision : 16-bit
Duration : 00:03:56.50 = 10429738 samples = 17737.6 CDDA sectors
File Size : 9.60M
Bit Rate : 325k
Sample Encoding: MPEG audio (layer I, II or III)
Comments :
Title=Ricvul
Artist=Nefarius
Album=Nefarius
Tracknumber=01
Year=2024

[/more]

Register
(9) artscald, CaptianGoreGrind, Hell_Is_Here, infozahist, Marek, Piriaka_Power_Station, sludge666, Wail, wreak,
Feb 19 2024, 18:22:01 Svplycivm - Realidad Distópica [ep] (2023)


*Artist: Svplycivm
*Album: Realidad Distópica [ep]
*Year: 2023
*Genre: Melodic Death Metal/Deathcore
*Country: Chile
*Format: mp3@CBR320kbps
*Size: 51MB

Tracklist:
01. Realidad Distópica (Intro)
02. Abismo Mental
03. Epitafio
04. Desolación
05. Martirio Silencioso (Rerecorded/Remastered)
06. Reino del Caos
******************************
Total playing time: 22:26



[more=Extended info]Line Up:

Leonardo Meléndez: Vocal
Elias Roco: Bass
Adolfo Sepulveda: Guitar
Salvador Albornoz: Drums
Ruben Conejeros: Guitar[/more]

[more=Technical info]
Input File: 01. Realidad Distópica (Intro).mp3
Channels : 2
Sample Rate : 44100
Precision : 16-bit
Duration : 00:02:59.84 = 7930944 samples = 13488 CDDA sectors
File Size : 7.23M
Bit Rate : 322k
Sample Encoding: MPEG audio (layer I, II or III)
Comments :
Title=Realidad Distópica (Intro)
Artist=Svplycivm
Album=Realidad Distópica
Tracknumber=01
Year=2023

[/more]

Register
(6) artscald, CaptianGoreGrind, Piriaka_Power_Station, Wail, Weikai, wreak,
Feb 18 2024, 11:59:53 Liminal - Slow Dance [ep] (2023)


*Artist: Liminal
*Album: Slow Dance [ep]
*Year: 2023
*Genre: Metalcore/Deathcore
*Country: United States
*Format: mp3@CBR320kbps
*Size: 37MB

Tracklist:
01. Condition
02. God's Guillotine
03. Burn
04. Born2Hate
******************************
Total playing time: 15:54




[more=Extended info]Debut EP release by New Jersey band Liminal
released July 14, 2023[/more]

[more=Technical info]
Input File: 01. Condition.mp3
Channels : 2
Sample Rate : 44100
Precision : 16-bit
Duration : 00:04:25.11 = 11691263 samples = 19883.1 CDDA sectors
File Size : 10.7M
Bit Rate : 321k
Sample Encoding: MPEG audio (layer I, II or III)
Comments :
Title=Condition
Artist=Liminal
Album=Slow Dance
Tracknumber=01
Year=2023
Genre=Metalcore/Deathcore

[/more]

Register
(7) artscald, Bannanik, CaptianGoreGrind, chipsgott, Marek, suicidalrampage, wreak,
Feb 16 2024, 10:34:47 Lux - Le Cr​é​puscule D'une Reine (2023)


*Artist: Lux
*Album: Le Cr​é​puscule D'une Reine
*Year: 2023
*Genre: Symphonic/Progressive Gothic Metal
*Country: France
*Format: mp3@CBR320kbps
*Size: 159MB

Tracklist:
01. Prologue 02:46
02. L' Autrichienne 05:41
03. Décorum 04:43
04. Révérence 07:02
05. Vaine Déférence 08:52
06. Cette Etoile Est La Nôtre 05:54
07. Tombée en Disgrâce 07:26
08. Le Crépuscule d'une Reine 08:42
09. Interlude - La fuite de Varennes 00:36
10. Fersen 01:53
11. Reine de France 05:46
12. Et Quand Sonne Le Glas 05:28
13. Epilogue - Ô toi, qui prolongeas mes jours 03:43
******************************
Total playing time: 1:08:32



[more=Technical info]
Input File: 01. Prologue.mp3
Channels : 2
Sample Rate : 44100
Precision : 16-bit
Duration : 00:02:46.00 = 7320600 samples = 12450 CDDA sectors
File Size : 6.84M
Bit Rate : 330k
Sample Encoding: MPEG audio (layer I, II or III)
Comments :
Title=Prologue
Artist=Lux
Album=Le Crépuscule d'une Reine
Tracknumber=1
Year=2023-10-31
Genre=9
Discnumber=1

[/more]

Register
(17) artscald, Cartman223, chipsgott, cykl0nokill, Dante_D, Grev, gwar, infozahist, obituarydark, postal67, quarantine, Reverend, Sanctus, VALERY, Weikai, wreak, Сварог Барг,
Feb 16 2024, 09:05:09 Pale Origins - Shoganai (2020)


*Artist: Pale Origins
*Album: Shoganai
*Year: 2020
*Genre: Melodic Metalcore
*Country: Croatia
*Format: mp3@CBR320kbps
*Size: 100MB

Tracklist:
01. Sinners March
02. Ghost Unity
03. Tension
04. Divided Worlds
05. Wu Wei
06. Deviance
07. Shoganai
08. Deathbreather
09. Departure
10. Deathbreather (Sideburns Remix)
******************************
Total playing time: 43:46



[more=Technical info]
Input File: 01. Sinners March.mp3
Channels : 2
Sample Rate : 44100
Precision : 16-bit
Duration : 00:04:19.60 = 11448184 samples = 19469.7 CDDA sectors
File Size : 10.4M
Bit Rate : 320k
Sample Encoding: MPEG audio (layer I, II or III)
Comments :
Title=Sinners March
Artist=Pale Origins
Album=Shoganai
Tracknumber=1
Year=2020
Genre=Melodic Metalcore

[/more]

Register
(3) gwar, Woosad, zhol,
Feb 3 2024, 15:19:33 Eugen - Dichertod (2023)


*Artist: Eugen
*Album: Dichertod
*Year: 2023
*Genre: Metalcore
*Country: Germany
*Format: mp3@CBR320kbps
*Size: 96MB

Tracklist:
01. Einklang
02. Marsch, Marsch
03. Ammenmärchen
04. Panta Rhei
05. Der Von Hameln
06. Medienmogul
07. Der König
08. Dichtertod
09. Flammenwut
10. Gott Bewahre
11. Sintflut
******************************
Total playing time: 43:08




[more=Technical info]
Input File: 01. Einklang.mp3
Channels : 2
Sample Rate : 44100
Precision : 16-bit
Duration : 00:01:16.86 = 3389482 samples = 5764.43 CDDA sectors
File Size : 3.08M
Bit Rate : 320k
Sample Encoding: MPEG audio (layer I, II or III)
Comments :
Title=Einklang
Artist=Eugen
Album=Dichtertod
Tracknumber=01/11
Year=2023
Genre=Melodic Metalcore

[/more]

Register
(5) artscald, infozahist, Woosad, wreak, zhol,

4 Pages V   1 2 3 > » 
- Lo-Fi Version Support form
Copyrights and abuse reports form
Time is now: 25th April 2024 - 15:42:22