Welcome Guest ( Log In | Register )

История благодарностей участнику witchfinder ::: Спасибо сказали: 903 раз(а)
Дата поста: В теме: За сообщение: Спасибо сказали:
Jul 29 2022, 19:05:09 Dimmu Borgir - Northern Forces Over Wacken [live] (2022)
Northern Forces Over FLACken...

Register
(2) Occultas, Storky,
May 7 2022, 15:29:48 Batushka - Maria [compilation] (2022)
Fuck Batushka! Fuck Bart! Fuck Witching hour! Fuck fuck! Ordered 325 Euros worth of shit and nothing has been sent and this is over 3 MONTHS AGO!

Bitchushka!
(1) sacrut,
Feb 15 2022, 12:34:55 Voivod - Synchro Anarchy (2022)
...Damn girl, you got a big set of FLACs...

Register


Limited Ed. with scans...
(3) wreak, Xtohar, Луч,
Feb 2 2022, 16:54:43 Serpent Of A Black Horizon - Wisdom Under A Blackened Sun (2022)
...FLAC-19, the new pandemic...

Register
(2) Occultas, wreak,
Feb 2 2022, 16:23:42 Wędrujący Wiatr - Zorzysta Staje Oćma (2022)
...My FLAC is bigger than your FLAC...

Register



QUOTE(NappyRob @ Feb 2 2022, 15:46:55) *
Flac link pls?


Posted above.
(17) AndreFrancis, CocoFeliz, Demonic, doomisdoom, Doooomed, Emhyr var Emreis, Fallen Soul, helvetesrike, Ignativs, Marek, Moonshtook, NappyRob, nemx, Olethros, Piob, SlimBZ, thenecromancer,
Jan 10 2022, 18:11:08 Kalmankantaja - Metsäuhri (2022)
...KalmankanFLACja...

Register
(4) Demonic, Lamby90, Marek, wreak,
Jan 9 2022, 12:46:49 Grawdeth - The Phantom Of The Forgotten Vale (2022)
...The Phantom of the FLACera...

Register
(3) Marek, nemx, wreak,
Jan 7 2022, 18:59:08 Carnation - The Galaxy Sessions [live] (2022)
...This FLAC's for you...

Register
(4) Marek, StabWound, wreak, Xtohar,
Jan 3 2022, 17:08:18 Ortus - Aus Der Tiefe [ep] (2021)


*Artist: Ortus
*Album: Aus Der Tiefe [ep]
*Year: 2021
*Genre: Atmospheric Black Metal
*Country: Germany
*Format: mp3@CBR320kbps
*Size: 64MB

Tracklist:
1. Aus der Tiefe 17:18
2. In nächtlicher Stille 16:05
******************************
Total playing time: 33:23



[more=Technical info]
Input File: 01-ortus-aus_der_tiefe.mp3
Channels : 2
Sample Rate : 44100
Precision : 16-bit
Duration : 00:17:18.92 = 45816152 samples = 77918.6 CDDA sectors
File Size : 35.1M
Bit Rate : 270k
Sample Encoding: MPEG audio (layer I, II or III)
Comments :
Title=Aus der Tiefe
Artist=Ortus
Album=Aus der Tiefe
Tracknumber=1/2
Year=2021-00-00
Genre=Black Metal

[/more]

Register
(18) aleon, artscald, blacky66, caro, kim666, Olethros, Olrak, robertho777, sergsazan, SileniusLegard, SilentNidhogg, Storky, stormhatt, VALERY, varlam4, vasiljev_sergej, wreak, zobero,
Jan 2 2022, 20:31:06 Moongates Guardian - The Wind Over Dale (2022)
...Happy FLAC Year everyone!

Register
(7) behemoth_tut, isvili, Olethros, SAPOGi, thenecromancer, varg-38ru, wreak,
Jan 1 2022, 16:31:42 Spell Of Dark - Ghost From The Past (2021)


*Artist: Spell Of Dark
*Album: Ghost From The Past
*Year: 2021
*Genre: Atmospheric Black Metal
*Country: Russian Federation
*Format: mp3@CBR320kbps
*Size: 120MB

Tracklist:
1. Dark Fires of Desert 07:27
2. Echo of Curse 07:00
3. I'll Save You, Forest 05:55
4. Ghost From the Past 08:57
5. Age 06:57
6. Summer Of Hopes 09:59
7. Everloving (Moby cover) 04:26
******************************
Total playing time: 50:41



[more=Technical info]
Input File: 01-spell_of_dark-dark_fires_of_desert-a4a2372d.mp3
Channels : 2
Sample Rate : 44100
Precision : 16-bit
Duration : 00:07:27.79 = 19747627 samples = 33584.4 CDDA sectors
File Size : 18.6M
Bit Rate : 333k
Sample Encoding: MPEG audio (layer I, II or III)
Comments :
Title=Dark Fires of Desert
Artist=Spell of Dark
Album=Ghost From the Past
Tracknumber=1/7
Year=2021
Genre=Black Metal

[/more]

Register
(13) aleon, artscald, Dante_D, dermarsoran, kim666, meshal, metala, Olethros, rominow, stormhatt, varg-38ru, varlam4, vasiljev_sergej,
Jan 1 2022, 16:01:44 Hemelbestormer - Collide And Merge (2 Cd Edition) (2021)


*Artist: Hemelbestormer
*Album: Collide And Merge (2 Cd Edition)
*Year: 2021
*Genre: Post Metal
*Country: Belgium
*Format: mp3@VBR289kbps
*Size: 194MB

Tracklist:
1. Collapsar 18:04
2. In Praise of Sun 08:57
3. Quasar 11:57
4. Collide and Merge 03:56
5. Void 12:08
6. Decoding the Light Vault 13:08
7. Portals IIII 05:00
8. Laniakea 06:58
9. Freezing Moon 7:58
10. Our Darkness 5:43
11. Plainsong 5:58
******************************
Total playing time: 1:39:47

[more=Extended info][/more]

[more=Technical info]
Input File: 101-hemelbestormer-collapsar.mp3
Channels : 2
Sample Rate : 44100
Precision : 16-bit
Duration : 00:18:04.73 = 47836769 samples = 81355 CDDA sectors
File Size : 36.8M
Bit Rate : 271k
Sample Encoding: MPEG audio (layer I, II or III)
Comments :
Title=Collapsar
Artist=Hemelbestormer
Album=Collide & Merge
Tracknumber=01
Year=2021
Genre=Metal
Discnumber=1

[/more]

Register
(10) aleon, artscald, caro, Dante_D, ErikGoth, Kaotik, Olethros, wreak, yuratroll, Zoloft,
Jan 1 2022, 15:42:47 Chaos Luciferi - Oscurita Dalla Laguna Vol. I [ep] (2021)


*Artist: Chaos Luciferi
*Album: Oscurita Dalla Laguna Vol. I [ep]
*Year: 2021
*Genre: Black Metal
*Country: Italy
*Format: mp3@CBR320kbps
*Size: 46MB

Tracklist:
1. Dimora oscura 06:31
2. Il covo delle streghe 07:23
3. Il naufrago 05:46
******************************
Total playing time: 19:40



[more=Technical info]
Input File: 01-chaos_luciferi-dimora_oscura-945664f5.mp3
Channels : 2
Sample Rate : 44100
Precision : 16-bit
Duration : 00:06:31.21 = 17252273 samples = 29340.6 CDDA sectors
File Size : 15.8M
Bit Rate : 324k
Sample Encoding: MPEG audio (layer I, II or III)
Comments :
Title=Dimora oscura
Artist=Chaos Luciferi
Album=Oscurità dalla Laguna Vol. I
Tracknumber=1/3
Year=2021
Genre=Black Metal

[/more]

Register
(20) artscald, cacicandriera, caro, dermarsoran, Elfaffo, kim666, meshal, Olethros, Razorbladeswaltz, robertho777, SilentNidhogg, stormhatt, stub888, supremo, Taakeferd, thenecromancer, VALERY, varg-38ru, varlam4, vasiljev_sergej,
Jan 1 2022, 15:32:33 Au Clair De Lune - Diaphanous Deities (2021)


*Artist: Au Clair De Lune
*Album: Diaphanous Deities
*Year: 2021
*Genre: Blackgaze/Atmospheric Black Metal
*Country: Italy
*Format: mp3@CBR320kbps
*Size: 99MB

Tracklist:
1. Promenade Au Clair de Lune 05:24
2. Night of Early Spring Waters 08:16
3. Diaphanous Deities 06:13
4. Endimione 05:09
5. Kiss of Venus 02:06
6. Starry Cypresses 05:58
7. Gates of April 06:15
8. Ethereal..Eternal 03:37
******************************
Total playing time: 42:58

[more=Extended info][/more]

[more=Technical info]
Input File: 02-au_clair_de_lune-night_of_early_spring_waters-9182592b.mp3
Channels : 2
Sample Rate : 44100
Precision : 16-bit
Duration : 00:08:16.36 = 21889344 samples = 37226.8 CDDA sectors
File Size : 20.0M
Bit Rate : 322k
Sample Encoding: MPEG audio (layer I, II or III)
Comments :
Title=Night of Early Spring Waters
Artist=Au Clair de Lune
Album=Diaphanous Deities
Tracknumber=2/8
Year=2021
Genre=Black Metal

[/more]

Register
(26) aleon, alikkon, artscald, blacky66, caro, Corpuscul, Dante_D, dermarsoran, flep, kim666, KVRT, Lunaris, Misanthrope@, oldvarg, Olethros, pirata, robertho777, stormhatt, supremo, Taakeferd, VALERY, varg-38ru, varlam4, vasiljev_sergej, volostakoeto, wreak,
Jan 1 2022, 15:29:34 Au Clair De Lune - Au Clair De Lune [ep] (2021)


*Artist: Au Clair De Lune
*Album: Au Clair De Lune [ep]
*Year: 2021
*Genre: Blackgaze/Atmospheric Black Metal
*Country: Italy
*Format: mp3@CBR320kbps
*Size: 65MB

Tracklist:
1. Spleen (prologue) 01:30
2. Silver Tears (moonlight's charms) 06:04
3. Romantic Skies (languid visions) 04:41
4. Oniric Sensations (astral projection) 05:58
5. Blue Aurora (borealis sapphire) 05:44
6. Nocturnal Truths (epilogue)
******************************
Total playing time: 23:57

[more=Extended info][/more]

[more=Technical info]
Input File: 02-au_clair_de_lune-silver_tears_(moonlights_charms)-42647f5f.mp3
Channels : 2
Sample Rate : 44100
Precision : 16-bit
Duration : 00:06:04.17 = 16059897 samples = 27312.8 CDDA sectors
File Size : 14.7M
Bit Rate : 323k
Sample Encoding: MPEG audio (layer I, II or III)
Comments :
Title=Silver Tears (moonlight's charms)
Artist=Au Clair de Lune
Album=Au Clair de Lune
Tracknumber=2/6
Year=2021
Genre=Black Metal

[/more]

Register
(15) aleon, artscald, Carcharoth, Corpuscul, dermarsoran, kim666, Lunaris, meshal, Misanthrope@, Olethros, stormhatt, varg-38ru, varlam4, vasiljev_sergej, wreak,
Dec 18 2021, 21:12:49 Behemoth - In Absentia Dei [live] (2021)
...Yackedy yack, don't FLAC back...

Register
(3) ger_man_thorn, Marek, varg-38ru,
Dec 11 2021, 22:21:30 Eminenz - Diabolical Warfare (2021)
...The Return of...The Darkness and the FLAC...

Register
(3) AndreFrancis, Ildjarn, isvili,
Dec 5 2021, 15:34:09 Marunata - Amaurosis (2021)
This is not Metal...There is no Black...no Metal...No Black Metal...No Metal Black...Just acoustic guitar and a boring vocalist...

...Coming in 2022...Britney Spears fronts Cradle of Filth cover band... "Cradle of Vagina"
(2) nsk2008, Shadechaser,
Dec 4 2021, 18:52:35 Gomorran - Excerpts From The Dark Age [ep] (2021)
...and on the 666th day, Satan created FLAC...

Register
(3) isvili, Piob, wreak,
Nov 15 2021, 14:15:10 Venenum Serpentis - Serpens Volans (2021)
...Venenenenenenenenum FLACentis...

Register


(2) caro, Marek,
Nov 15 2021, 13:22:02 Whoredom Rife - Winds Of Wrath (2021)
...Ho ho ho, Merry FLACmas...

Register


(21) AHBAnep, Alexis The Best, andivi, AndreFrancis, caro, Extreme Brutal, Fallen Soul, FlammenTod666, isvili, kvltntr00, Marek, Mencae77, nemx, Occultas, rammstein888, SlimBZ, StabWound, sTerLingaz, Vidyadharov, wreak, wtk.412,
Nov 14 2021, 16:24:21 Gort - Humanitas Dolor Mundi (2021)
...For those about to FLAC, we salute you...

Register
(1) caro,
Nov 14 2021, 15:46:31 Paradise In Flames - Act One (2021)
...FLACadise in flames...

Register
(1) caro,
Nov 12 2021, 20:00:25 Borknagar - Borknagar (1996)
25th Anniversary 2021 Reissue 2CD (FLAC)

Register
(5) grimmstone, nikolay81, paganheart, sTerLingaz, trabantfan,
Nov 12 2021, 19:38:24 Der Rote Milan - Sinis [ep] (2020)
...My nose burns real bad... "Well then, stop snorting all that FLAC"...

Register
(2) caro, wreak,

9 Pages V   1 2 3 > » 
- Lo-Fi Version Support form
Copyrights and abuse reports form
Time is now: 16th August 2022 - 11:46:53