Welcome Guest ( Log In | Register )

Объявления

* gmail.com упорно продолжает считать почту с нас "unsolicited" и отбивает в том числе и письма активации, поэтому просьба использовать альтернативные почтовые ящики.
------------
* gmail.com continues reject all mail from us as "unsolicited" (activation mails too) therefore please use alternate mail servers.
История благодарностей участнику witchfinder ::: Спасибо сказали: 3401 раз(а)
Дата поста: В теме: За сообщение: Спасибо сказали:
Jul 19 2024, 16:09:49 Axamenta - Spires [ep] (2024)
I rarely add comments about an album on here but damn...this is shit...bad shit...my ball sack makes better tunes when dangling...the band should have just formed as Taylor Swift's backing group...
(1) phoboss,
Jul 11 2024, 20:15:31 Blasfeme - Black Legion (2024)
...Marduk - Those of the UnFLAC...

Register
(7) crown333, Extreme Brutal, GorAtheist, Marek, nemx, smysl, Wail,
Jul 11 2024, 16:46:29 Aldheorte - Where Gods Have Eyes To See (2024)
2001 A Space Odyssey- "My god, it's full of FLACs"...

Register
(4) crown333, isvili, nemx, Wail,
Jul 6 2024, 20:49:22 Kraft - Den Lange Vinter [ep] (2021)
...Kraft FLAC N Cheese...

Register
(2) stormhatt, vasiljev_sergej,
Jun 30 2024, 13:56:16 Dark Frost - The Curse Of Cruelty (2024)
...Your mother sucks FLACs in Hell...

Register
(9) crown333, Evrom, Extreme Brutal, GorAtheist, Korpse, nemx, stormhatt, vasiljev_sergej, Wail,
Jun 30 2024, 13:55:00 Thornspawn - Coronation Of The Supreme Beast (2024)
...Queen - We Will FLAC You...

Register
(5) Ildjarn, isvili, nemx, stormhatt, Wail,
Jun 29 2024, 20:30:30 Azanigin - A Nexion Opened (2024)
(1) smysl,
Jun 21 2024, 20:30:50 YR - Maanelyst [ep] (2024)
...Iron Maiden - Fear of the FLAC...

Register
(4) nemx, stormhatt, vasiljev_sergej, Wail,
Jun 21 2024, 20:29:22 Seksiluola - Uuden Kauden Aloittaminen (2023)
...James Bond will return in...MoonFLACer...

Register
(2) stormhatt, Wail,
Jun 21 2024, 20:25:53 Windswept - Der Eine, Wahre König [ep] (2024)
...AC/DC - Highway to FLAC...

Register
(9) crown333, dermarsoran, dimmannius, holokausst, igore2911, Ildjarn, stormhatt, vasiljev_sergej, Wail,
Jun 21 2024, 15:03:22 Windswept - Der Eine, Wahre König [ep] (2024)
(1) dermarsoran,
Jun 21 2024, 14:56:51 Aussichtslos - Schicksalstotschlag (2024)
...Arnold FLACenegger...

Register
(7) Kaa23, Korpse, Marek, nemx, rickzammuto, stormhatt, vasiljev_sergej,
Jun 21 2024, 14:46:54 Zvijer - Zvjerovanje (2024)
...ZZ FLAC...

Register


(3) GorAtheist, nemx, stormhatt,
Jun 17 2024, 19:58:03 Winds Of Death - Lobotomy Of Minds [ep] (2024)
...That girl has some great big FLACs...

Register
(1) vasiljev_sergej,
Jun 17 2024, 19:47:40 Vrazorth - Emergence (2024)
...2001 - A FLAC Odyssey...

Register
(2) Dante_D, valash,
Jun 14 2024, 20:13:25 Erzsébet - Six Hundred And Fifty (2024)
...Six Hundred and FLACy

Register
(7) Extreme Brutal, isvili, Kaa23, nemx, Occultas, stormhatt, Wail,
Jun 14 2024, 20:03:50 Necromantia - Unholy Relics Of The Ancients [compilation] (2024)


*Artist: Necromantia
*Album: Unholy Relics Of The Ancients [compilation]
*Year: 2024
*Genre: Black Metal
*Country: Greece
*Format: mp3@CBR320kbps
*Size: 67MB

Tracklist:
1. Magnum Arcanum 12:35
2. People Of The Sea 5:35
3. Family Of Dog 5:09
4. Faceless Gods 3:49
******************************
Total playing time: 27:08

[more=Extended info]https://www.metal-archives.com/albums/Necromantia/Unholy_Relics_of_the_Ancients/1244472[/more]

[more=Technical info]
Input File: 01 - Magnum Arcanum.mp3
Channels : 2
Sample Rate : 44100
Precision : 16-bit
Duration : 00:12:35.11 = 33300527 samples = 56633.5 CDDA sectors
File Size : 31.2M
Bit Rate : 330k
Sample Encoding: MPEG audio (layer I, II or III)
Comments :
Title=Magnum Arcanum
Artist=Necromantia
Album=Unholy Relics of the Ancients
Tracknumber=1
Year=2024
Genre=Black Metal

[/more]

Register
(38) Alexis The Best, alikkon, artscald, Bannanik, Bardo, BlackSwordMaster88, Bzth, canadaspaceman, Carcharoth, dermarsoran, ErickLeoni, Grev, Grummegargler, Hell_Is_Here, igore2911, Infidel, kim666, Lux, maochen, milosdjor, Mist13Signifier, Occultas, Purestenchkvlt, rammmirez, recber, Reverend, Rosen, smysl, stormhatt, stumpheavyrock, supremo, thenecromancer, VALERY, vasiljev_sergej, vov7609, Wail, wreak, Zenial,
Jun 9 2024, 20:58:52 Mayhemic Truth & Morrigan - A Ascensao Do Fogo E Do Aco [live] (2024)


*Artist: Mayhemic Truth & Morrigan
*Album: A Ascensao Do Fogo E Do Aco [live]
*Year: 2024
*Genre: Black Metal | Black Metal
*Country: Germany | Germany
*Format: mp3@CBR320kbps
*Size: 175MB

Tracklist:
Mayhemic Truth:
1. Lady Morgaine 04:54
2. When Thousand Candles Cry 04:32
3. Carrion of War 03:10
4. The Child of Mayhem 04:20
5. Cythraw 04:22
6. Hymn of the Crow 04:53
Morrigan:
7. Herald of the Sleep 09:18
8. Rome 05:14
9. Anam Cara 05:57
10. Beyond the Green Hills 06:12
11. White as Snow 06:35
12. Where the Angels Keep Silence 13:43
******************************
Total playing time: 1:13:10

[more=Technical info]
Input File: 02 - When Thousand Candles Cry.mp3
Channels : 2
Sample Rate : 44100
Precision : 16-bit
Duration : 00:04:36.45 = 12191269 samples = 20733.5 CDDA sectors
File Size : 11.3M
Bit Rate : 326k
Sample Encoding: MPEG audio (layer I, II or III)
Comments :
Title=When Thousand Candles Cry
Artist=Mayhemic Truth
Album=A Ascensao Do Fogo E Do Aco
Tracknumber=2
Year=2024
Genre=Black Metal

[/more]

Register
(26) Altkiller, artscald, Bzth, canadaspaceman, Carcharoth, dermarsoran, ErickLeoni, galgeras, Grev, Hell_Is_Here, Ildjarn, Lanceatum, lardmonger, Occultas, raaf, Reverend, Rosen, sacrut, stormhatt, supremo, Surt, uk82grind, VALERY, vasiljev_sergej, Wail, wreak,
Jun 9 2024, 19:37:57 Crystalline Thunderbolts Pierce The Sacred Mountain - Shine Like The Suicidal Madness Of The Sacred Amethyst (2024)
...Bal FLACoth

Register
(3) Emhyr var Emreis, Occultas, vasiljev_sergej,
Jun 9 2024, 17:00:33 Mörder - In Legibus Obscura (2024)
...Lord of the FLACs...

Register
(4) Marek, nemx, vasiljev_sergej, Wail,
Jun 4 2024, 20:59:08 Adventum Diaboli - Opus Diabolicus [compilation] (2024)
Rotting Christ - Thy Mighty FLAC...

Register
(2) vasiljev_sergej, Wail,
Jun 4 2024, 20:44:03 Necroratory - When We Die [ep] (2024)
...FLACs for the memories...

Register
(5) Ildjarn, isvili, Kaa23, nemx, Wail,
May 12 2024, 21:33:53 Vígljós - Tome I: Apidæ (2024)
QUOTE(Extreme Brutal @ May 11 2024, 23:13:28) *
Nice voice
Flac possible?


...Seek and ye shall FLAC...

Register
(2) Mencae77, Wail,
May 7 2024, 18:55:54 Neonscepter - Retrospectre (2021)
(1) kimkayoung,
Apr 28 2024, 13:57:28 Sacrylegion - Devil's Light (2024)
...Death - Scream Bloody FLAC...

Register
(1) aesteticvice,

30 Pages V   1 2 3 > » 
- Lo-Fi Version Support form
Copyrights and abuse reports form
Time is now: 23rd July 2024 - 19:32:45