Welcome Guest ( Log In | Register )

История благодарностей участнику Kodel ::: Спасибо сказали: 220 раз(а)
Дата поста: В теме: За сообщение: Спасибо сказали:
Feb 4 2022, 16:06:12 Urdôl Ur - Seven Portals To The Arcane Realms (2021)
Переслушал ещё раз и тоже склоняюсь к мнению, что этот дебютный альбом очень хорошим вышел.

До этого мне ни один клон Summoning`а не заходил. Ни кавера с трибьютов. Вообще ничего и ни от кого... А эта запись как-то сразу симпатию вызвала. Видать, тут какая-то норвежская магия замешана. smile1.gif
И по звучанию музыка очень близка к австрийцам, как будто их нереализованный материал слышишь. Посмотрим, что дальше они выдадут, а пока некоторый аванс в виде ожидания и интереса к следующему альбому группа от слушателей получила.
(1) Hexer,
Feb 4 2022, 15:50:00 Zeegang - De Poëzie Van Vallende Sneeuw (2021)


*Artist: Zeegang
*Album: De Poëzie Van Vallende Sneeuw
*Year: 2021
*Genre: Atmospheric Black Metal
*Country: Netherlands
*Format: mp3@CBR320kbps
*Size: 147MB

Tracklist:
1. I - Aanvang 04:15
2. II 11:45
3. III 11:44
4. IV - Kou 04:55
5. V - Intermezzo 11:12
6. VI 09:53
7. VII 09:43
8. VIII - Eindklank 01:37
******************************
Total playing time: 1:05:04



[more=Extended info]"Despondent Atmospheric Black Metal".
All music, lyrics and performance by R.v.R. (Toorvond, Melancholie, Seer's Fire)

Label: SoundAge, Russia, CD.

Рип с CD, не апконверт! Запись на диске лоу-файная, спектры посредственные и у самих исходных wav-файлов.[/more]

[more=Technical info]
Input File: 04. IV - Kou.mp3
Channels : 2
Sample Rate : 44100
Precision : 16-bit
Duration : 00:04:55.00 = 13009500 samples = 22125 CDDA sectors
File Size : 11.8M
Bit Rate : 321k
Sample Encoding: MPEG audio (layer I, II or III)
Comments :
Title=IV - Kou
Artist=Zeegang
Album=De poëzie van vallende sneeuw
Tracknumber=4/8
Year=2021
Genre=Black Metal

[/more]

Register
(28) aleon, AlexSmith, artscald, autumnwood, Boozer, Carcharoth, caro, flep, Forest Silence, grimoir, kim666, Krosis, lucifix, murian, Olethros, robertho777, sergsazan, SilentNidhogg, squall8fr, stormhatt, supremo, Surt, Tyrone, VALERY, varlam4, vasiljev_sergej, wreak, Авел,
Jan 19 2022, 15:26:55 Sonichaos Aeon - Hellel Benshahamar (1999)


*Artist: Sonichaos Aeon
*Album: Hellel Benshahamar
*Year: 1999
*Genre: Industrial/Black Metal
*Country: Greece
*Format: mp3@CBR320kbps
*Size: 46MB

Tracklist:
1. A1: Satan Am I 05:15
2. A2: Of(f) Ballad Tunes 06:36
3. A3: The Invertstate 05:43
4. A4: Silence Among The Herds 04:05
******************************
Total playing time: 21:39

[more=Extended info]Cassette, S/Sided.

Композиции с этой кассеты позднее вошли на CD "Heavy Metal Antichrist" (2000).[/more]

[more=Technical info]
Input File: 03. A3 - The Invertstate.mp3
Channels : 2
Sample Rate : 44100
Precision : 16-bit
Duration : 00:05:43.67 = 15155935 samples = 25775.4 CDDA sectors
File Size : 13.8M
Bit Rate : 320k
Sample Encoding: MPEG audio (layer I, II or III)
Comments :
Title=The Invertstate
Artist=Sonichaos Aeon
Album=Hellel Benshahamar
Tracknumber=3
Year=1999

[/more]

Register
(13) artscald, caro, kim666, komhs, metala, Olethros, SilentNidhogg, supremo, symphonicadiction, Taakeferd, Trelledorn, varlam4, vasiljev_sergej,
Jan 17 2022, 10:51:29 Pachiderma - Il Diavolo- La Peste- La Morte (2021)
Этакий синематографический стонер-дум с примесью сладжа, вдохновлённый творчеством Ингмара Бергмана. Неторопливый и не шибко мрачный.
Минималистичный дуэт "бас + барабаны" дополняется многочисленными фразами, диалогами и звуковыми эффектами из итальянской дублированной версии фильма "Седьмая печать" (1957 года), поэтому вокала тут нет. Запись по большей части импровизационная.
Обложка вообще смотрится комично, но, возможно, это тоже некая своеобразная дань уважения Бергману, сочетавшему мрачные сюжеты с юмором.

Альбом "Дьявол, Чума, Смерть" открывается апокалипсической фразой из фильма: "Первый Ангел вострубил, и сделались град и огонь, смешанные с кровью, и пали на землю; и третья часть дерев сгорела, и вся трава зеленая сгорела...", а закрывается сэмплом распева "Dies irae" ("День гнева") из того же фильма (кстати, фрагмент этого пения звучал также у Funeral Mist в треке "Sun of Hope").
Именно сэмплы, шумы и эффекты призваны воссоздавать на альбоме ту атмосферу движения киногероев к Смерти.

Для концептуального альбома подобного рода получаса вполне достаточно. Каких-то выдающихся решений здесь нет, но иногда, в моменты ностальгии по славному старому кинематографу, такое весьма приятно послушать.
(1) StabWound,
Jan 14 2022, 15:13:26 Valtakunta - 666 (2018)


*Artist: Valtakunta
*Album: 666
*Year: 2018
*Genre: Noise/Black Metal
*Country: Finland
*Format: mp3@CBR320kbps
*Size: 95MB

Tracklist:
1. A1 Tragedia 07:29
2. A2 Irtautuminen - Minä Näytän Tien 12:17
3. B1 Uhrassmisesta 05:02
4. B2 Jumalan Kasvot 05:24
5. B3 Pimeydessä Vaeltavat 05:31
6. B4 Ultottuvuuksien Välissä (666) 06:22
******************************
Total playing time: 42:05

[more=Extended info]Label: GoatowaRex – WAXGOAT116, China.
LP, Ltd.

"The mystical black metal duo whom delivered an excellent self title album on Bestial Burst is returned with the brand new second album, namely “666”. The project is now upgraded into a trio with Antti Klemi on vocal, the renowned poet, journalist and vocalist of long standing black metal eccentric Circle of Ouroborus.

Valtakunta plays everything between black metal and noise, and everything beyond. The lyrics of the LP are both personal and universal. They paint the path from the feeble ruins of humanity through the cosmos to the hands of God, and they show how close a man and God are in the end. 666 is the mirror, and 666 is also a hammer that breaks that mirror, stirs the water surface and crushes the borders between the Great and the Small. 666 is a tale of a patricide and a suicide, about golden blood and feces of godhood. The dead god calls for nothing, so you must sacrifice everything".[/more]

[more=Technical info]
Input File: 03. B1-Uhrassmisesta.mp3
Channels : 2
Sample Rate : 44100
Precision : 16-bit
Duration : 00:05:02.83 = 13354715 samples = 22712.1 CDDA sectors
File Size : 12.1M
Bit Rate : 320k
Sample Encoding: MPEG audio (layer I, II or III)
Comments :
Title=Uhrassmisesta
Artist=Valtakunta
Album=666
Tracknumber=3
Year=2018
Genre=Noise/Black Metal

[/more]

Register
(6) artscald, Carcharoth, dermarsoran, Olethros, vasiljev_sergej, yuratroll,
Jan 14 2022, 14:28:06 Lacrimosa - Fassade (2001)
320 (+ 2 bonus tracks):

Register
(2) nsk2008, wreak,
Jan 11 2022, 15:40:46 Deathspell Omega - Si Monumentum Requires, Circumspice (2004)
Переслушал альбом (и "Kénôse" заодно).
Добавлю немного инфы о сэмплах религиозных песнопений на альбоме (иногда интересно в них покопаться).

Первый - из композиции "First Prayer" - интересующиеся григорианскими хоралами искали долго - кажется, до 2018 г.
Здесь использован отрывок из "Magnificat verbum caro factum est" - со сборника песнопений "Salve Regina" (Chœur des moines des abbayes de Bricquebec, Citeaux, Sept-Fons, Timadeuc). Это, в целом, интересная "полевая" запись, где в песнопения периодически вмешивается отдалённый звук колоколов.
В основе - "Магнификат" (славословие Девы Марии) - на латинский текст из Новой Вульгаты.
Рус. синодальный перевод отрывка (Луки, 1:48-55):

Register


Это одно из главных католических песнопений ("Величит душа моя Господа") и, наверное, поэтому оно открывает альбом в качестве "Первой молитвы".
В середине "Carnal Malefactor" мы слышим православную "Херувимскую песню":

Register


В литургии перед этой песней священник читает молитву "Никтоже достоин от связавшихся плотскими похотьми и сластьми приходити, или приближитися, или служити Тебе, Царю славы: еже бо служити Тебе велико и страшно и самем Небесным Силам...", а во время пения Херувимской песни совершается т. н. "Великий вход", когда идёт на Голгофу Христос ("Спаситель всех человеков, возникший из постыдного материнства" - из текста Deathspell Omega). Вставка Херувимской песни в трек с кощунственными религиозно-плотскими описаниями звучит тут очень язвительно и как раз к месту.
(9) acerbus, Froze, Lux, Mencae77, Metalass, PepeMetal, rominow, sethurius, Valdmaar,
Jan 11 2022, 14:41:39 Massola Feat. Sedem Minút Strachu - Massola Feat. Sedem Minút Strachu (2016)


*Artist: Massola Feat. Sedem Minút Strachu
*Album: Massola Feat. Sedem Minút Strachu
*Year: 2016
*Genre: Grindcore/Free Jazz/Noisecore
*Country: Czech Republic
*Format: mp3@CBR320kbps
*Size: 52MB

Tracklist:
1. Kreteno Dildo La-di-da, Kroxy Und Ode To Kalocefalus 15:33
2. Vivaldi & Ebola 6:19
******************************
Total playing time: 21:52




[more=Extended info]"Czech & Slovak collaboration, destructive force fueled by fusion of free-jazz and noise core, 1X saxophonist 2x drummers 3x bassist and 4x inhuman screechers".

Label: Sky Burial – SKY011, CD, Slovakia.[/more]

[more=Technical info]
Input File: 01 Kreteno Dildo La-di-da, Kroxy Und Ode To Kalocefalus.mp3
Channels : 2
Sample Rate : 44100
Precision : 16-bit
Duration : 00:15:34.01 = 41189709 samples = 70050.5 CDDA sectors
File Size : 37.6M
Bit Rate : 322k
Sample Encoding: MPEG audio (layer I, II or III)
Comments :
Title=Kreteno Dildo La-di-da, Kroxy Und Ode To Kalocefalus
Artist=Massola feat Sedem Minút Strachu
Album=SKY011_Massola feat Sedem Minút Strachu
Tracknumber=1
Year=2020

[/more]

Register
(5) artscald, caro, Hell_Is_Here, Olethros, wreak,
Jan 11 2022, 13:12:01 Mistchaser - Kairos (2021)
320:

Register
(3) metaljosue, MortSathynr, Razorbladeswaltz,
Jan 10 2022, 10:00:18 Frozenthia Depresis - Margot [demo] (2007)
Архив с альбомом (85 Mb) на офиц. странице:
http://frozenthiadepresis.free.fr/
(1) FuneralDeath,
Jan 8 2022, 14:52:28 Kosmische Horror - Kosmische Horror (2012)


*Artist: Kosmische Horror
*Album: Kosmische Horror
*Year: 2012
*Genre: Dark Ambient/Noise
*Country: Finland
*Format: mp3@CBR320kbps
*Size: 88MB

Tracklist:
1. A1 Die Saat Von Den Sternen 21:02
2. A2 Der Flüsterer Im Dunkeln 21:07
******************************
Total playing time: 42:09

[more=Extended info]Минималистичный лавкрафтовский дарк-эмбиент/нойз от Ilkka Vekka (Haare).

Label: Mask Of The Slave – MS-035, Romania.
Cassette, S/Sided, Ltd.
"A new project of Ilkka Vekka, the mastermind of Haare, Golden Vomit. In the same vein as old Golden Vomit recordings but even more minimal. Heavy, static, warm, fuzzy and cosmic...Psychedelic HNW? Tape release, limited to 60 copies!"[/more]

[more=Technical info]
Input File: 02. Der Flüsterer Im Dunkeln.mp3
Channels : 2
Sample Rate : 44100
Precision : 16-bit
Duration : 00:21:07.64 = 55902880 samples = 95072.9 CDDA sectors
File Size : 50.7M
Bit Rate : 320k
Sample Encoding: MPEG audio (layer I, II or III)
Comments :
Title=Der Flüsterer Im Dunkeln
Artist=Kosmische Horror
Album=Kosmische Horror
Tracknumber=2
Year=2012
Genre=Dark Ambient/Noise

[/more]

Register
(3) kig, KKK1488, Olethros,
Jan 2 2022, 15:03:17 Sonichaos Aeon - Symposium Lex O'tanil (2001)


*Artist: Sonichaos Aeon
*Album: Symposium Lex O'tanil
*Year: 2001
*Genre: Electronic/Rock/Industrial Black Metal
*Country: Greece
*Format: mp3@CBR320kbps
*Size: 83MB

Tracklist:
1. A1 Reshaping Universes 04:06
2. A2 Millen Bassdrone 05:12
3. A3 All Wisdom's Moss 05:23
4. A4 Death 05:18
5. A5 Lifelike Swirl 04:04
6. A6 High On Razors 05:21
7. A7 Satan Am I (Symphonic Outbreak Mix) 04:10
8. A8 Satan A Mi (Spanish Warlock Mix) 05:26
******************************
Total playing time: 39:00

[more=Extended info]Cassette, S/Sided.[/more]

[more=Technical info]
Input File: 02. Millen Bassdrone.mp3
Channels : 2
Sample Rate : 44100
Precision : 16-bit
Duration : 00:05:12.35 = 13774679 samples = 23426.3 CDDA sectors
File Size : 12.5M
Bit Rate : 320k
Sample Encoding: MPEG audio (layer I, II or III)
Comments :
Title=Millen Bassdrone
Artist=Sonichaos Aeon
Album=Symposium Lex O'Tanil
Tracknumber=2
Year=2001

[/more]

Register
(24) aleon, alex-82, artscald, as71, caro, chipsgott, Dante_D, dcatagua, gwar, James817, komhs, meshal, metala, Olethros, Stutthof, supremo, Taakeferd, thenecromancer, Trelledorn, varlam4, vasiljev_sergej, Vitald, wreak, yuratroll,
Dec 31 2021, 08:50:52 Zeegang - Dialectica Oceanus (2019)
Digital version, 37 min 50 sec.
FREE (name your price):

(1) varg-38ru,
Dec 29 2021, 15:21:37 Lchm - Terra Australis Incognita [Greenland Novels] (2012)


*Artist: Lchm
*Album: Terra Australis Incognita [Greenland Novels]
*Year: 2012
*Genre: Dark Ambient/Drone
*Country: Italy
*Format: mp3@CBR320kbps
*Size: 112MB

Tracklist:
1. Guess Grave 07:42
2. Arctic Night 06:34
3. Inlandsis 04:52
4. Ghost Of The Hunter 04:04
5. The Cold Virgin 07:50
6. Mad Madsen 06:35
7. Antropophobia 08:17
8. Veslemari 05:59
******************************
Total playing time: 51:53



[more=Extended info]LCHM = Les Champs Magnétiques.
Label: La Esencia – LER 003/2010, Spain, CD, Limited Edition.
Music by Yvan Battaglia.

Альбом вдохновлён рассказами Йорна Риэля, датского писателя, который в первой половине 20 века 16 лет прожил в самых изолированных и непроходимых районах Гренландии, в тесном соседстве с эскимосами-охотниками, которые изначально жили в этом регионе.[/more]

[more=Technical info]
Input File: 01 - Guess Grave.mp3
Channels : 2
Sample Rate : 44100
Precision : 16-bit
Duration : 00:07:42.00 = 20374200 samples = 34650 CDDA sectors
File Size : 18.5M
Bit Rate : 320k
Sample Encoding: MPEG audio (layer I, II or III)
Comments :
Title=Guess Grave
Artist=LCHM
Album=Terra Australis Incognita [Greenland Novels]
Tracknumber=1/8
Year=2012
Genre=Dark Ambient

[/more]

Register
(7) artscald, caro, dcatagua, Olethros, vlad74, volostakoeto, wreak,
Dec 26 2021, 13:14:17 End Of Silence - Auditorium (2012)


*Artist: End Of Silence
*Album: Auditorium
*Year: 2012
*Genre: Free Improvisation/Noise Rock/Drone
*Country: Germany
*Format: mp3@CBR320kbps
*Size: 130MB

Tracklist:
1. Frequentia Resona 1 22:09
2. Frequentia Resona 2 23:18
3. Frequentia Resona 3 13:38
******************************
Total playing time: 59:05

[more=Extended info]Studio: Institute for Musicology Justus Liebig University, Giessen, Germany.
Label: Ecocentric Records – E.R. #177 CD, Heart & Crossbone – HCB 039.

Для любителей Skullflower, Total, Bastard Noise.[/more]

[more=Technical info]
Input File: 03 - Frequentia Resona 3.mp3
Channels : 2
Sample Rate : 44100
Precision : 16-bit
Duration : 00:13:38.00 = 36073800 samples = 61350 CDDA sectors
File Size : 32.8M
Bit Rate : 320k
Sample Encoding: MPEG audio (layer I, II or III)
Comments :
Title=Frequentia Resona 3
Artist=End Of Silence
Album=Auditorium
Tracknumber=3/3
Year=2012
Genre=Experimental

[/more]

Register
(2) mirotvorets, Olethros,
Dec 25 2021, 17:07:00 Funeral Mist - Deiform (2021)
Для тех, кто интересовался, о чём там дети поют (в "Children of the Urn").
Это красивый гимн 1857 года "Jag lyfter ögat mot himmelen" (количество исполняемых куплетов варьируется) на слова Йохана Л. Рунеберга.

Здесь примерно так:
"- Я поднимаю взор свой к небесам и складываю руки вместе. К Тебе, о, Боже, друг детей, я обращаю свой ум и свои мысли.
- Я так счастлив возблагодарить Тебя, и я хотел бы это сделать. Я знаю, что Ты смотришь на меня, и мои молитвы хотят быть услышанными Тобою.
- Благодарю Тебя за всё то хорошее, что я могу иметь, чувствовать и любить. Спасибо, вседобрый Отец, и за многое другое, что я мог бы помыслить и назвать Тебе ещё!
- Так пусть Твоя рука будет рядом со мной, и позволь мне взрасти для той страны жизни, которая и есть Твоё небесное Царство".

[Далее повторяется 3-й куплет.]

(Да поправят меня знатоки шведского языка.)

Мне всё время казалось, что слышал песню в каком-то старом шведском фильме (тем более, что Ариох на "Salvation" использовал сэмплы из "Седьмой печати" И. Бергмана). Но, по-видимому, это были просто мои ассоциации с детским хором из музыки Э. Морриконе к фильму "Спасибо, тётя" (1968 года).
(14) acerbus, Chasm, Darkwood, Formaldehyd, FullofHate, judaz, Lux, Nerevar, sabr, sarcophagus, sethurius, Thiarnan, Winter Funeral, Winterkalte,
Dec 23 2021, 14:19:39 Eskatozoa - Cosmic Elements Coalesce (2014)


*Artist: Eskatozoa
*Album: Cosmic Elements Coalesce
*Year: 2014
*Genre: Dark Ambient
*Country: Finland
*Format: mp3@CBR320kbps
*Size: 117MB

Tracklist:
1. In Search Of Sentience 10:46
2. Starres Aunciente And Dawninge 9:09
3. Signal Degradation In A Solemn Message Home 10:33
4. Evidence Of A Cyclic Universe 13:35
5. Unadulterated... Unimaginable... Nothingness 9:39
******************************
Total playing time: 53:42



[more=Extended info]Label: Bestial Burst – BeBu-068, CD.
"Eskatozoa's sound is rooted in the abyssal depths of the early universe and extends as far as the most distant future. Hurled across millions of ages, experience the darkness of a photon-devouring black hole; the brilliance of the brightest supernovae; the terrifying isolation and endless repetition of empty space. The vistas without solid boundaries you sense convolute and congeal into undulations shimmering and swooshing, twirling and twinkling. Now accessible here, on Earth. Debut album in luxurious digipak".

Effects, bass guitar – Gyroscorpion.
Synthesizer, bass guitar – Chronomantis.
Music by Chronomantis.[/more]

[more=Technical info]
Input File: 02-Starres Aunciente and Dawninge.mp3
Channels : 2
Sample Rate : 44100
Precision : 16-bit
Duration : 00:09:09.00 = 24210900 samples = 41175 CDDA sectors
File Size : 22.0M
Bit Rate : 320k
Sample Encoding: MPEG audio (layer I, II or III)
Comments :
Title=Starres Aunciente and Dawninge
Artist=Eskatozoa
Album=Cosmic Elements Coalesce
Tracknumber=2/5
Year=2014
Genre=Dark Ambient

[/more]

Register
(4) marilin, Olethros, Raw1488, wtk.412,
Dec 18 2021, 16:51:04 Umman Manda - 44 Black Tengri (2020)
320 kbps:

Register
(2) quarantine, Xtohar,
Dec 18 2021, 16:02:56 Black Willows - Shemurah (2021)
Первоклассные швейцарские медитативщики!

FLAC, 474 Mb:

Register
(2) Olethros, wreak,
Dec 18 2021, 15:03:09 Raxinasky - Transport De Viandes (2005)


*Artist: Raxinasky
*Album: Transport De Viandes
*Year: 2005
*Genre: Avant-Garde Metal/Mathcore/Free Jazz/Noisecore
*Country: Belgium
*Format: mp3@CBR320kbps
*Size: 125MB

Tracklist:
1. Alea Pestaviairik Est Fraktal Time Beefore Egulation Of Thirst Paul McCarty 08:32
2. Plague-Pump For Safe Pleasure Telescopic Drink Appointments & Great Northern Trendkill 01:46
3. Caustic Krachtig Schudden Distillation Of Charlie Heston's Puzzy Juice 04:58
4. Black-Meat Landscapture Such Was McTeague (Esthorrothor's Bay Is Cracked) 02:37
5. Sing! Miss Disorganasm Is Climbing Levres Purpurines Aux Galbes De Hanche 03:24
6. 9635 Hang-Over String Koffie Anhal 03:24
7. Ice Spider Lens D'1ntq. 04:28
8. Ashy Moss & Cara Pils 07:43
9. By What Means Toxic Lorentz Acquired The Style & Title Of Black Zeus ...And Rats For Swing 04:34
10. Joker For The Line Baxter Rs Razorback 11:39
11. Dissexional Fishstick Knife 03:48
******************************
Total playing time: 56:53

[more=Extended info]Label: Amanita, CD.[/more]

[more=Technical info]
Input File: 03-Caustic Krachtig Schudden Distillation Of Charlie Heston\'s Puzzy Juice.mp3
Channels : 2
Sample Rate : 44100
Precision : 16-bit
Duration : 00:04:58.00 = 13141800 samples = 22350 CDDA sectors
File Size : 12.0M
Bit Rate : 321k
Sample Encoding: MPEG audio (layer I, II or III)
Comments :
Title=Caustic Krachtig Schudden Distillation Of Charlie Heston's Puzzy Juice
Artist=Raxinasky
Album=Transport De Viandes
Tracknumber=3/11
Year=2005
Genre=Math Rock

[/more]

Register
(10) artscald, caro, Dante_D, gwar, Hell_Is_Here, lucifix, metala, Olethros, Ostinato, wreak,
Dec 16 2021, 21:33:44 Udus - Doomood (2007)
Для поклонников итальянского тяжёлого джаза, группы Zu, проекта Black Engine...
В составе - саксофонист Luca Tommaso Mai, участвовавший, в частности, в записи альбома Psychofagist "Il Secondo Tragico" (2009).
(2) Ash_1980, mirotvorets,
Dec 16 2021, 13:26:12 Udus - Doomood (2007)


*Artist: Udus
*Album: Doomood
*Year: 2007
*Genre: Jazzcore
*Country: Italy
*Format: mp3@CBR192kbps
*Size: 46MB

Tracklist:
1. Murder Goodness 04:03
2. Breach Of Peace 03:38
3. Malebolge 07:30
4. "Waver Like A Butterfly And Sting Like A Bee" 01:15
5. In Pompa Magna 05:00
6. Cancristianesimo 03:42
7. Demogorgon 03:59
8. Abakuá 05:03
******************************
Total playing time: 34:10

[more=Extended info]Оригинальное название альбома: "DooMooD".

Baritone saxophone – Luca T. Mai [Zu, Mombu, Black Engine].
Drums – Antonio Zitarelli [Neo, Mombu].
Guitars – Manlio Maresca [Neo, Squartet].
Performer (Machines) – Fabio Rix.

Label: FromSCRATCH (CD, 2007, Italy).[/more]

[more=Technical info]
Input File: 07 Demogorgon.mp3
Channels : 2
Sample Rate : 44100
Precision : 16-bit
Duration : 00:03:59.04 = 10541576 samples = 17927.9 CDDA sectors
File Size : 5.74M
Bit Rate : 192k
Sample Encoding: MPEG audio (layer I, II or III)

[/more]

Register
(7) A.L.Rapsod, Ash_1980, KKK1488, mirotvorets, Olethros, thenecromancer, Xtohar,
Dec 14 2021, 12:33:52 Nærvær - Nærvær [ep] (1997)


*Artist: Nærvær
*Album: Nærvær [ep]
*Year: 1997
*Genre: Folk Ambient/Neofolk
*Country: Norway
*Format: mp3@CBR224kbps
*Size: 23MB

Tracklist:
1. En Som... 08:18
2. Tenk Stille (Dagen Derpå) 02:57
3. The Lonely 02:57
******************************
Total playing time: 14:12

[more=Extended info]Виниловый (7") мини-альбом норвежского проекта Nærvær.
Label: Prophecy Productions – Pro 005.

Vocals – Jan K. Transeth, Synne Larsen.
Guitars, piano, vocals – Terje Sagen.
Cello – Hanne Kyllingstad.
Percussion – Tommy Nomeland.

Written by Jan K. Transeth, Terje Sagen.[/more]

[more=Technical info]
Input File: 01 A - En Som....mp3
Channels : 2
Sample Rate : 44100
Precision : 16-bit
Duration : 00:08:18.81 = 21997433 samples = 37410.6 CDDA sectors
File Size : 14.0M
Bit Rate : 224k
Sample Encoding: MPEG audio (layer I, II or III)
Comments :
Title=En Som...
Artist=Naervaer
Album=Naervaer
Tracknumber=1
Year=1997

[/more]

Register
(5) Carcharoth, Cartman223, grimmstone, nikolay81, ZA670,
Dec 13 2021, 16:50:21 Wasara - Kuollut On Kuollut [single] (2008)


*Artist: Wasara
*Album: Kuollut On Kuollut [single]
*Year: 2008
*Genre: Dark Metal
*Country: Finland
*Format: mp3@CBR192kbps
*Size: 11MB

Tracklist:
1. Kuollut On Kuollut 4:15
2. Saunalaulu 4:28
******************************
Total playing time: 8:43

[more=Extended info]Веб-сингл.
Композиции несколько отличаются от альбомных версий, выпущенных на CD "Hehku" (2011).
Представленная в качестве обложки картинка была взята с недоступного на данный момент сайта группы (wasara.net).[/more]

[more=Technical info]
Input File: 02 Saunalaulu.mp3
Channels : 2
Sample Rate : 44100
Precision : 16-bit
Duration : 00:04:28.81 = 11854653 samples = 20161 CDDA sectors
File Size : 6.45M
Bit Rate : 192k
Sample Encoding: MPEG audio (layer I, II or III)
Comments :
Title=Saunalaulu
Artist=Wasara
Album=Kuollut on kuollut (web single)
Tracknumber=2/2
Year=2008
Genre=Finnish metal

[/more]

Register
(7) artscald, caro, chipsgott, Mencae77, Olethros, varlam4, wreak,
Dec 13 2021, 16:15:39 Owl Cave - Behind The Red Drape (2009)


*Artist: Owl Cave
*Album: Behind The Red Drape
*Year: 2009
*Genre: Dark Ambient
*Country: Hungary
*Format: mp3@CBR320kbps
*Size: 104MB

Tracklist:
1. Behind the Red Drape 48:02
******************************
Total playing time: 48:02

[more=Extended info]Альбом, вдохновлённый сериалом Дэвида Линча "Твин Пикс" и киномузыкой Анджело Бадаламенти.

Label: Valse Sinistre Productions – Valse 008.
Pro-CDr in DVD-case.[/more]

[more=Technical info]
Input File: 01 Behind The Red Drape.mp3
Channels : 2
Sample Rate : 44100
Precision : 16-bit
Duration : 00:48:02.00 = 127096200 samples = 216150 CDDA sectors
File Size : 115M
Bit Rate : 320k
Sample Encoding: MPEG audio (layer I, II or III)
Comments :
Title=Behind The Red Drape
Artist=Owl Cave
Album=Behind The Red Drape
Tracknumber=1/1
Year=2009
Genre=Dark Ambient

[/more]

Register
(5) Bruce, gena, Konst, Olethros, Raw1488,

2 Pages V   1 2 >
- Lo-Fi Version Support form
Copyrights and abuse reports form
Time is now: 6th July 2022 - 08:57:56