Welcome Guest ( Log In | Register )

Объявления

* gmail.com упорно продолжает считать почту с нас "unsolicited" и отбивает в том числе и письма активации, поэтому просьба использовать альтернативные почтовые ящики.
------------
* gmail.com continues reject all mail from us as "unsolicited" (activation mails too) therefore please use alternate mail servers.
История благодарностей участнику Slam91 ::: Спасибо сказали: 795 раз(а)
Дата поста: В теме: За сообщение: Спасибо сказали:
Jun 22 2024, 14:27:21 Remina - Erebus [ep] (2024)


*Artist: Remina
*Album: Erebus [ep]
*Year: 2024
*Genre: Atmospheric Gothic/Doom Metal
*Country: New Zealand
*Format: mp3@CBR320kbps
*Size: 42MB

Tracklist:
1. Erebus
2. Cinderfall
3. Siren's Sleep
******************************
Total playing time: 17:51

Preview 1

[more=Extended info]Состав:
Heike Langhans (ex-Draconian, ex-ISON)
Mike Lamb (Sojourner, Lord Of Shadows)[/more]

[more=Technical info]
Input File: 02 - Cinderfall.mp3
Channels : 2
Sample Rate : 44100
Precision : 16-bit
Duration : 00:05:27.00 = 14420700 samples = 24525 CDDA sectors
File Size : 13.3M
Bit Rate : 326k
Sample Encoding: MPEG audio (layer I, II or III)
Comments :
Title=Cinderfall
Artist=REMINA
Album=Erebus
Tracknumber=2
Year=2024-06-21
Genre=Rock
Discnumber=1

[/more]

Register
(18) aleon, artscald, chefo, Dante_D, doomTemplar, dulak, Forest Silence, Ice Gnoll, jalladan, leks, markblasi, Megakimi, nikolay81, Olrak, sergsazan, thedron1982, VALERY, yuratroll,
Jun 17 2024, 19:09:42 Wolfheart - Grave [single] (2024)
Какая-то паражнина, свёрстанная из уставших, но когда-то фирменных ходов. Мдээ, Саукконен, что ж ты так сдулся...
(1) Winterdark,
Jun 8 2024, 21:49:28 Apocalyptica - Apocalyptica Plays Metallica Vol. 2 (2024)
Штангер - классный альбом (как минимум четыре трека: Штангер, Франтик, Свит Эмбер и Сам Кайнд Оф Монстэ).
Пантера выбыла из игры тогда (к огромному сожалению), хитрый датский гном решил слизать часть их аудитории себе, может по совету продюсеров/маркетолухов, а может и по своему чутью. Вот и получился спорный альбом для одних, и прикольный для других, со своеобразным подходом к звучанию.
Ловушка сработала, раз упоминание альбома вызывает эмоции до сих пор. Вот и думайте.
(1) 6666666,
Jun 8 2024, 20:55:47 Ulcerate - Cutting The Throat Of God (2024)
ЦИТАТА(sewage @ 8th June 2024 - 20:53:53) *
пердеть в микрофон на все лады заместо вокала.

Такое уже давно есть в грайндкоре.
(1) metaljosue,
Jun 8 2024, 16:01:27 Digimortal - Белое Знамя (2024)


*Artist: Digimortal
*Album: Белое Знамя
*Year: 2024
*Genre: Modern Metal/Cyber Metal/Industrial Metal
*Country: Russian Federation
*Format: mp3@CBR320kbps
*Size: 124MB

Tracklist:
01. Новый Мир Настанет
02. Пророк
03. Миражи
04. Новый Человек
05. Ударная Волна
06. Белое Знамя
07. Капитан
08. Надвое (feat. Ravdina)
09. Задача
10. Горизонт
11. Гипоксия
12. Пульс
******************************
Total playing time: 50:33

Preview 1
Preview 2

[more=Technical info]
Input File: 06. Белое знамя.mp3
Channels : 2
Sample Rate : 44100
Precision : 16-bit
Duration : 00:04:28.11 = 11823739 samples = 20108.4 CDDA sectors
File Size : 11.5M
Bit Rate : 343k
Sample Encoding: MPEG audio (layer I, II or III)
Comments :
Title=Белое Знамя
Artist=Digimortal
Album=Белое Знамя
Tracknumber=6/12
Year=2024
Genre=9
Discnumber=1/1

[/more]

Register
(7) Aresson, Emm Human, gwar, mirotvorets, oldvarg, Sanctus, ZamanFu,
Jun 8 2024, 11:50:26 Ulcerate - Cutting The Throat Of God (2024)
Послушал первую половину альбома. Никогда их особо не любил, хотя и нет-нет, да каждую новинку начиная с 09-го включал хотя бы на пару треков. Очень рад, что дядьки продолжают гнуть свою линию, и выпускать материал. Судя по тому, что услышал тут, работа приятная и интересная по своему. Но очень под настроение музыка, как и всегда у них. Не всё так просто, да и не надо в их случае, чтобы было просто.
(2) HelenVaughan, metaljosue,
May 23 2024, 19:04:24 Стальной Деркач - Поле Битвы (2024)
Чел на коленке альбомы клепает по олдскулу, неистово преисполняясь и бодрясь. Любителям ретро - слушать вполне можно, и даже нужно. Просто, но душевно.
(1) Genuine Thrashiac,
May 21 2024, 19:00:20 Nightwish - Perfume Of The Timeless [single] (2024)
Слушал в первый раз с динамика телефона, пока сидел в туалете. Честно говоря, сил и терпения хватило до четвёртой минуты. Дальше не захотелось ни в туалете сидеть, ни песню слушать. Но по выходу альбома, попробуем ещё раз послушать.
(1) mightynorth,
May 18 2024, 12:24:04 Svartstorm - Шрамы Вместо Крыльев X [ep] (2024)


*Artist: Svartstorm
*Album: Шрамы Вместо Крыльев X [ep]
*Year: 2024
*Genre: Melodic Death/Gothic Metal
*Country: Russian Federation
*Format: mp3@CBR320kbps
*Size: 31MB

Tracklist:
1. Шрамы вместо крыльев
2. Падение
3. Плач Земли
******************************
Total playing time: 13:03

Preview 1

[more=Extended info]Сегодня исполнилось 11 лет нашему мини-альбому "Шрамы Вместо Крыльев". И вместо банального поста, что он стал нашей пробой пера и сослужил нам хорошую службу (что правда), будет нечто иное.

Мы перезаписали "Шрамы Вместо Крыльев"!

Дело было так. Несмотря на то, что тот материал, за исключением перенесенной в альбом "Иллюзия Выбора" песни "В Вечном Забвении", не переиздавался и изрядно подзабылся, очень хотелось выпустить его на стриминг-площадках, чтобы можно было послушать его не только в VK или на Bandcamp. Но и было понятно, что качество его звучания проигрывало нашим поздним релизам. Изначально были планы просто пересвести "Шрамы Вместо Крыльев", однако выяснилось, что за давностью лет исходники частично или полностью были утрачены. Тогда возникла шальная идея просто взять и с нуля перезаписать те несколько песен, вдохнуть в них новую жизнь, сделать их агрессивнее и актуальнее.

Конечно, хотелось все доделать еще в прошлом году, в год 10-летия мини-альбома, но по ряду причин работа была завершена только этой зимой. Огромное спасибо Александру Толгаеву, Владимиру Браткову, Владимиру Прокофьеву и Алексею Хужаеву за неоценимый вклад в этот небольшой проект.[/more]

[more=Technical info]
Input File: 02 Падение (2024).mp3
Channels : 2
Sample Rate : 48000
Precision : 16-bit
Duration : 00:04:06.07 = 11811600 samples ~ 18455.6 CDDA sectors
File Size : 10.5M
Bit Rate : 341k
Sample Encoding: MPEG audio (layer I, II or III)
Comments :
Title=Падение
Artist=Svartstorm
Album=Шрамы вместо крыльев X
Year=2024
Genre=Melodic Death/Gothic Metal

[/more]

Register
(11) aleon, apostol_13, artscald, Cartman223, Grev, HMHamster, metalwoman, Nolan2025, quarantine, VALERY, wreak,
Apr 24 2024, 20:31:48 Deicide - Banished By Sin (2024)
ЦИТАТА(cesar @ 24th April 2024 - 20:19:58) *
Про это уже забыли все

Ну, видимо не все, и теперь нас ещё больше.
(1) cesar,
Apr 24 2024, 20:09:26 Deicide - Banished By Sin (2024)
Они ещё нужны кому-то вообще? К концу нулевых вроде бы пора было уже того. А ещё лучше в тот момент, когда Бентон забивался откинуться по достижению какого-то возраста. Вот тогда надо было того. 25.gif
(6) aesteticvice, andreikun, ern1kkk, Qliphoth, Shadowman, Фо,
Apr 18 2024, 19:47:33 In Vain - Solemn (2024)
Этих сразу в плеер, вообще без каких-то разговоров и споров. Просто без очереди, сразу на приём. Бабки в коридоре подождут.
(1) BleedingSun,
Apr 16 2024, 05:17:58 Xandria - Universal [single] (2024)
ЦИТАТА(Kitalter @ 16th April 2024 - 05:04:37) *
когда новый альбом?

Надеюсь, что никогда.
(1) Reverend,
Apr 4 2024, 19:39:39 Limbonic Art - Ad Astra Et Abyssos [single] (2024)
By the way, после прослушки закинул на плеер первые альбомы группы, и стал неистово переслушивать. Прекрасное творчество было.
(1) Occultas,
Mar 24 2024, 15:14:57 Uratsakidogi - Black Hop | Семки Зла [ep] (2024)
ЦИТАТА(Un4given @ 24th March 2024 - 15:10:43) *
но послушать новый альбом прежде чем п12.gifдеть, конечно, нельзя было

Зачем есть фекалии, чтобы убедиться в том, что это фекалии? Как-то не разумно.
Тебе хочется - ты и ешь, хоть ложкой, хоть голыми руками. Твой выбор. 25.gif
(8) apries, BleedingSun, Dantalian, deamonmotherloveson, Qliphoth, Raw1488, Shadechaser, xax,
Mar 24 2024, 12:34:59 Uratsakidogi - Black Hop | Семки Зла [ep] (2024)
От этого коллектива всю дорогу ощущение, что это мусор который не был вовремя выброшен...
(5) apries, BleedingSun, deamonmotherloveson, Qliphoth, xax,
Mar 16 2024, 13:08:28 Разочаровавшие альбомы (в металле) 2024
Обложки не понравились?
(9) 6666666, Chasm, Genuine Thrashiac, Lucifer, Nemez, Old Vyaine, Phlebotomized, Qliphoth, xax,
Mar 16 2024, 13:03:49 Бездна Анального Угнетения - Министерство Несчастья (2024)
Достаточно качественный релиз получился. Есть место хитовым и прикольным песням. Справедливости ради, группа на последних релизах очень хорошую планку по качеству держит. Но если сравнивать материал, то предыдущий альбом кажется более хитовым и запоминающимся, что по количеству хитов, что по общим впечатлениям. Послушать стоит в любом случае, ибо "юморок" всё тот же, но без экспериментов не обошлось.
(5) DarkHorde, GorAtheist, Mihalik, SAPOGi, Victim of fate,
Mar 6 2024, 18:45:12 Evoking Winds - Your Rivers (2024)
Чёт второй трек пошёл сразу на повтор, и незаметно для себя послушал его пять раз подряд. Хмм. Скачаю альбом, пожалуй.
(1) Andrew,
Mar 5 2024, 19:38:08 Borknagar - Fall (2024)
ЦИТАТА(Old Vyaine @ 5th March 2024 - 18:34:59) *
Кстати, как ни удивительно, альбом действительно напоминает Аморфис (и не только названиями двух песен).

Я видимо слишком мало слушал Аморфис, поэтому во время пары прогонов сабжа, как-то ничего такого в уши не бросилось. Просто хороший, весьма приятный альбом получился.
Буду ли слушать ещё? - Определённо буду.
Буду ли слушать часто? - Не факт.
Но в целом, хорошая работа.
(2) BleedingSun, mirotvorets,
Feb 24 2024, 15:25:42 Borknagar - Fall (2024)
Докладываю по первому попыру, как не фанат, не особый знаток и ценитель коллектива, не говоря о скепсисе к отдельным её участникам.

Услышал приятную музыку.
Прежде всего МУЗЫКУ. Слушать можно, слушать весьма приятно под настроение, но совершенно точно пластинка не из тех, которые поставишь на второй круг сразу по окончанию первого. Оно как будто бы и классно, и какая-то энергетика приятная там и вообще, но начиная с "Stars Ablaze" становится немного душно и нелепо. Какая-то песня прям проседающая, по окончанию оставляющая вопрос: "нахуа ты здесь, кобыла кривая?".
Идущая далее: "Unraveling" немного пытается исправлять просадку, но не то чтобы прям успешно, так, умеренно.
А вот дальше с "The Wild Lingers" становится лучше, значительно. Снова, как и в первых четырёх треках всё приятно, музыка льётся рекой, мелодика, тут штрихи, там шероховатости, тут переливчик, там запильчик. Хорошо, вполне угодно.
Вообще, при том что я Вортекса не особо, но тут он для меня подавляющее большинство времени звучит приятно, когда чистоголосит. Удивительно даже.
Материал такой, не грузящий, а скорее увлекающий, не цепляющий, а дразнящий. В общем, послушать приятно как минимум.
Надо ещё погонять с перерывами, а там видно будет по конечным впечатлениям.
(1) mirotvorets,
Feb 9 2024, 18:06:34 Chelsea Wolfe - She Reaches Out To She Reaches Out To She (2024)
ЦИТАТА(Shub @ 9th February 2024 - 17:23:27) *
Рокмитол есть?

Конечно. Вагинальный гровлинг, блоздъбиты и башкотряс такой, что готическая пудра разлетается во все стороны наперегонки с дум-метал вшами.
(5) + ATheisT +, 6666666, Ghostb, pitweb, vosmidesijatye,
Dec 18 2023, 08:16:46 Abyssphere - Прощание [single] (2023)
Хорошие ребятки, умеют в прилипчивую мелодику и мотивы, что потом слушаешь по кругу и снова, и снова. Песня удалась, определённо.
(1) Mihalik,
Dec 3 2023, 07:50:51 Paradise Lost - Icon 30 (2023)
Абсолютно не нужный релиз.
(4) Brown Herald, Grummegargler, hammer, RotAnus,
Nov 16 2023, 20:09:15 Sadus - The Shadow Inside (2023)
Этих без вопросов слушать.
(1) Emm Human,

13 Pages V   1 2 3 > » 
- Lo-Fi Version Support form
Copyrights and abuse reports form
Time is now: 24th June 2024 - 05:30:23