Welcome Guest ( Log In | Register )

История благодарностей участнику Winner ::: Спасибо сказали: 72 раз(а)
Дата поста: В теме: За сообщение: Спасибо сказали:
Feb 23 2022, 22:49:54 Новости Death Metal направления
[youtube]q7RYM76KTVA[/youtube]
(1) Occultas,
Feb 20 2022, 09:21:01 Новости Death Metal направления
[youtube]6lP6Z7PSOFM[/youtube]
(4) Alexis The Best, Hexer, Nerevar, Occultas,
Feb 6 2022, 14:48:05 Новости Thrash Metal направления
[youtube]cIEUDCmBCsY[/youtube]
(2) Emm Human, troll_swamp,
Feb 6 2022, 14:39:49 Новости Death Metal направления
[youtube]7JZO15xXFqQ[/youtube]
(1) Occultas,
Jan 22 2022, 20:47:53 Новости Thrash Metal направления
[youtube]6IYzXINb6WM[/youtube]
(1) Occultas,
Jan 16 2022, 18:38:37 Shadow Of Intent - Elegy (2022)
ЦИТАТА(dimpa @ Jan 16 2022, 18:27:59) *
Третьесорт?

Отличный альбом!
(1) Phlebotomized,
Jan 16 2022, 13:38:38 Новости Death Metal направления
[youtube]C-THzENUVyw[/youtube]
(1) Occultas,
Jan 13 2022, 20:32:34 Shadow Of Intent - Elegy (2021)
Ну да! Исправить уже нельзя.

flac на подходе
(1) WOLAND,
Jan 13 2022, 20:22:36 Shadow Of Intent - Elegy (2021) (1) 6666666,
Jan 7 2022, 10:44:46 Darkstar - Marching Into Oblivion (1995) (1) wreak,
Jan 7 2022, 10:43:20 Today Needed
ЦИТАТА(thenecromancer @ Jan 6 2022, 18:51:01) *


flac
(1) thenecromancer,
Jan 3 2022, 10:00:30 Insecurity - Intruder Of Reality (2022)
ЦИТАТА(troll_swamp @ Jan 3 2022, 10:22:44) *
Пусть всё это уже давно сыграно, Но есть тут дуновение свежего, вдохновенного потока.

Соглашусь! m0114.gif
(1) troll_swamp,
Jan 1 2022, 12:19:05 Today Needed
ЦИТАТА(Antichrist @ Jan 1 2022, 12:38:40) *

flac

С Новым годом!
(2) Antichrist, thenecromancer,
Dec 30 2021, 20:43:17 Лучшие альбомы в дэт метале за 2021 // Best Death Metal Albums of 2021
1. Aborted - ManiaCult
2. Blood Red Throne - Imperial Congregation
3. Cannibal Corpse - Violence Unimagined
4. Carcass - Torn Arteries
5. Memoriam - To the End
6. Hypocrisy - Worship
7. Archspire - Bleed the Future
(1) Emm Human,
Dec 28 2021, 20:29:17 Новости Death Metal направления
[youtube]eK05otLcu_0[/youtube]
(1) Occultas,
Dec 27 2021, 18:57:54 Новости Thrash Metal направления
[youtube]QeNPQE9ABg4[/youtube]
(1) Occultas,
Dec 26 2021, 20:12:10 Новости Thrash Metal направления
ЦИТАТА(kostja @ Dec 26 2021, 16:22:47) *
Кажется, тут ещё не было этого:
[youtube]bme5gzHHYpw[/youtube]

Новый альбом Blunt Cutters запланирован на 28 января
(1) Emm Human,
Dec 25 2021, 19:11:35 Новости Thrash Metal направления
ЦИТАТА(biroutios @ Dec 25 2021, 17:40:41) *
Sorry for your pain.

This is not my pain, this is your awful taste!
(1) Deze,
Dec 25 2021, 15:50:53 Новости Thrash Metal направления
ЦИТАТА(biroutios @ Dec 25 2021, 16:06:03) *
recycling their own poo.

So don't listen
(1) Deze,
Dec 25 2021, 12:36:56 Новости Thrash Metal направления
[youtube]psYYaooB44o[/youtube]
(2) Emm Human, Occultas,
Dec 6 2021, 17:05:35 Kreator - Renewal (1992)
Отличный альбом! Отличный обзор!
(2) DMIYUR, Occultas,
Nov 22 2021, 20:03:09 Кто с чего начал?, Ваша первая Thrash Metal группа
Первая трэшевая запись, которая у меня появилась, это Master Of Puppets в 88 году.
(1) Emm Human,
Nov 7 2021, 13:16:25 Shadow Of Intent - Elegy (2021)


*Artist: Shadow Of Intent
*Album: Elegy
*Year: 2021
*Genre: Symphonic Deathcore
*Country: United States
*Format: mp3@CBR128kbps
*Size: 61MB

Tracklist:
01. Farewell 04:54
02. Saurian King 05:24
03. The Coming Fire 04:09
04. Of Fury 04:47
05. Intensified Genocide 04:00
06. Life of Exile 04:53
07. Where Millions Have Come to Die (feat. Phil Bozeman of Whitechapel) 04:23
08. From Ruin... We Rise 04:50
09. Blood in the Sands of Time (feat. Chuck Billy of Testament) 05:22
10. Reconquest 04:50
11. Elegy I: Adapt 02:28
12. Elegy II: Devise 04:25
13. Elegy III: Overcome 06:01
******************************
Total playing time: 1:00:39

[more=Extended info]metal-archives.com[/more]

[more=Technical info]
Input File: 01. Farewell.mp3
Channels : 2
Sample Rate : 44100
Precision : 16-bit
Duration : 00:04:56.54 = 13077546 samples = 22240.7 CDDA sectors
File Size : 4.75M
Bit Rate : 128k
Sample Encoding: MPEG audio (layer I, II or III)
Comments :
Title=Farewell
Artist=Shadow of Intent
Album=Elegy
Tracknumber=01/13
Year=2022
Discnumber=1/1

[/more]

Register
(7) gwar, infozahist, JPV, kimkayoung, Olethros, SABRAX, sadmannn,
Oct 31 2021, 09:43:45 Archspire - Bleed The Future (2021)
ЦИТАТА(Anarhist815 @ Oct 28 2021, 15:00:17) *
Гитарист вообще криворукий, на 4-ой композиции во время спокойного акустического проигрыша скрипит пальцами по струнам, не в состоянии нормально переходить на лады без скрипа, это уровень - дно(
Походу им большую часть материала записывали сесионщики из других групп.

Я раньше думал что такие никчемные в гитарном плане новички как Хэммет, Гэри Холт, Горгорот - дно, но теперь гитарист Арспир - с ними в одном ряду.

В начале 5-ой песни то же самое - отскрипелся, отзвенелся как школяр, просто жесть!

Судя по всему, ты гитарист не хуже Марти Фридмена, как минимум.

ЦИТАТА(ingested @ Oct 28 2021, 16:15:25) *
Фред гитарист залогинился! pray.gif

pleased.gif pleased.gif pleased.gif

(1) realexxx75,
Oct 31 2021, 09:32:42 Under Cold Sun - Devotion (2021)
ЦИТАТА(Samaritianin @ Oct 30 2021, 17:17:20) *
[*Genre: Thrash/Death Metal

Это просто трэш, имхо.
(1) Andrew,

2 Pages V   1 2 >
- Lo-Fi Version Support form
Copyrights and abuse reports form
Time is now: 25th May 2022 - 05:01:46