Welcome Guest ( Log In | Register )

Объявления

* gmail.com упорно продолжает считать почту с нас "unsolicited" и отбивает в том числе и письма активации, поэтому просьба использовать альтернативные почтовые ящики.
------------
* gmail.com continues reject all mail from us as "unsolicited" (activation mails too) therefore please use alternate mail servers.
История благодарностей участнику Winner ::: Спасибо сказали: 591 раз(а)
Дата поста: В теме: За сообщение: Спасибо сказали:
Jan 13 2022, 20:32:34 Shadow Of Intent - Elegy (2021)
Ну да! Исправить уже нельзя.

flac на подходе
(1) WOLAND,
Jan 13 2022, 20:22:36 Shadow Of Intent - Elegy (2021) (1) 6666666,
Jan 7 2022, 10:44:46 Darkstar - Marching Into Oblivion (1995) (2) Proteus_666, wreak,
Jan 7 2022, 10:43:20 Today Needed
ЦИТАТА(thenecromancer @ Jan 6 2022, 18:51:01) *


flac
(1) thenecromancer,
Jan 3 2022, 10:00:30 Insecurity - Intruder Of Reality (2022)
ЦИТАТА(troll_swamp @ Jan 3 2022, 10:22:44) *
Пусть всё это уже давно сыграно, Но есть тут дуновение свежего, вдохновенного потока.

Соглашусь! m0114.gif
(1) troll_swamp,
Jan 2 2022, 19:50:19 Советская Милиция - Мечтатель [ep] (2021)
Ну и коменты! crazy.gif
В принципе, как раз для такой музыки
(1) vosmidesijatye,
Jan 1 2022, 12:19:05 Today Needed
ЦИТАТА(Antichrist @ Jan 1 2022, 12:38:40) *

flac

С Новым годом!
(2) Antichrist, thenecromancer,
Dec 30 2021, 20:43:17 Лучшие альбомы в дэт метале за 2021 // Best Death Metal Albums of 2021
1. Aborted - ManiaCult
2. Blood Red Throne - Imperial Congregation
3. Cannibal Corpse - Violence Unimagined
4. Carcass - Torn Arteries
5. Memoriam - To the End
6. Hypocrisy - Worship
7. Archspire - Bleed the Future
(1) Emm Human,
Dec 28 2021, 20:29:17 Новости Death Metal направления
[youtube]eK05otLcu_0[/youtube]
(1) Occultas,
Dec 27 2021, 18:57:54 Новости Thrash Metal направления
[youtube]QeNPQE9ABg4[/youtube]
(1) Occultas,
Dec 26 2021, 20:12:10 Новости Thrash Metal направления
ЦИТАТА(kostja @ Dec 26 2021, 16:22:47) *
Кажется, тут ещё не было этого:
[youtube]bme5gzHHYpw[/youtube]

Новый альбом Blunt Cutters запланирован на 28 января
(1) Emm Human,
Dec 25 2021, 19:11:35 Новости Thrash Metal направления
ЦИТАТА(biroutios @ Dec 25 2021, 17:40:41) *
Sorry for your pain.

This is not my pain, this is your awful taste!
(1) Deze,
Dec 25 2021, 15:50:53 Новости Thrash Metal направления
ЦИТАТА(biroutios @ Dec 25 2021, 16:06:03) *
recycling their own poo.

So don't listen
(1) Deze,
Dec 25 2021, 12:36:56 Новости Thrash Metal направления
[youtube]psYYaooB44o[/youtube]
(2) Emm Human, Occultas,
Dec 6 2021, 17:05:35 Kreator - Renewal (1992)
Отличный альбом! Отличный обзор!
(2) DMIYUR, Occultas,
Nov 22 2021, 20:03:09 Кто с чего начал?, Ваша первая Thrash Metal группа
Первая трэшевая запись, которая у меня появилась, это Master Of Puppets в 88 году.
(2) Emm Human, mittal,
Nov 7 2021, 13:16:25 Shadow Of Intent - Elegy (2021)


*Artist: Shadow Of Intent
*Album: Elegy
*Year: 2021
*Genre: Symphonic Deathcore
*Country: United States
*Format: mp3@CBR128kbps
*Size: 61MB

Tracklist:
01. Farewell 04:54
02. Saurian King 05:24
03. The Coming Fire 04:09
04. Of Fury 04:47
05. Intensified Genocide 04:00
06. Life of Exile 04:53
07. Where Millions Have Come to Die (feat. Phil Bozeman of Whitechapel) 04:23
08. From Ruin... We Rise 04:50
09. Blood in the Sands of Time (feat. Chuck Billy of Testament) 05:22
10. Reconquest 04:50
11. Elegy I: Adapt 02:28
12. Elegy II: Devise 04:25
13. Elegy III: Overcome 06:01
******************************
Total playing time: 1:00:39

[more=Extended info]metal-archives.com[/more]

[more=Technical info]
Input File: 01. Farewell.mp3
Channels : 2
Sample Rate : 44100
Precision : 16-bit
Duration : 00:04:56.54 = 13077546 samples = 22240.7 CDDA sectors
File Size : 4.75M
Bit Rate : 128k
Sample Encoding: MPEG audio (layer I, II or III)
Comments :
Title=Farewell
Artist=Shadow of Intent
Album=Elegy
Tracknumber=01/13
Year=2022
Discnumber=1/1

[/more]

Register
(8) gwar, infozahist, JPV, kimkayoung, Olethros, SABRAX, sadmannn, socrates9,
Oct 31 2021, 09:43:45 Archspire - Bleed The Future (2021)
ЦИТАТА(Anarhist815 @ Oct 28 2021, 15:00:17) *
Гитарист вообще криворукий, на 4-ой композиции во время спокойного акустического проигрыша скрипит пальцами по струнам, не в состоянии нормально переходить на лады без скрипа, это уровень - дно(
Походу им большую часть материала записывали сесионщики из других групп.

Я раньше думал что такие никчемные в гитарном плане новички как Хэммет, Гэри Холт, Горгорот - дно, но теперь гитарист Арспир - с ними в одном ряду.

В начале 5-ой песни то же самое - отскрипелся, отзвенелся как школяр, просто жесть!

Судя по всему, ты гитарист не хуже Марти Фридмена, как минимум.

ЦИТАТА(ingested @ Oct 28 2021, 16:15:25) *
Фред гитарист залогинился! pray.gif

pleased.gif pleased.gif pleased.gif

(1) realexxx75,
Oct 31 2021, 09:32:42 Under Cold Sun - Devotion (2021)
ЦИТАТА(Samaritianin @ Oct 30 2021, 17:17:20) *
[*Genre: Thrash/Death Metal

Это просто трэш, имхо.
(1) Andrew,
Oct 26 2021, 13:51:15 Impending Doom - Satanic Panic [single] (2021)
flac
mega
(2) Olethros, wreak,
Oct 25 2021, 10:35:50 Impending Doom - Satanic Panic [single] (2021)


*Artist: Impending Doom
*Album: Satanic Panic [single]
*Year: 2021
*Genre: Deathcore
*Country: United States
*Format: mp3@CBR320kbps
*Size: 7MB

Tracklist:
1. Satanic Panic
******************************
Total playing time: 3:20

[more=Extended info][youtube]Hdud7Vc4ins[/youtube][/more]

[more=Technical info]
Input File: 01. Satanic Panic.mp3
Channels : 2
Sample Rate : 44100
Precision : 16-bit
Duration : 00:03:19.28 = 8788072 samples = 14945.7 CDDA sectors
File Size : 8.03M
Bit Rate : 322k
Sample Encoding: MPEG audio (layer I, II or III)
Comments :
Title=Satanic Panic
Artist=Impending Doom
Album=Satanic Panic
Tracknumber=01
Year=2021
Genre=Deathcore

[/more]

Register
(10) artscald, caro, chipsgott, csgmnk, Emm Human, gwar, Olethros, Taakeferd, varlam4, wreak,
Oct 24 2021, 18:53:31 Shadow Of Intent - Intensified Genocide [single] (2021)
flac
mega
(1) caro,
Oct 24 2021, 14:09:27 Shadow Of Intent - Intensified Genocide [single] (2021)


*Artist: Shadow Of Intent
*Album: Intensified Genocide [single]
*Year: 2021
*Genre: Symphonic Deathcore
*Country: United States
*Format: mp3@CBR320kbps
*Size: 9MB

Tracklist:
1. Intensified Genocide
******************************
Total playing time: 4:05

[more=Extended info][youtube]vwuEXf2AKao[/youtube][/more]

[more=Technical info]
Input File: 01. Intensified Genocide.mp3
Channels : 2
Sample Rate : 44100
Precision : 16-bit
Duration : 00:04:04.31 = 10774203 samples = 18323.5 CDDA sectors
File Size : 9.86M
Bit Rate : 323k
Sample Encoding: MPEG audio (layer I, II or III)
Comments :
Title=Intensified Genocide
Artist=Shadow of Intent
Album=Intensified Genocide
Tracknumber=01
Year=2021
Genre=Symphonic Deathcore

[/more]

Register
(8) artscald, caro, chipsgott, Creedmoor6555, csgmnk, Olethros, Taakeferd, wreak,
Oct 23 2021, 18:16:57 Slapdown - Fundamentally Wicked (2021)
ЦИТАТА(Samaritianin @ Oct 22 2021, 05:36:08) *
*Genre: Death/Thrash Metal

Облегченная сместь Aborted и Benighted.
(1) Razorbladeswaltz,
Oct 23 2021, 12:57:08 Inhuman Condition - Rat°God (2021)
Отличный альбом получился! metaler.gif
(1) Occultas,

16 Pages V  « < 13 14 15 16 >
- Lo-Fi Version Support form
Copyrights and abuse reports form
Time is now: 18th June 2024 - 17:33:16