Welcome Guest ( Log In | Register )

Объявления

* gmail.com упорно продолжает считать почту с нас "unsolicited" и отбивает в том числе и письма активации, поэтому просьба использовать альтернативные почтовые ящики.
------------
* gmail.com continues reject all mail from us as "unsolicited" (activation mails too) therefore please use alternate mail servers.
История благодарностей участнику Winner ::: Спасибо сказали: 601 раз(а)
Дата поста: В теме: За сообщение: Спасибо сказали:
Oct 31 2021, 09:43:45 Archspire - Bleed The Future (2021)
ЦИТАТА(Anarhist815 @ Oct 28 2021, 15:00:17) *
Гитарист вообще криворукий, на 4-ой композиции во время спокойного акустического проигрыша скрипит пальцами по струнам, не в состоянии нормально переходить на лады без скрипа, это уровень - дно(
Походу им большую часть материала записывали сесионщики из других групп.

Я раньше думал что такие никчемные в гитарном плане новички как Хэммет, Гэри Холт, Горгорот - дно, но теперь гитарист Арспир - с ними в одном ряду.

В начале 5-ой песни то же самое - отскрипелся, отзвенелся как школяр, просто жесть!

Судя по всему, ты гитарист не хуже Марти Фридмена, как минимум.

ЦИТАТА(ingested @ Oct 28 2021, 16:15:25) *
Фред гитарист залогинился! pray.gif

pleased.gif pleased.gif pleased.gif

(1) realexxx75,
Oct 31 2021, 09:32:42 Under Cold Sun - Devotion (2021)
ЦИТАТА(Samaritianin @ Oct 30 2021, 17:17:20) *
[*Genre: Thrash/Death Metal

Это просто трэш, имхо.
(1) Andrew,
Oct 26 2021, 13:51:15 Impending Doom - Satanic Panic [single] (2021)
flac
mega
(2) Olethros, wreak,
Oct 25 2021, 10:35:50 Impending Doom - Satanic Panic [single] (2021)


*Artist: Impending Doom
*Album: Satanic Panic [single]
*Year: 2021
*Genre: Deathcore
*Country: United States
*Format: mp3@CBR320kbps
*Size: 7MB

Tracklist:
1. Satanic Panic
******************************
Total playing time: 3:20

[more=Extended info][youtube]Hdud7Vc4ins[/youtube][/more]

[more=Technical info]
Input File: 01. Satanic Panic.mp3
Channels : 2
Sample Rate : 44100
Precision : 16-bit
Duration : 00:03:19.28 = 8788072 samples = 14945.7 CDDA sectors
File Size : 8.03M
Bit Rate : 322k
Sample Encoding: MPEG audio (layer I, II or III)
Comments :
Title=Satanic Panic
Artist=Impending Doom
Album=Satanic Panic
Tracknumber=01
Year=2021
Genre=Deathcore

[/more]

Register
(10) artscald, caro, chipsgott, csgmnk, Emm Human, gwar, Olethros, Taakeferd, varlam4, wreak,
Oct 24 2021, 18:53:31 Shadow Of Intent - Intensified Genocide [single] (2021)
flac
mega
(1) caro,
Oct 24 2021, 14:09:27 Shadow Of Intent - Intensified Genocide [single] (2021)


*Artist: Shadow Of Intent
*Album: Intensified Genocide [single]
*Year: 2021
*Genre: Symphonic Deathcore
*Country: United States
*Format: mp3@CBR320kbps
*Size: 9MB

Tracklist:
1. Intensified Genocide
******************************
Total playing time: 4:05

[more=Extended info][youtube]vwuEXf2AKao[/youtube][/more]

[more=Technical info]
Input File: 01. Intensified Genocide.mp3
Channels : 2
Sample Rate : 44100
Precision : 16-bit
Duration : 00:04:04.31 = 10774203 samples = 18323.5 CDDA sectors
File Size : 9.86M
Bit Rate : 323k
Sample Encoding: MPEG audio (layer I, II or III)
Comments :
Title=Intensified Genocide
Artist=Shadow of Intent
Album=Intensified Genocide
Tracknumber=01
Year=2021
Genre=Symphonic Deathcore

[/more]

Register
(8) artscald, caro, chipsgott, Creedmoor6555, csgmnk, Olethros, Taakeferd, wreak,
Oct 23 2021, 18:16:57 Slapdown - Fundamentally Wicked (2021)
ЦИТАТА(Samaritianin @ Oct 22 2021, 05:36:08) *
*Genre: Death/Thrash Metal

Облегченная сместь Aborted и Benighted.
(1) Razorbladeswaltz,
Oct 23 2021, 12:57:08 Inhuman Condition - Rat°God (2021)
Отличный альбом получился! metaler.gif
(1) Occultas,
Oct 23 2021, 12:30:18 Carcass - The Scythe's Remorseless Swing [studio clip] (2021)
metaler.gif metaler.gif metaler.gif
(1) Occultas,
Oct 23 2021, 12:27:26 Arch Enemy - Deceiver, Deceiver [studio clip] (2021)


*Performer: Arch Enemy
*Title: Deceiver, Deceiver
*Type: Studio Clip
*Album: Deceiver, Deceiver (Single)
*Year: 2021
*Genre: Melodic Death Metal
*Country: Sweden

*Audio: ac3@127kbps
*Video: h.264@3917kbps
*Resolution: 1920x1080
*Size: 113MB
******************************
*Length: 00:03:55

[more=Extended info]https://www.youtube.com/watch?v=m_m2oYJkx1A[/more]

Register
(6) metalboll, morbidangelo, Occultas, Scuns, sunska, VALERY,
Oct 23 2021, 11:13:36 Blood Red Throne - Imperial Congregation (2021)
Отличный альбом. В топ по итогам года.
(1) Occultas,
Oct 23 2021, 10:50:33 Impending Doom - Satanic Panic [studio clip] (2021)


*Performer: Impending Doom
*Title: Satanic Panic
*Type: Studio Clip
*Album: Hellbent (Ep)
*Year: 2021
*Genre: Deathcore
*Country: United States

*Audio: ac3@127kbps
*Video: h.264@1527kbps
*Resolution: 1920x800
*Size: 39MB
******************************
*Length: 00:03:20

Register
(1) morbidangelo,
Oct 22 2021, 10:03:00 Red To Grey - Balance Of Power (2021)
Вокал никакой.
(1) isvili,
Oct 20 2021, 12:18:32 Sovereign Darkness - Eternal Nightmare (2021)
Это скорее прогрессив трэш. Вокалом косит под Чака Шульдинера.
(1) Storky,

16 Pages V  « < 14 15 16
- Lo-Fi Version Support form
Copyrights and abuse reports form
Time is now: 22nd July 2024 - 08:27:32