Welcome Guest ( Log In | Register )

История благодарностей участнику Merdre ::: Спасибо сказали: 10 раз(а)
Дата поста: В теме: За сообщение: Спасибо сказали:
Oct 22 2019, 22:13:25 Hørdür - Húbris (2019)


*Artist: Hørdür
*Album: Húbris
*Year: 2019
*Genre: Grind/Death Metal/Fastcore
*Country: France
*Format: mp3@CBR320kbps
*Size: 64MB

Tracklist:
01. Dixcrix 01:00
02. La Cité des Truites 00:56
03. La Veille des Vierges 01:10
04. Les Pérédis 01:18
05. Église Cathodique 01:04
06. Skidüu Giluú 00:42
07. Famine Nombreuse 01:10
08. Speed Herman (No Speed, No Herman) 01:08
09. Peinard et Mouillé 01:03
10. Face à la Merde 01:04
11. Justice des Fossés 01:31
12. Renard des Surfaces 01:19
13. Soleil Mort 01:19
14. Civières 01:10
15. 100 Permis (Manu Manoeuvre) 01:11
16. Sobre et Minable 01:40
17. My Mate is a Club Mate 00:49
18. Shit de tension 01:06
19. Sale Ambiance 01:13
20. Veau d'Or Dur 01:12
******************************
Total playing time: 23:05



Website

[more=Technical info]
Input File: Hørdür - Húbris - 01 Dixcrix.mp3
Channels : 2
Sample Rate : 44100
Precision : 16-bit
Duration : 00:01:00.32 = 2660112 samples = 4524 CDDA sectors
File Size : 2.66M
Bit Rate : 353k
Sample Encoding: MPEG audio (layer I, II or III)
Comments :
Title=Dixcrix
Artist=Hørdür
Album=Húbris
Tracknumber=1
Year=2018

[/more]

Register
(10) A.L.Rapsod, artscald, DarkHorde, METALHUNTER, nikolay81, Olethros, Rosen, Zhelezjaka, Волос, Герб,

- Lo-Fi Version Support form
Copyrights and abuse reports form
Time is now: 29th July 2021 - 13:06:57