Welcome Guest ( Log In | Register )

История благодарностей участнику piledriver ::: Спасибо сказали: 307 раз(а)
Дата поста: В теме: За сообщение: Спасибо сказали:
Jul 19 2019, 17:50:36 Anthrax - Spreading The Disease (1985)
Register
(1) internalDahlia,
Jul 16 2019, 16:05:17 Silent Dominion - Cries Of The Past [ep] (2013)
Register
(1) wendigo,
Jul 16 2019, 15:35:48 Nordafrost - North Arise (2004)
Register
(1) wendigo,
Jul 16 2019, 14:07:46 Nordafrost - Dominus Frigoris [ep] (2003)
Register
(1) wendigo,
Jul 16 2019, 14:06:46 Nordafrost - The Victorious [ep] (2011)
Register
(1) wendigo,
Jul 16 2019, 14:04:53 Purgatory - 20 Years Underground [compilation] (2013)


*Artist: Purgatory
*Album: 20 Years Underground [compilation]
*Year: 2013
*Genre: Death Metal
*Country: Germany
*Format: mp3@CBR192kbps
*Size: 180MB

Tracklist:
Side A
1. Spreading the Plague 03:51
2. Necrocannibalistical Insanity 04:13
3. Back from the Shadowlands 04:04
4. Captured Souls 03:54
5. Death World Struggle 03:46
6. Final Chasm / Stream of Anguish 02:04
7. Seeds of Annihilation 03:21
Side B
8. Serpent Creation 03:25
9. Hammering the Nails 05:23
10. Burial of a Plague 03:36
11. Chaos Aeon 02:46
12. Onward to the Burning Shores 03:34
13. Forbidden Wisdom 03:23
14. The Enemy Within 03:52
******************************
Total playing time: 51:12

[more=Extended info]This record contains a new song, re-recorded and unreleased songs, cover versions, live tracks and pre-production versions.

Side A:
1. - new song 2013
2. - re-recorded 2013
3. - re-recorded 2013
4. - re-recorded 2013
5. - re-recorded 2013
6. - Blood cover version 2009
7. - "Luciferianism" pre-production 2004
Side B:
1. - "Luciferianism" pre-production 2004
2. - "Cultus Luciferi" pre-production 2007
3. - "Cultus Luciferi" pre-production 2007
4. - "Cultus Luciferi" pre-production 2007
5. - "Deathkvlt" pre-production demo 2012
6. - live at Stromgitarrenfest 2010
7. - live at Stromgitarrenfest 2010

2-CD digibook bonus CD:

1 - Masturbation of bowels (1993 Psychopathia Sexualis EP)
2 - Children of derversion (1993 Psychopathia Sexualis EP)
3 - Necrocannibalistical unsanity (1993 Psychopathia Sexualis EP)
4 - Psychopathia sexualis (1993 Psychopathia Sexualis EP)
5 - Frozen braincells (1994 Sadistic Spell EP)
6 - Darorysm of mortal list (1994 Sadistic Spell EP)
7 - Sadistic spell (1994 Sadistic Spell EP)
8 - Necromanical necropsy (1994 Sadistic Spell EP)
9 - Ulcer of hate (1997 Split EP)
10 - Tormento flesh (1997 Split EP)
11 - Boneyard - Undetygd lover (1997 Bestial LP)
12 - The rads - Asphyx lover (200 Blessed with flames of Hate LP)
13 - Fiend for blood - Ahidpsy lover(2003 Split EP)
14 - Corporation dull an - Terrdryzer lover (2003 Split EP)
15 - Captured souls - (Live 2000) (2003 Split EP)
16 - Moment of identity / Process of cremation (1993 Live Performance Demo)
17 - Children of perversion (1993 Live Performance Demo)
18 - Lord of purrefaction (1993 Live Performance Demo)
19 - Masturbation of bowels (1993 Live Performance Demo)
20 - Dark reality (1993 Live Performance Demo)
21 - Boneyard - Undetygd lover (1993 Live Performance Demo)[/more]

[more=Technical info]
Input File: purgatory-03-back from the shadowlands.mp3
Channels : 2
Sample Rate : 44100
Precision : 16-bit
Duration : 00:04:04.87 = 10798591 samples = 18365 CDDA sectors
File Size : 5.88M
Bit Rate : 192k
Sample Encoding: MPEG audio (layer I, II or III)
Comments :
Title=Back From The Shadowlands
Artist=Purgatory
Album=20 Years Underground CD1
Tracknumber=03
Year=2014
Genre=Death Metal

[/more]

Register
(1) Carcharoth,
Jul 16 2019, 13:21:04 Impiety & Abhorrence - Two Barbarians [split] (2008)
Register
(1) morbidangelo,
Jul 16 2019, 13:20:06 Abhorrence - Triumph In Blasphemy [demo] (1999)
Register
(4) falchenr, morbidangelo, Pinhead666, thenecromancer,
Jul 16 2019, 13:19:22 Abhorrence - Ascension [demo] (1997)
Register
(1) morbidangelo,
Jul 16 2019, 13:17:58 Vlad Tepes - The Drakksteim Sessions [best of/compilation] (2015)
Register
(2) dvlz, Варяг,
Jul 16 2019, 09:14:23 Malevolent Creation - The Will To Kill (2002)
Register
(2) FunZombie, jorgeguldur,
Jul 16 2019, 09:12:34 Sargeist - Tyranny Returns [demo] (2001)
Register
(3) morbidangelo, thenecromancer, Wail,
Jul 16 2019, 09:12:00 Sargeist & Merrimack - Sargeist/Merrimack [split] (2002)
Register
(1) thenecromancer,
Jul 16 2019, 09:00:35 Malevolent Creation - Doomsday X (2007)
Register
(1) FunZombie,
Jul 16 2019, 08:57:53 Malevolent Creation - Warkult (2004)
Register
(3) FunZombie, jorgeguldur, Phlebotomized,
Jul 16 2019, 08:56:17 Sargeist - Disciple Of The Heinous Path (2005)
Register
(2) aleon, kimkayoung,
Jul 16 2019, 08:53:30 Horned Almighty & Sargeist - In Ruin & Despair / To The Lord Our Lives [split] (2004)
Register
(1) lobosolitario,
Jul 16 2019, 08:52:02 Sargeist & Funeral Elegy - Sargeist/Funeral Elegy [split] (2004)
Register
(2) thenecromancer, Wail,
Jul 16 2019, 08:44:15 Dark Tranquillity - Damage Done (2002)
Register
(3) Black Arts, infiltrator, juanguillermo13,
Jul 16 2019, 08:39:26 Onslaught - Power From Hell (1985)
Register
(2) Aresson, Nobodyspecial,
Jul 16 2019, 08:34:12 Pestilence - Spheres (1993)
Register
(3) Dr.Grind Oim, gena, metal73,
Jul 16 2019, 07:30:49 Black Vomit 666 - Guerreros De Casta Inmortal (2015)
Register
(3) Asketto, thenecromancer, varlam4,
Jul 16 2019, 07:23:45 Polymorph & Purgatory - Hell Bastards [split] (2003)
Register
(1) wendigo,
Jul 16 2019, 07:23:01 Polymorph - In The Face Of Death [demo] (1997)
Register
(1) wendigo,
Jul 16 2019, 07:18:27 Horna - Pimeyden Hehku [ep] (2007)
Register
(2) jesterfiend, kimkayoung,

5 Pages V   1 2 3 > » 
- Lo-Fi Version Support form
Copyrights and abuse reports form
Time is now: 25th October 2021 - 20:46:27