Welcome Guest ( Log In | Register )

История благодарностей участнику canadaspaceman ::: Спасибо сказали: 6044 раз(а)
Дата поста: В теме: За сообщение: Спасибо сказали:
Today, 04:25:42 Mama's Boys - Needle In The Groove [ep] (1985)


*Artist: Mama's Boys
*Album: Needle In The Groove [ep]
*Year: 1985
*Genre: Heavy Metal
*Country: Ireland
*Format: wv
*Size: 123MB

Tracklist:
1. Needle In The Groove 03:48
2. Don't Tell Mama 04:15
3. If The Kids Are United (SHAM69 cover) 03:19
******************************
Total playing time: 11:22

[more=Extended info]Label: Jive – JIVE T 96
Format: Vinyl, 12", 45 RPM
vinyl rip by canadaspaceman, then cleaned & edited by nucleus [heavymetalrarities][/more]

Register
(4) Carcharoth, Grev, Mannard, wgs73,
Mar 3 2024, 07:06:22 Kiss - The Lost Alive Ii Movie (2009 Remaster) [bootleg] (1977)


*Performer: Kiss
*Title: The Lost Alive Ii Movie (2009 Remaster)
*Type: Bootleg
*Year: 1977
*Genre: Hard Rock/1970S Heavy Metal
*Country: United States

*Audio: pcm@1536kbps
*Video: mpeg1@9500kbps
*Resolution: 720x480
*Size: 1950MB
******************************
*Length: 00:44:15

[more=Extended info]Audio Codec: DVD LPCM
Frame rate: 29.97
Codec: MPEG-1/2Video (mpgv)
Format: .vob files

Size: 1.95 GB

Frame Rate: 29.97 frames per second
Audio Sample rate: 48000 hz

KISS: The Lost Alive II Movie (2009 Remaster) DVD5

Source/Lineage:
Video: Mick E Gee’s April 2, 1977 Remaster .
Audio: Lost Alive II 48k, 24 bit master from original cassette that every copy out there came from.

Total Running Time: 45 minutes.

Setlist:
Detroit Rock City
Take Me
Ladies Room
Makin' Love
I Want You
Cold Gin
Do You Love Me
God Of Thunder
Rock And Roll All Nite
Beth
Shout It Out Loud

INFO:
During KISS 4 shows at Tokyo's Budokan in April of 1977, Eddie Kramer was commissioned to record an official live album. Perhaps it was to be a Japan only release, or it was the scrapped first attempt at KISS Alive II.

Regardless, it was never released, and in the mid 1990's, the final mix of this 2 sided live album was leaked into fan circles.
Thousands of fans regard this as the REAL Alive II, as the guitar tones and mix were much heaver than what ended up on the finished and final release, which was recorded mostly at the Los Angeles Forum during the band's Love Gun tour.

An interesting note is that 2 songs from this recording were re-used for Alive II (I Want You and Beth) - both of which featured re-dubbed vocals on the final release in contrast to this version.

Meanwhile, while Eddie Kramer was recording the shows, NHK TV in Japan filmed the 2 concerts played on April 2, 1977.

One of which, the evening show, was used as The Young Music Show in Japan and a KISS Live Concert on HBO in America. Scenes from the afternoon show were dubbed in.

The final untouched version of the complete concert was released on Kissology Vol. 1.

A version of Let Me Go, Rock And Roll, from the afternoon performance, appears on the Kiss: Konfidential home video.

Interestingly, the audio Eddie Kramer chose to use for his final mix focused primarily on the evening performance from April 2, 1977 as well, including Ace's guitar solo, Take Me, God of Thunder, Rock and Roll All Nite, Do You Love Me?, I Want You, Beth, and Shout it Out Loud.

Yes, the version of I Want You and Beth on the video are the same versions that appear on the official Kiss Alive II album, though the vocals were overdubbed.

For this reason, a sync of Eddie Kramer's audio track to the April 2, 1977 video makes sense. Not only do we have an amazing stereo mix made by Eddie Kramer, but we have amazing film footage from most of the same show.
To make it feel more authentic, I've changed the frame rate to 24p to give it that "film" feeling, and letterboxed the video.

This should serve as a great document for fans who want to crank some classic KISS from one of their most legendary 1970s tours on a home theatre system.

Some audio defects are present on the original of I Want You, and some minor spots in Makin Love and Shout it out Loud. These are on the currently circulating master tape, and could not be avoided in the final master of this DVD.

The order of tracks from the original audio was changed to keep continuity with the video set list orde[/more]

Register
(2) AlexSmith, recber,
Mar 2 2024, 23:45:57 Ken Baumgartner - Bomber [ep] (1990)


*Artist: Ken Baumgartner
*Album: Bomber [ep]
*Year: 1990
*Genre: Heavy Metal
*Country: United States
*Format: mp3@CBR160kbps
*Size: 17MB

Tracklist:
1. Bomber (Motorhead cover) 03:07
2. Live Wire (ACDC cover) 05:05
3. Live Wire (Hanson Bros Only Version) (ACDC cover)05:04
******************************
Total playing time: 13:16

[more=Extended info]Canada/USA
Metal Blade Records/Caroline Records CAROL CD 1903

Thanks to the original ripper and uploader, riptorn [heavymetalrarities.com]

Ken Baumgartner : Lead Vocals (Tracks 1 & 2)
John Bush : Lead Vocals (Tracks 1 & 3) & Backing Vocals (ARMORED SAINT, ANTHRAX, DOOM SQUAD)

Rocky George : Guitar (SUICIDAL TENDENCIES, FISHBONE, CRO-MAGS, HARLEY'S WAR, PAPSMEAR)
Joe DiBiase : Bass (FATES WARNING, ARCH/MATHEOS, WALLS OF BLOOD)
Mark Zonder : Drums (FATES WARNING, WARLORD, GRAHAM BONNET BAND, CANS, TEN, SLAVIOR, SPIRITS OF FIRE, DRAMATICA)


'Proceeds will go to fight Leukemia in the memory of Dave Prichard & others who have died from this terrible disease.'

A professional hockey player whose career on ice spanned over two decades of service with numerous NHL, AHL, and WHL teams, Ken Baumgartner was also a fan of hard rock and heavy metal music.

His friendship with Metal Blade Records honcho Brian Slagel (himself a hockey fanatic) resulted in one of the more curious releases in both the label's and heavy metal's long history.

Between 1987 and 1990, Baumgartner was an off-and-on member of the Los Angeles Kings, and it was toward the end of his stay with the team that he and Slagel came up with the idea of recording a single for charity.

This eventually became the Bomber EP, which saw musicians like ARMORED SAINT vocalist John Bush, SUICIDAL TENDENCIES guitarist Rocky George, and the FATES WARNING rhythm section of Joe DiBiase and Mark Zonder (among others) lending their talents to record a pair of classic metal tunes, namely the MOTÖRHEAD nugget chosen as its title and the AC/DC favorite "Live Wire."

Baumgartner was shipped off to the New York Islanders shortly thereafter, and enjoyed another ten years of distinguished hockey, but has had no additional recording credits to his name.
Eduardo Rivadavia, All Music Guide



[/more]

[more=Technical info]
Input File: 01. Bomber.mp3
Channels : 2
Sample Rate : 44100
Precision : 16-bit
Duration : 00:03:08.14 = 8296974 samples = 14110.5 CDDA sectors
File Size : 3.76M
Bit Rate : 160k
Sample Encoding: MPEG audio (layer I, II or III)
Comments :
Title=Bomber
Artist=Ken Baumgartner
Album=Bomber EP
Tracknumber=1
Year=1990

[/more]

Register
(3) Bloodline Christian, Carcharoth, thenecromancer,
Mar 1 2024, 00:17:30 Harlequin - Greatest Hits [compilation] (1986)


*Artist: Harlequin
*Album: Greatest Hits [compilation]
*Year: 1986
*Genre: Aor/Melodic Hard Rock
*Country: Canada
*Format: mp3@CBR320kbps
*Size: 128MB

Tracklist:
1. (It's) No Mystery 03:31
2. Innocence 04:21
3. Superstitious Feeling 03:47
4. I Did It For Love 03:31
5. Thinking Of You 04:24
6. Take This Heart 03:50
7. Sweet Things In Life 04:22
8. Survive 03:49
9. You Are The Light 03:44
10. Heart Gone Cold 03:42
11. Can't Hold Back 02:52
12. Love On The Rocks 03:17
13. Ready To Love Again 04:26
14. It's All Over Now 04:02
******************************
Total playing time: 53:38



[more=Extended info]https://www.discogs.com/master/1054564-Harlequin-Greatest-Hits

"Innocence" , and "Thinking Of You" were AM and FM radio hits for most of the 1980s in Canada.[/more]

[more=Technical info]
Input File: 05 - Thinking Of You.mp3
Channels : 2
Sample Rate : 44100
Precision : 16-bit
Duration : 00:04:24.86 = 11680238 samples = 19864.4 CDDA sectors
File Size : 10.6M
Bit Rate : 320k
Sample Encoding: MPEG audio (layer I, II or III)
Comments :
Title=Thinking Of You
Artist=Harlequin (Canada)
Album=Greatest Hits
Tracknumber=5

[/more]

Register
(7) Grev, gwar, incubus, kimkayoung, Reverend, thenecromancer, v.v.m,
Feb 29 2024, 21:43:22 Onslaught - Skullcrusher [compilation] (2024)
https://metalstorm.net/events/news_comments...p?news_id=52706

01. Visions Of Our Future [The Shadow Of Death]
02. The Black Horse Of Famine [The Shadow Of Death]
03. Thermonuclear Devastation [Power From Hell]
04. Skullcrusher II [Power From Hell]
05. Fight With The Beast [The Force]
06. Let There Be Death [The Force]
07. Lightning War [In Search Of Sanity]
08. In Search Of Sanity [In Search Of Sanity]
09. Pain [Killing Peace]
10. Destroyer Of Worlds [Killing Peace]
(2) boby9052, Genuine Thrashiac,
Feb 29 2024, 15:23:10 Iron Maiden - The First Ten Years [compilation] (1990)
Thanks to the uploader, underground_resistor

Iron Maiden 1990 The First Ten Years (10CD Boxset) [320 kbps +scans]
7 hours 36 minutes 26 seconds
Size:1.15 GB
MEGA Link
Register

(1) thenecromancer,
Feb 29 2024, 12:16:25 Wizardz (Saigon Baby) - Cybersex Offender (2012)
mega link added
(1) thenecromancer,
Feb 29 2024, 12:12:37 Lee Aaron - El Mocambo, Toronto, ON, Canada (FM) [bootleg] (1984)


*Artist: Lee Aaron
*Album: El Mocambo, Toronto, ON, Canada (FM) [bootleg]
*Year: 1984
*Genre: Heavy Metal
*Country: Canada
*Format: mp3@VBR108kbps
*Size: 41MB

Tracklist:
1. Lady Of The Darkest Night 07:28
2. Shake It Up 02:49
3. Get Ready 06:42
4. We Will Be Rockin' 06:45
5. Deceiver 04:21
6. Metal Queen 05:00
******************************
Total playing time: 33:05

[more=Extended info]vbr, 108 kbps avg.

recorded 1984-03-31 El Mocambo club, Toronto, ON, Canada (FM Broadcast 1984 March 6]
FM radio Broadcast

Thanks to, originally shared by, Zeppo onhttp://www.guitars101.com/

[/more]

[more=Technical info]
Input File: 02 Shake It Up.mp3
Channels : 2
Sample Rate : 44100
Precision : 16-bit
Duration : 00:02:51.49 = 7562841 samples = 12862 CDDA sectors
File Size : 4.06M
Bit Rate : 190k
Sample Encoding: MPEG audio (layer I, II or III)

[/more]

Register
(4) Grev, infozahist, thenecromancer, Vakhangya,
Feb 29 2024, 12:03:44 Lee Aaron - Rock Me All Over [ep] (1985)


*Artist: Lee Aaron
*Album: Rock Me All Over [ep]
*Year: 1985
*Genre: Heavy Metal
*Country: Canada
*Format: mp3@CBR320kbps
*Size: 29MB

Tracklist:
1. Rock Me All Over 03:55
2. Line Of Fire 04:21
3. Evil Game 03:51
******************************
Total playing time: 12:07

[more=Extended info][12'' EP]

Thanks to the original uploader, achad1979 from heavymetalrarities[/more]

[more=Technical info]
Input File: 01 A - Rock Me All Over.mp3
Channels : 2
Sample Rate : 48000
Precision : 16-bit
Duration : 00:03:55.08 = 11283984 samples ~ 17631.2 CDDA sectors
File Size : 9.42M
Bit Rate : 321k
Sample Encoding: MPEG audio (layer I, II or III)
Comments :
Artist=Lee Aaron
Album=1985 -Rock Me All Over (Roadrunner - RR 125495)

[/more]

Register
(8) chipsgott, Grev, gwar, Ice Gnoll, infozahist, Marek, older68, thenecromancer,
Feb 29 2024, 11:53:07 Bathory
QUOTE(Wail @ Feb 29 2024, 09:08:32) *
Bathory – B-Sides [Compilation] (1983-2004) 320kbps
From the web


Not sure what the point of that is, as most Bathory fans will have all of the tracks.
https://takemetal.org/bathory-b-sides-compilation-1983-2004/
(2) thenecromancer, Wail,
Feb 28 2024, 16:54:06 Celtic Frost - 1989-03-03 Live At The Hammersmith Odeon [bootleg] (1989)


*Artist: Celtic Frost
*Album: 1989-03-03 Live At The Hammersmith Odeon [bootleg]
*Year: 1989
*Genre: Thrash Metal
*Country: Switzerland
*Format: flac
*Size: 441MB

Tracklist:
1. The Usurper 03:14
2. Seduce Me Tonight 03:03
3. Mexican Radio 03:37
4. (Once) They Were Eagles 03:03
5. Little Velvet 03:34
6. Jewel Throne 04:06
7. Juices Like Wine 03:50
8. Cherry Orchards 04:26
9. Petty Obsession 04:32
10. Blood On Kisses 04:01
11. Into The Crypts Of Rays 04:07
12. Return To The Eve 03:49
13. Downtown Hanoi 04:02
14. Circle Of The Tyrants 04:03
15. Roses Without Thorns 02:41
16. Dethroned Emperor 04:38
******************************
Total playing time: 1:00:46

[more=Extended info]flac files
Live At The Hammersmith Odeon 1990 VHS Stereo Fotodisk Video-NFV 101

Thanks to the original ripper/uploader , church of zer[/more]

[more=Technical info]
Input File: Celtic Frost - Live At The Hammersmith Odeon 3.3.89 - 01 - The Usurper.flac
Channels : 2
Sample Rate : 44100
Precision : 16-bit
Duration : 00:03:14.25 = 8566572 samples = 14569 CDDA sectors
File Size : 25.5M
Bit Rate : 1.05M
Sample Encoding: 16-bit FLAC
Comments :
ARTIST=Celtic Frost
ALBUM=Live At The Hammersmith Odeon 3.3.89
TITLE=The Usurper
DATE=1990
TRACKNUMBER=1
GENRE=Thrash, Heavy Metal, Glam
KEY=Zer
TRACKTOTAL=15
LABEL=Fotodisk Video
CATALOGNUMBER=NFV 101
URL_DISCOGS_RELEASE_SITE=https://www.discogs.com/Celtic-Frost-Live-At-The-Hammersmith-Odeon-3389/release/8722255
COMMENT=ChurchOfZer.com
MOOD=Orgy!
QUALITY=ZER!
TAGS=2022-05-17 16:24:36
CUSTOM2=
COPYRIGHT=Celtic Frost
SOURCE=VHS Stereo

[/more]

Register
(7) BlackSwordMaster88, Carcharoth, ErickLeoni, Grev, stumpheavyrock, thenecromancer, Wail,
Feb 28 2024, 15:41:26 Celtic Frost - Celtic Frost 1985.05.17 St. Gallen, Switzerland [bootleg] (1985)
Celtic Frost 1985-05-17 Grabenhalle St. Gallen Switzerland [FLAC] 12 trx tape rip
Bitrate: FLAC files
Size: 352 MB
https://www.metal-archives.com/bands/Celtic_Frost/269
thanks to the original uploader , maybe i got this from soulseek, or a torrent like rutracker
MEGA link
Register

(2) Carcharoth, thenecromancer,
Feb 28 2024, 14:40:12 Celtic Frost - Live At The Hammersmith [concert] (1989)
i have the pro VHS tape to rip, (maybe I already did and it is on a dvd-r, but I am not looking)
it's already on youtube
https://www.youtube.com/watch?v=hH1GXgDIfnQ
(2) stumpheavyrock, thenecromancer,
Feb 22 2024, 22:12:05 Various Artists - Raw M.E.A.T. 1 [compilation] (1990)


*Artist: Various Artists
*Album: Raw M.E.A.T. 1 [compilation]
*Year: 1990
*Genre: Heavy Metal/Hard Rock
*Country: Canada
*Format: mp3@CBR320kbps
*Size: 111MB

Tracklist:
1. Slash Puppet - Slow Down 03:52
2. Eiffel Power - City Action 03:38
3. Ragadee Anne - Feel Me Sweet 03:32
4. Blackglama - Playin' Hardball (With The Big Boys) 03:18
5. Washington Wives - Memoirs, Etc. 03:07
6. Short Avenue - Push Comes To Shove 04:22
7. Trouble In Mind - Sweet Addictions 04:09
8. Antix - Kick It Up 04:21
9. Russian Blue - Once A Madman 03:15
10. Zyle - Alone In The Dark 04:11
11. The Remains - Too Much 03:43
12. Cathouse - In For The Kill 02:34
13. Wildside - Ready, Willing & Able 03:53
******************************
Total playing time: 47:55

[more=Extended info]Epidemic Records – RDRCD-192
thanks to the original ripper and uploader, from myzuka
https://www.discogs.com/release/7925761-Various-Raw-MEAT-1[/more]

[more=Technical info]
Input File: 02. City Action [Eiffel Power].mp3
Channels : 2
Sample Rate : 44100
Precision : 16-bit
Duration : 00:03:38.64 = 9641936 samples = 16397.9 CDDA sectors
File Size : 8.75M
Bit Rate : 320k
Sample Encoding: MPEG audio (layer I, II or III)
Comments :
Title=City Action
Artist=Eiffel Power
Album=Raw M.E.A.T. 1
Tracknumber=02
Year=1990
Genre=Hard Rock

[/more]

Register
(3) artscald, Grev, wreak,
Feb 11 2024, 09:36:57 Oneiromancy - Live At The 460 Club, Toronto, [bootleg] (2011)


*Artist: Oneiromancy
*Album: Live At The 460 Club, Toronto, [bootleg]
*Year: 2011
*Genre: Black/Thrash/Heavy Metal
*Country: Canada
*Format: wv
*Size: 104MB

Tracklist:
1. unknown 01:21
2. Beginning of the Odyssey 05:34
3. Intuitive Realization 03:23
******************************
Total playing time: 10:18

[more=Extended info]2011-10-14 The 460 Club, Toronto, Ontario, Canada

poor audience recording.

tape rip by canadaspaceman



https://www.metal-archives.com/bands/Oneiromancy/3540531578[/more]

Register
(4) Grev, stumpheavyrock, Wail, Xtohar,
Feb 11 2024, 08:30:57 Splatterreah - Rehearsal Demo #1 [demo] (1989)
Shit Speed is the name the band gave their record label, not the name of the demo.

https://i.postimg.cc/4NxM3StN/Shit-Speed-Tapes-001.jpg
(2) hell_armageddon, IllInTheHead,
Feb 10 2024, 20:17:54 Splatterreah - Rehearsal Demo #1 [demo] (1989)


*Artist: Splatterreah
*Album: Rehearsal Demo #1 [demo]
*Year: 1989
*Genre: Death Metal/Grindcore
*Country: United States
*Format: wv
*Size: 85MB

Tracklist:
1. Vomit Omlet 00:30
2. Spewing Vomit 01:26
3. Septic Bowel Discharge 00:39
4. Flesh Fry 01:06
5. Lick Your Menstrual 01:41
6. Diarrhea Daquiries 00:49
7. Elvis Is Dead 00:31
8. Human Hater 01:16
******************************
Total playing time: 7:58

[more=Extended info]tape rip by canadaspaceman

WAV files

USA (Houston, Texas)

Shit Speed-001 Records

https://www.discogs.com/release/2937574-Splatterreah-RehDemo-89-1

Vocals [Vocals & Menstral Cramp Shricks !!!!!] – Kapt. Kangaroo (Sal Saldivar)

Bass, Vocals [Bass & Offending Barbaric Bawls Of Hatred !!!!!!] – The Misanthropic Sewage Surviving Unknown Asshole (Ruben Cantu)

Drums – Wimpfuck (Paul Ramirez)

Guitar – Zombie (Ray Ramirez)

Recorded By, Mixed By – Slick Cruz
Recorded dead & mixed June 16 & 19, 1989 at Shawn and Slick's house.[/more]

Register
(9) Carcharoth, Grev, hell_armageddon, IllInTheHead, Proteus_666, stumpheavyrock, Wail, wgs73, Xtohar,
Jan 27 2024, 09:37:42 Today Needed
QUOTE(thenecromancer @ Jan 27 2024, 09:07:20) *

320 kbps
Register
(1) thenecromancer,
Jan 27 2024, 09:37:01 Deadly Manover - Deathology [demo] (1987)
320 kbps
Register
(7) Carcharoth, hell_armageddon, Pinhead666, thenecromancer, Wail, wendigo, Xtohar,
Jan 23 2024, 18:02:53 Maniac Butcher - Masakr (2010)
it is snowing here today, so enjoy more coldness!

Maniac Butcher (Czech) 2010 Masakr [WAV] vinyl rip by_canadaspaceman
Size: 291 MB

28 minutes 16 seconds

1. Desatero krutých zim přežitých v teple žhnoucí záře slávy minulé (6:36)
2. Projížďka hvozdem hlubokým za oučelem sčítání stavůch vlkůch a vlkodlakůch (4:06)
3. Rozhodnutí nezvratné všecken mír rozhodně rozvracející (4:21)
4. Bezbožné rouhání zpovědní před tažení vojnového započetím (3:38)
5. Masakr krvavý pro plnění zájmůch vyšších i řezničení nadbytečné pro kojení pudůch nízkých (4:17)
6. Zakončení ouděsné bezpočtům krutou jistotu slibující, však mne bezpočet slibných nejistot skýtající (5:18)
Register
(1) Wail,
Jan 22 2024, 05:22:04 Toxic Narcotic - Popullution [ep] (1992)


*Artist: Toxic Narcotic
*Album: Popullution [ep]
*Year: 1992
*Genre: Heavy Hardcore/Crossover Thrash Metal
*Country: United States
*Format: mp3@CBR320kbps
*Size: 30MB

Tracklist:
1. Popullution/Ever So Slightly 05:43
2. Believin'/Rock Monster 05:45
******************************
Total playing time: 11:28

[more=Extended info]7" vinyl rip by me[/more]

[more=Technical info]
Input File: Toxic Narcotic (US) side a Popullution,Ever So Slightly.mp3
Channels : 2
Sample Rate : 44100
Precision : 16-bit
Duration : 00:05:44.03 = 15171635 samples = 25802.1 CDDA sectors
File Size : 14.3M
Bit Rate : 333k
Sample Encoding: MPEG audio (layer I, II or III)
Comments :
Title=Popullution / Ever So Slightly
Artist=Toxic Narcotic (US)
Album=Popullution [7" EP]
Tracknumber=1
Year=1992
Genre=Heavy Hardcore/Crossover Thrash Metal

[/more]

Register
(9) artscald, BandR75, gwar, hell_armageddon, Marek, spazm, stumpheavyrock, wreak, Zhelezjaka,
Jan 22 2024, 05:14:46 Toxic Narcotic - Had It Coming! [ep] (2000)


*Artist: Toxic Narcotic
*Album: Had It Coming! [ep]
*Year: 2000
*Genre: Heavy Hardcore/Crossover Thrash Metal
*Country: United States
*Format: mp3@CBR320kbps
*Size: 20MB

Tracklist:
1. Cockroach 04:07
2. War Song 2k 03:09
******************************
Total playing time: 7:16

[more=Extended info]7" vinyl rip by me[/more]

[more=Technical info]
Input File: Toxic Narcotic (US) side B War Song 2k.mp3
Channels : 2
Sample Rate : 44100
Precision : 16-bit
Duration : 00:03:09.64 = 8362948 samples = 14222.7 CDDA sectors
File Size : 8.20M
Bit Rate : 346k
Sample Encoding: MPEG audio (layer I, II or III)
Comments :
Title=War Song 2k
Artist=Toxic Narcotic (US)
Album=Had It Coming! [7" EP]
Tracknumber=2
Year=2000
Genre=Heavy Hardcore/Crossover Thrash Metal

[/more]

Register
(8) artscald, BandR75, gwar, hell_armageddon, spazm, stumpheavyrock, wreak, Zhelezjaka,
Jan 22 2024, 02:43:22 Metallica - 1983-04-16 The Showplace, Dover, NJ [bootleg] (1983)


*Artist: Metallica
*Album: 1983-04-16 The Showplace, Dover, NJ [bootleg]
*Year: 1983
*Genre: Thrash Metal
*Country: United States
*Format: mp3@CBR160kbps
*Size: 47MB

Tracklist:
1. Hit The Lights 04:03
2. Mechanix 05:39
3. Phantom Lord 04:49
4. Jump In The Fire 03:47
5. Motorbreath 03:38
6. No Remorse 05:04
7. Bass Solo 03:43
8. Whiplash 04:13
9. Seek and Destroy 06:06
******************************
Total playing time: 41:02

[more=Extended info]Kirk's first show

april 16, 1983, opening bands were Anthrax, and Prey.

https://www.metal-archives.com/bands/Metallica/125

Thanks to the original ripper and uploader.[/more]

[more=Technical info]
Input File: 01 - Hit The Lights.mp3
Channels : 2
Sample Rate : 44100
Precision : 16-bit
Duration : 00:04:03.67 = 10745847 samples = 18275.2 CDDA sectors
File Size : 4.87M
Bit Rate : 160k
Sample Encoding: MPEG audio (layer I, II or III)
Comments :
Title=Hit The Lights
Artist=Metallica
Album=1983-04-16 - The Showplace, Dover, NJ (Kirk's first show)
Tracknumber=1
Year=1983
Genre=Heavy Metal

[/more]

Register
(8) BlackSwordMaster88, Carcharoth, Forcerecon1, hell_armageddon, Pinhead666, thenecromancer, Wail, Xtohar,
Jan 22 2024, 02:35:14 Metallica - 1983-04-08 Paramount Theater, Staten Island, NY [bootleg] (1983)


*Artist: Metallica
*Album: 1983-04-08 Paramount Theater, Staten Island, NY [bootleg]
*Year: 1983
*Genre: Thrash Metal
*Country: United States
*Format: mp3@CBR192kbps
*Size: 45MB

Tracklist:
1. The Ecstasy of Gold 00:19
2. Hit the Lights 03:44
3. The Mechanix 04:20
4. Phantom Lord 04:44
5. Jump in the Fire 04:05
6. Motorbreath 03:05
7. (Anesthesia) Pulling Teeth 01:41
8. Whiplash 04:27
9. Seek and Destroy 06:46
******************************
Total playing time: 33:11

[more=Extended info]Lead guitarist Dave Mustaine's second last show

april 8, 1983 opened with The Rods for Vandenberg.

https://www.metal-archives.com/bands/Metallica/125

Thanks to the original ripper and uploader.[/more]

[more=Technical info]
Input File: 02 Hit the Lights.mp3
Channels : 2
Sample Rate : 44100
Precision : 16-bit
Duration : 00:03:44.69 = 9908873 samples = 16851.8 CDDA sectors
File Size : 5.39M
Bit Rate : 192k
Sample Encoding: MPEG audio (layer I, II or III)
Comments :
Title=Hit the Lights
Artist=Metallica
Album=1983 - 04 08 - Paramount Theater, Staten Island
Tracknumber=02
Year=1983

[/more]

Register
(4) Carcharoth, Forcerecon1, hell_armageddon, Wail,
Jan 20 2024, 14:45:00 Slayer - 1986-11-28 The Concert Hall, Toronto, ON, Canada [bootleg] (1986)


*Artist: Slayer
*Album: 1986-11-28 The Concert Hall, Toronto, ON, Canada [bootleg]
*Year: 1986
*Genre: Thrash Metal
*Country: United States
*Format: flac
*Size: 522MB

Tracklist:
1. Raining Blood 03:11
2. Angel of Death 05:31
3. Die by the Sword 03:57
4. Praise of Death 03:34
5. Criminally Insane 03:24
6. Necrophiliac 04:06
7. Necrophobic 02:56
8. Captor of Sin 03:45
9. Reborn 02:57
10. Black Magic 04:14
11. Postmortem 03:36
12. Epidemic 03:35
13. Hell Awaits 05:34
14. Chemical Warfare 08:28
15. At Dawn They Sleep 07:01
16. Altar of Sacrifice 02:48
17. Jesus Saves 02:52
******************************
Total playing time: 1:11:29

[more=Extended info]Slayer 1986-11-28 The Concert Hall, Toronto, ON, Canada [audience recording] [BowlingRon Master)

Recorded by BowlingRon
Tape transfer and mastered by Navigator

Sony WM-DC3 with stock stereo microphone > Maxell XLII 90 cassette > Yamaha K720 > Edirol R-09 (44.1/16) > Adobe Audition 3 > CD Wave Editor (track splitting) > HAT (align sector boundaries, FLAC)

DO NOT ENCODE TO MP3

DO NOT SELL, TRADE FREELY[/more]

[more=Technical info]
Input File: Slayer_19861128_01.flac
Channels : 2
Sample Rate : 44100
Precision : 16-bit
Duration : 00:03:11.27 = 8434860 samples = 14345 CDDA sectors
File Size : 24.8M
Bit Rate : 1.04M
Sample Encoding: 16-bit FLAC

[/more]

Register
(14) BFM, BlackSwordMaster88, Carcharoth, cesar, Forcerecon1, hell_armageddon, Lux, Marek, Occultas, Pinhead666, recber, thenecromancer, Wail, wtk.412,

52 Pages V   1 2 3 > » 
- Lo-Fi Version Support form
Copyrights and abuse reports form
Time is now: 5th March 2024 - 15:44:28