Welcome Guest ( Log In | Register )

История благодарностей участнику canadaspaceman ::: Спасибо сказали: 3499 раз(а)
Дата поста: В теме: За сообщение: Спасибо сказали:
Nov 25 2021, 05:22:07 Beyond - Staircase [demo] (1989)
Beyond (Can) 1989 Staircase demo FLAC files
Size: 109 MB
Register

(3) Golfzilla, hell_armageddon, wreak,
Nov 25 2021, 05:21:50 Beyond - Framed Insanity [demo] (1988)
Beyond (Can) 1988 Framed Insanity Demo FLAC files
Size: 132 MB
Register
(3) Golfzilla, hell_armageddon, wreak,
Nov 25 2021, 05:13:11 Today Needed
QUOTE(Carcharoth @ Nov 23 2021, 13:54:38) *

Sturmtiger WAV uploaded
i will rip Heralds Of Pestilence too, i think i have mp3's, but mp3's are gay !
(2) Carcharoth, thenecromancer,
Nov 25 2021, 05:12:55 Sturmtiger - Tank Attack [ep] (2009)
Sturmtiger (Dnk) 2009 Tank Attack [7''Single] [WAV files]
Size: 88.3 MB
you get the needle drops and ticky tacky noise because why> because fuk you ! that's why!
https://www.metal-archives.com/bands/Sturmtiger/122416
https://www.metal-archives.com/albums/Sturm...k_Attack/233768
https://www.discogs.com/release/5327427-Stu...ger-Tank-Attack
Side A
1.Tank Attack [re-recorded, shorter version] 04:28
Side B
2.Conquest 4:08
Register
(4) Carcharoth, seal, thenecromancer, wreak,
Nov 22 2021, 20:55:06 Metallica - ...And Justice For All (1988)
1/2 this album still sucks since I heard it when released.
You only need:
Blackened
...and Justice for All
Eye of the Beholder
The Shortest Straw
Dyers Eve

https://www.youtube.com/watch?v=zkBbYGwEL1U

https://www.youtube.com/watch?v=8BdlP8e5Nvg
(1) Ainar,
Nov 21 2021, 17:49:38 Today Needed
QUOTE(Carcharoth @ Nov 20 2021, 13:54:28) *

I have the record, I will rip it sometime this week.
(3) Carcharoth, Occultas, thenecromancer,
Nov 21 2021, 07:17:27 Morbid Ceremony - The Evil That Lays In The Dark [demo] (2010)


*Artist: Morbid Ceremony
*Album: The Evil That Lays In The Dark [demo]
*Year: 2010
*Genre: Black Metal
*Country: Canada
*Format: wv
*Size: 136MB

Tracklist:
1. My Master in the Shadows 05:08
2. The Evil That Lays in the Dark 04:27
3. Altar of Abomination 03:47
******************************
Total playing time: 13:22

[more=Extended info]tape rip by canadaspaceman for heavymetalrarities.com

WAV files

Label: Cocainacopia – none
Limited to 200 hand-numbered copies

(but mine is probably a dubbed copy from the SFM distro & label)
https://www.metal-archives.com/labels/Skull_Fucking_Metal/1121

https://www.discogs.com/release/2421228-Morbid-Ceremony-The-Evil-That-Lays-In-The-Dark

https://www.metal-archives.com/albums/Morbid_Ceremony/The_Evil_That_Lays_in_the_Dark/264129

Lord Shatanas Whorebanger - Vocals [ex-Crucifixxx Sodomy]
Lord of Depravity - Guitars
Spiros - Drums [ex-Horde of Worms, ex-Immortally Deceased (live)]

Paul E. Pervertis - Bass [Dawn of Svarogh, Twilight Hammer, Visions of the Night (live), Demontage, ex-Svolder, ex-Protokult (live), ex-Feral Horde, ex-Mäniac, ex-Apokalyptik Warrior]

https://www.youtube.com/watch?v=Fwo6ZI4je1g[/more]

Register
(2) stormhatt, wreak,
Nov 21 2021, 00:30:29 Godcorp. - Back To Godhead [demo] (1987)


*Artist: Godcorp.
*Album: Back To Godhead [demo]
*Year: 1987
*Genre: Crossover Thrash Metal/Hardcore Punk
*Country: Canada
*Format: mp3@CBR320kbps
*Size: 71MB

Tracklist:
1. Man with porridge function 2:18
2. Untitled-broken mind 5:30
3. Priests of profit 2:53
4. Killing death & mutilation 2:37
5. Mask 2:14
6. Case study 4:08
7. Trial by fire 2:23
8. Serve & protect 3:02
9. Howl 5:15
******************************
Total playing time: 30:20

[more=Extended info]Godcorp.
Country: Canada (Toronto, Ontario)

Thanks to the uploader, outoftheigloo.blogspot.com

https://www.discogs.com/artist/3776025-Godcorp

I added flyers, interview, etc. I found on discogs and equalizingxdistort.blogspot.

interview with the singer Tony Meany.
http://equalizingxdistort.blogspot.com/2010/01/sunday-january-10-2010.html
https://archive.org/details/EXD-10-01-10[/more]

[more=Technical info]
Input File: God Corp_02 untitled-broken mind.MP3
Channels : 2
Sample Rate : 44100
Precision : 16-bit
Duration : 00:05:30.79 = 14587751 samples = 24809.1 CDDA sectors
File Size : 13.2M
Bit Rate : 320k
Sample Encoding: MPEG audio (layer I, II or III)

[/more]

Register
(8) after21allD, artscald, cast_iron, hell_armageddon, metala, Olethros, stumpheavyrock, wgs73,
Nov 20 2021, 23:21:41 Beki Bond - Demo [demo] (1988)


*Artist: Beki Bond
*Album: Demo [demo]
*Year: 1988
*Genre: Hard Rock/Heavy Metal
*Country: United Kingdom
*Format: mp3@CBR192kbps
*Size: 36MB

Tracklist:
1.America 03:50
2.Amazon 04:50
3.Make My Day 03:20
4.Lonely Secrets 03:46
5.Perfect Timing 03:15
6.Vanity 03:40
7.Blind Ambition 04:10
******************************
Total playing time: 26:51

[more=Extended info]Thanks to the original uploader.

Beki Bond, aka Beki Bondage, singer from punk band VICE SQUAD

Release: Demo 1987-1988
Country: UK (England)
https://en.wikipedia.org/wiki/Beki_Bondage

https://www.youtube.com/watch?v=RknS_dQ1eic[/more]

[more=Technical info]
Input File: 1.America.mp3
Channels : 1
Sample Rate : 32000
Precision : 16-bit
Duration : 00:03:50.08 = 7362592 samples ~ 17256.1 CDDA sectors
File Size : 5.52M
Bit Rate : 192k
Sample Encoding: MPEG audio (layer I, II or III)

[/more]

Register
(6) Carcharoth, chipsgott, Marek, Olethros, stumpheavyrock, wgs73,
Nov 20 2021, 19:20:03 Iron Fist & Hard Charger - Battle Axe/Untitled [7" Ep [split] (2008)


*Artist: Iron Fist & Hard Charger
*Album: Battle Axe/Untitled [7" Ep [split]
*Year: 2008
*Genre: Doom/Stoner Metal/Crust/Thrash | Crust´n´roll-Hardcore Punk
*Country: Canada | Canada
*Format: mp3@CBR320kbps
*Size: 30MB

Tracklist:
Iron Fist
1. Battle Axe 04:33
2. Sword Master 02:04

Hard Charger
3. Fuckers Gonna Pay 01:38
4. Final Failure 01:00
5. Hard Charger Death Stomp 01:20
6. Hippicide 01:49
******************************
Total playing time: 12:24

[more=Extended info]vinyl rip by canadaspaceman

https://www.discogs.com/release/2082163-Iron-Fist-5-Hard-Charger-Battle-Axe-Untitled
Label: Capital Kill Records – CKP-05
Released: Aug 2008

Pressed By – United Record Pressing – U-61895M
Artwork [Both Sides] – Pete Diamond (2)

Performer [Hard Charger Is] – Dave (109) (tracks: B1 to B4), Tery (2) (tracks: B1 to B4), Tom Blizzard (tracks: B1 to B4)

Performer [Iron Fist] – Dave (109) (tracks: A1, A2), JD (15) (tracks: A1, A2), Tom* (tracks: A1, A2)
Written-By, Recorded By – Hard Charger (tracks: B1 to B4)

Hard Charger: Written and record 2008.[/more]

[more=Technical info]
Input File: A2 Iron Fist – Sword Master.mp3
Channels : 2
Sample Rate : 48000
Precision : 16-bit
Duration : 00:02:04.10 = 5956992 samples ~ 9307.8 CDDA sectors
File Size : 5.18M
Bit Rate : 334k
Sample Encoding: MPEG audio (layer I, II or III)
Comments :
Artist=Iron Fist (Can)
Album=Battle Axe / Untitled [7" EP]
Year=2008
Genre=Doom/Stoner Metal/Crust/Thrash

[/more]

Register
(6) artscald, caro, hell_armageddon, julianotidre, varlam4, wreak,
Nov 20 2021, 19:03:33 Life After Death - Life After Death (1996)
https://youtu.be/tocckAqt0YQ

[youtube]https://www.youtube.com/watch?v=tocckAqt0YQ[/youtube]

Bitrate: FLAC files 40 minutes 1 second
Size: 344 MB
Register

Bitrate: .ape file + .cue file, CD scans included. 40:06 minutes
Size: 302 MB
Register

I split the (.ape) file into seperate FLAC files.
You're welcome.
Thanks to the original ripper & uploader for the .ape Lossless file.

Life After Death - Life After Death (1996) Rising Sun Productions, 352813, USA
https://www.metal-archives.com/bands/Life_After_Death/1647
https://www.discogs.com/artist/628109-Life-After-Death
Jack Emrick - Vocals [ Four Star Revival, ex-Daisy Mayhem, ex-Forever ]
Ray "Geezer" Burke - Bass [ ex-Forever, ex-Rob Rock, ex-Warrior]
Terry Williams - Guitars
Phil Sandoval - Guitars [ Armored Saint, ex-Royal Decree ]
Gonzo Sandoval - Drums [ Armored Saint, ex-Helizer, ex-MX Machine, ex-Royal Decree ]

"Founded by Phil and Gonzo Sandoval after Armored Saint broke up in the early 90s."

single ape file for the album
what is an .ape file? -> https://en.wikipedia.org/wiki/Monkey%27s_Audio
It will play on some media players like VLC http://www.videolan.org/vlc/

40 minutes 1 second
1. Tagger (2:59)
2. Hard Time (4:37)
3. Red Light (4:20)
4. My Life (3:53)
5. Borrowed Time (4:04)
6. Life After Death [instrumental] (2:33)
7. Mother (3:59)
8. Home Grown (3:39)
9. Love & Destruction (4:01)
10. Don't Believe a Word (Thin Lizzy cover) (2:18)
11. Sunshine of Your Love (Cream cover) (3:38)
(1) thenecromancer,
Nov 20 2021, 16:38:09 Various Artists - 10 Ways To Split Thy Skull [compilation] (2004)


*Artist: Various Artists
*Album: 10 Ways To Split Thy Skull [compilation]
*Year: 2004
*Genre: Death Metal/Grindcore
*Country: Many
*Format: mp3@CBR320kbps
*Size: 373MB

Tracklist:
Detrimentum (Great Britain)
1. The First Three Circles Of Hell 05:21
2. Spell Of Miserable Incantation 04:37
3. Scales To Measure The Misfortune Of Man 04:27

Serrated Scalpel (Canada)
4. Tearing The Wings 03:23
5. The Cut Of The Sickle 04:52
6. Teeming Gallows 03:31

Godless (Greece)
7. Exo I Hristiani 05:00
8. Harvest Of The Meek 03:32
9. Silent Night 03:53

Ulcerate (New Zealand)
10. Subversive Supremacy[From the Self-titled demo] 02:38
11. Unhallowed Ascension 03:17
12. Scorn The Dethroned 03:48
13. Poison And Blood [Live Track] 02:31

Myndsnare (India)
14. The Mirror Of Nothingness 06:02
15. Layers Of Hypocrisy 06:08
16. Seeking The Maze 05:36

Misery (Australia)
1. Immortal 03:21
2. Consummate The Virgin 02:11
3. Two Faced 02:59
4. Blood Of Ancients [New track] 01:57

Terminal Descent (USA)
5. I Of One Am Many 05:03
6. Mana Shukultu 04:41
7. "That Which Serves Condemns" 04:17

Ingurgitating Oblivion (Germany)
8. Veil Of Perception 04:51
9. Poetry Of The Flesh 06:01
10. Deconstructed Creature 05:30

Ascendancy (USA)
11. Darkness Within 01:27
12. Evisceral Battery 02:56
13. Forever Desensitized 05:17
14. My Blood Upon You 02:38
15. No Fear With A Deathwish 02:55

Raspatul (Singapore)
16. The Perfect Realm Of Jharkyannarkh [New track] 04:40
17. Intense Madness Intro/Breaking 05:56
18. Mehghitung Ajal 04:11
******************************
Total playing time: 2:19:27

[more=Extended info]double CD-R rip by canadaspaceman

https://www.musik-sammler.de/release/10-ways-to-split-thy-skull-2-demo-cd-446491/

https://www.musik-sammler.de/album/10-ways-to-split-thy-skull-320266/

www.ingurgitating-oblivion.de

Ascendancy (USA) Death Metal “Rise of a Dead Empire” CD
Detrimentum (Great Britain) Brutal Death Metal “A Monument to the Suffering” MCD
Godless (Greece) Death Metal “Exo i Hristiani” session
Ingurgitating Oblivion (Germany)Technical Death Metal “Poetry of the Flesh” MCD
Misery (Australia) Death Metal “Curses” CD
Myndsnare (India) Progressive Thrash/Death Metal “A Preliminary Quest” demo
Raspatul (Singapore) Death/Thrash Metal “Mehghitung Ajal” MCD
Serrated Scalpel (Canada) Death Metal Pre-production demo for upcoming album
Terminal Descent (USA) Progressive Death/Thrash Metal “Mana Shukultu” Ep
Ulcerate (New Zealand) Avant-garde Death Metal “The Coming of Genocide” demo

"This 10 way double split CDR is a promotional cooperation between 10 bands.
It was organized by GODLESS, RASPATUL, and TERMINAL DESCENT.
CRUCIFIRE (ex-ENCABULOS) from Australia found for us MISERY.

We chosed nice bands in order for this to spread of course, so this is not a compilation ,this is a strict selection of bands,I ts not like paying for booking space in a CD and getting a few copies to sell your self .we provide approximately 14 minutes of music from each band so you can make a better opinion on them that from just one song. This split will possibly cover all underground death metal tastes, from old school thrashing, to twisted or majestic melody and modern dry or dark brutality. From simple and to extremely complicated. From New Zealand to Canada.

I can already see some people bitching about the sound production of some of the bands here. The production was not among the criteria of our selections.
The cover was designed by ANDREW PARRISH."
[/more]

[more=Technical info]
Input File: 02 Consummate The Virgin.mp3
Channels : 2
Sample Rate : 44100
Precision : 16-bit
Duration : 00:02:11.19 = 5785655 samples = 9839.55 CDDA sectors
File Size : 5.65M
Bit Rate : 345k
Sample Encoding: MPEG audio (layer I, II or III)
Comments :
Title=Consummate The Virgin
Artist=Misery (Australia)
Album=10 Ways To Split Thy Skull cd 2
Tracknumber=2/19
Year=2004
Genre=Death Metal
Discnumber=1/1

[/more]

Register
(6) Carcharoth, caro, Hell_Is_Here, julianotidre, varlam4, wreak,
Nov 20 2021, 16:20:10 Electro Hippies - Live In Liverpool, Uk 1985-07-Xx [bootleg] (1985)


*Artist: Electro Hippies
*Album: Live In Liverpool, Uk 1985-07-Xx [bootleg]
*Year: 1985
*Genre: Grindcore/Crust Punk
*Country: United Kingdom
*Format: flac
*Size: 14MB

Tracklist:
1. Am i Punk Yet 01:26
2. Next Time 01:01
******************************
Total playing time: 2:27

[more=Extended info]https://www.discogs.com/artist/251840-Electro-Hippies

https://en.wikipedia.org/wiki/Electro_Hippies

Thanks to the original ripper and uploader, e.v.a.18

"probably their first show, Very raw recording only for big fans or complette set!!!!!"[/more]

Register
(3) FUDEDOR, kefka, wreak,
Nov 18 2021, 23:31:42 Fueled By Fire - Life, Death And FBF [demo] (2005)
found on web
Fueled By Fire 2005 Life, Death And FBF Demo [128]
17.5 MB
https://infernal-overkill.blogspot.com/2008...d-fbf-2005.html
Register
(1) Wail,
Nov 18 2021, 21:14:22 Death Mask - Split The Atom (1986)
Death Mask 1986 Split the Atom [WAV strappado's second rip]
392 MB
Register



(1) Wail,
Nov 18 2021, 20:49:49 Today Needed
QUOTE(Occultas @ Nov 18 2021, 14:18:30) *


uploaded Wormphlegm (Fin) 2001 Demo [192] rip by X916y0.z KOMMANDER
Wormphlegm - In An Excruciating Way... [demo] (2001) [post #2628216]

uploaded VBR Wormphlegm - Tomb Of The Ancient King (2006) [post #2628088]
(2) Occultas, thenecromancer,
Nov 18 2021, 20:46:59 Wormphlegm - In An Excruciating Way... [demo] (2001)
Wormphlegm (Fin) 2001 Demo [192] rip by X916y0.z KOMMANDER
size: 44.1 MB
Wormphlegm - - In An Excruciating Way - In An Excruciating Way Infested With Vermin (32:07)
https://www.metal-archives.com/bands/Wormphlegm/14424
Register
(3) Occultas, thenecromancer, wreak,
Nov 18 2021, 20:42:32 Cancer - Rehearsal 12.12.1990 [bootleg] (1990)
Cancer (UK) 1990-12-12 Rehearsal- Refusal @128
Size: 12.7 MB
Thanks to the original ripper and uploader.
https://www.metal-archives.com/bands/Cancer/695
https://www.discogs.com/artist/254704-Cancer-3
13 minutes 47 seconds
1. Gruesome Tasks (4:12)
2. Die Die (4:31)
3. Imminent Catastrophy (5:04)
Register
(2) kimkayoung, thenecromancer,
Nov 18 2021, 15:14:17 Wormphlegm - Tomb Of The Ancient King (2006)
QUOTE(Occultas @ Nov 18 2021, 14:18:55) *
reup VBR version thanks,

VBR
size: 103 MB
Register
(3) Occultas, thenecromancer, wreak,
Nov 15 2021, 10:01:25 Ozzy Osbourne - No Rest For The Wicked (1988)
QUOTE(babanguida @ Feb 26 2019, 20:02:25) *
underrated masterpiece 9.gif

agreed ! 9.gif
(2) babanguida, thenecromancer,
Nov 15 2021, 09:59:26 Winterstorm - Demo 2009 [7" Vinyl] [ep] (2010)


*Artist: Winterstorm
*Album: Demo 2009 [7" Vinyl] [ep]
*Year: 2010
*Genre: Black/Thrash Metal/Punk
*Country: Spain
*Format: mp3@CBR224kbps
*Size: 11MB

Tracklist:
1. I'm the Winterstorm 02:23
2. Satanic Assault 01:10
3. Wicked Night 01:16
4. Knife Party, Church On Fire 01:33
******************************
Total playing time: 6:22

[more=Extended info]vinyl rip by canadaspaceman

Country: Spain (Telde, Canary Islands)

https://www.discogs.com/release/4132931-Winterstorm-Demo-2009

Status: Split-up
Formed in: 2009
Lyrical themes: Satan
Last label: Stomp Records
Years active: 2009-?

Type: EP
Release date: March 20th, 2010
Catalog ID: Stomp #003
Label: Stomp Records
Limitation: 300 copies

https://www.metal-archives.com/bands/Winterstorm/3540316003

J.R. - All instruments, Vocals, Recording, Mixing



Not to be confused with Winterstorm from Seville, Andalusia (Spain). https://www.metal-archives.com/bands/Winterstorm/107223[/more]

[more=Technical info]
Input File: 2. Satanic Assault.mp3
Channels : 2
Sample Rate : 44100
Precision : 16-bit
Duration : 00:01:10.19 = 3095511 samples = 5264.47 CDDA sectors
File Size : 2.07M
Bit Rate : 236k
Sample Encoding: MPEG audio (layer I, II or III)
Comments :
Artist=Winterstorm
Album=Demo 2009 [7" EP]
Year=2010
Genre=Black/Thrash Metal/Punk

[/more]

Register
(13) artscald, caro, Cramloth, dermarsoran, julianotidre, METALHUNTER, Olethros, stormhatt, stumpheavyrock, varlam4, Wail, wgs73, wreak,
Nov 15 2021, 09:55:28 Common Enemy - Let's Have Fun! [7 Inch] [ep] (2006)


*Artist: Common Enemy
*Album: Let's Have Fun! [7 Inch] [ep]
*Year: 2006
*Genre: Skate Thrash/Crossover/Hardcore/Punk
*Country: United States
*Format: mp3@CBR224kbps
*Size: 14MB

Tracklist:
1. I Give Up 01:08
2. Skate Of The Dead 00:59
3. Let's Have Fun 01:30
4. Truck To The Head 00:22
5. One Up 01:28
6. Park Scabs & Ramp Tramps 01:18
7. Dead Walking 01:10
******************************
Total playing time: 7:55

[more=Extended info]vinyl rip by canadaspaceman

https://www.spirit-of-metal.com/en/band/Common_Enemy

https://www.spirit-of-metal.com/en/discography/Common_Enemy/1

Vocals [Sore Throat] – Sonic
Guitar, Backing Vocals – Justin Enemy
Bass, Backing Vocals – Greg Disorder
Drums [Beat Box] – Tank

Label: Sick Of Talk Records – SOT013

"Limited edition of 400 copies on black vinyl, hand numbered on label. limited edition colored vinyl versions and hand colored sleeves also available,stickers with most copies" (but no sticker with MY copy ! - cs)

https://www.discogs.com/release/3896677-Common-Enemy-Lets-Have-Fun[/more]

[more=Technical info]
Input File: B1 One Up.mp3
Channels : 2
Sample Rate : 44100
Precision : 16-bit
Duration : 00:01:28.07 = 3883711 samples = 6604.95 CDDA sectors
File Size : 2.63M
Bit Rate : 239k
Sample Encoding: MPEG audio (layer I, II or III)
Comments :
Artist=Common Enemy
Album=Let's Have Fun! [EP]
Year=2006
Genre=Skate Thrash/Crossover/Hardcore/Punk

[/more]

Register
(11) artscald, caro, chipsgott, gwar, julianotidre, METALHUNTER, Olethros, varlam4, Wail, wgs73, wreak,
Nov 15 2021, 09:50:03 The Rotted - Apathy In The Uk [7 Inch] [single] (2011)


*Artist: The Rotted
*Album: Apathy In The Uk [7 Inch] [single]
*Year: 2011
*Genre: Death Metal/Punk/Rock & Roll
*Country: United Kingdom
*Format: mp3@CBR224kbps
*Size: 14MB

Tracklist:
1. Apathy in the UK 02:27
2. Iron Fist (Motörhead cover)0 3:03
3. Drink Myself To Death 03:38
******************************
Total playing time: 9:08

[more=Extended info]vinyl rip by canadaspaceman

Artist: The Rotted [ex-Gorerotted]
Country: UK (London, England)

https://www.discogs.com/master/403258-The-Rotted-Apathy-In-The-UK

Release: Apathy In The UK (7"single, Limited Edition, white vinyl) (2011) (33 rpm)
Label: Hammerheart Records – HHR2011-26, Hammerheart Records – HHR2011-25 (Netherlands)

A1 taken from the "Ad Nauseam" album.

A2
and
Side B taken from the "Anarchogram" EP.

First catalog # appears on run-out groove, second on cover.
The back cover mistakenly lists the catalog# as HHR2011-25.

https://en.wikipedia.org/wiki/The_Rotted

https://www.metal-archives.com/bands/The_Rotted/3540256794

The band played their final gig at Wrongstock in London on September 20, 2014.[/more]

[more=Technical info]
Input File: 1. Apathy in the UK.mp3
Channels : 2
Sample Rate : 44100
Precision : 16-bit
Duration : 00:02:27.83 = 6519391 samples = 11087.4 CDDA sectors
File Size : 4.14M
Bit Rate : 224k
Sample Encoding: MPEG audio (layer I, II or III)
Comments :
Artist=The Rotted [ex-Gorerotted]
Album=Apathy In The UK [7" single]
Tracknumber=1
Year=2011
Genre=Death Metal/Punk/Rock & Roll

[/more]

Register
(12) artscald, caro, chipsgott, comradEnemy, julianotidre, LightWizard, Olethros, spazm, thenecromancer, varlam4, Wail, wreak,
Nov 15 2021, 09:45:20 Winterstorm - Demo 2009 [7" Vinyl] [ep] (2010)


*Artist: Winterstorm
*Album: Demo 2009 [7" Vinyl] [ep]
*Year: 2010
*Genre: Black/Thrash Metal/Punk
*Country: Spain
*Format: mp3@CBR224kbps
*Size: 11MB

Tracklist:
1. I'm the Winterstorm 02:23
2. Satanic Assault 01:10
3. Wicked Night 01:16
4. Knife Party, Church On Fire 01:33
******************************
Total playing time: 6:22

[more=Extended info]vinyl rip by canadaspaceman

Country: Spain (Telde, Canary Islands)
https://www.discogs.com/release/4132931-Winterstorm-Demo-2009

Status: Split-up
Formed in: 2009
Lyrical themes: Satan
Last label: Stomp Records
Years active: 2009-?

Type: EP
Release date: March 20th, 2010
Catalog ID: Stomp #003
Label: Stomp Records
Limitation: 300 copies

https://www.metal-archives.com/bands/Winterstorm/3540316003

J.R. - All instruments, Vocals, Recording, Mixing



Not to be confused with Winterstorm from Seville, Andalusia (Spain).
https://www.metal-archives.com/bands/Winterstorm/107223[/more]

[more=Technical info]
Input File: 4. Knife Party, Church On Fire.mp3
Channels : 2
Sample Rate : 44100
Precision : 16-bit
Duration : 00:01:33.57 = 4126613 samples = 7018.05 CDDA sectors
File Size : 2.72M
Bit Rate : 233k
Sample Encoding: MPEG audio (layer I, II or III)
Comments :
Artist=Winterstorm
Album=Demo 2009 [7" EP]
Year=2010
Genre=Black/Thrash Metal/Punk

[/more]

Register
(11) artscald, caro, dermarsoran, LightWizard, METALHUNTER, Olethros, Reverend, stumpheavyrock, Wail, wgs73, wreak,
Nov 15 2021, 09:14:42 Death Militia - Noise Agony Mayhem [single] (2007)
new rip
Death Militia (Can) - Noise Agony Mayhem [Single] (2007)
Bitrate: WAV files
Size: 63.2 MB
scans included
Register
(3) thenecromancer, wreak, Xtohar,

31 Pages V   1 2 3 > » 
- Lo-Fi Version Support form
Copyrights and abuse reports form
Time is now: 29th November 2021 - 07:22:38