Welcome Guest ( Log In | Register )

История благодарностей участнику canadaspaceman ::: Спасибо сказали: 2227 раз(а)
Дата поста: В теме: За сообщение: Спасибо сказали:
Oct 25 2020, 21:10:51 Spewgore - Friday The 13Th Of March [bootleg] (2009)


*Artist: Spewgore
*Album: Friday The 13Th Of March [bootleg]
*Year: 2009
*Genre: Thrash Metal
*Country: Canada
*Format: mp3@CBR160kbps
*Size: 32MB

Tracklist:
1. You'll Never Learn 03:30
2. Loose Cannon 01:38
3. Self Perceived Image 01:47
4. Knuckle Sandwich 02:53
5. Idiots Rule 02:52
6. The Ride 02:34
7. Fool Me Once 02:45
8. Powertrip 02:29
9. Guts and the Gory 02:58
10. I Own You 01:59
11. Everything Hates Me 03:04
******************************
Total playing time: 28:29

[more=Extended info]Canada (Brampton, Ontario)

audience recording by mlotek

https://www.metal-archives.com/bands/Spewgore/89705
https://www.spirit-of-metal.com/en/band/Spewgore
https://www.discogs.com/artist/1405351-Spewgore

https://myspace.com/spewgore


https://twitter.com/spewgore?lang=en[/more]

[more=Technical info]
Input File: 02.Loose Cannon.mp3
Channels : 2
Sample Rate : 44100
Precision : 16-bit
Duration : 00:01:38.54 = 4345658 samples = 7390.57 CDDA sectors
File Size : 2.06M
Bit Rate : 167k
Sample Encoding: MPEG audio (layer I, II or III)
Comments :
Title=Loose Cannon
Artist=Spewgore
Album=FridayThe13th,March2009
Tracknumber=2
Year=2009
Genre=Thrash Metal

[/more]

Register
(4) infiltrator, Olethros, stumpheavyrock, thenecromancer,
Oct 19 2020, 21:10:21 Massacration - Gates Of Metal Fried Chicken Of Death (2005)


Massacration (Bra) - The Gates Of Metal Fried Chicken Of Death (2005)
Genre: Heavy Metal
Country: Brazil (Rio de Janeiro)
https://www.metal-archives.com/bands/Massacration/52303
Thanks to the original ripper and uploaders.

"Massacration was a satiric band created by a TV Show from MTV Brazil, whose songs were written predominantly in English, but contained messed up words derived from Portuguese in a way one would have to speak both languages to understand their meanings."

128 kbps
Size: 42.6 MB
Register

VBR
Size: 75.9 MB
Register

.ogg Lossless (1411 kbps)
Size: 32.0 MB
Register


(1) thenecromancer,
Oct 11 2020, 20:48:15 Militia - Cameo Theatre, San Antonio, Texas [bootleg] (1985)


*Artist: Militia
*Album: Cameo Theatre, San Antonio, Texas [bootleg]
*Year: 1985
*Genre: Thrash/Speed/Power Metal
*Country: United States
*Format: mp3@CBR160kbps
*Size: 52MB

Tracklist:
1. Militia(US - Texas) - Live,Camdeo Theatre - San Antonio´28.09.85 45:58
******************************
Total playing time: 45:58

[more=Extended info]Thanks to the original ripper and uploader.

More than likely this is Sonicbludgeon's rip.

https://www.metal-archives.com/bands/Militia/1804

Vocals - Mike Soliz
Guitar - Tony Smith
Bass - Robert Willingham
Drums - Phil Achee

The Cameo Theater, September 28th, 1985.
The show was produced by The Unholy Book, a South Texas metal magazine.
Watchtower, Militia, Morbid Termination, Death Tripper.[/more]

[more=Technical info]
Input File: Militia(US - Texas) - Live,Camdeo Theatre - San Antonio`28.09.85.mp3
Channels : 2
Sample Rate : 44100
Precision : 16-bit
Duration : 00:45:58.38 = 121644338 samples = 206878 CDDA sectors
File Size : 55.2M
Bit Rate : 160k
Sample Encoding: MPEG audio (layer I, II or III)
Comments :
Title=Militia(US - Texas) - Live,Camdeo Theatre - San Antonio`28.09.85
Artist=
Album=
Tracknumber=1
Genre=Other

[/more]

Register
(7) after21allD, infiltrator, Oldskulthrasher, Olethros, randumbum, Rosen, Wail,
Oct 11 2020, 17:11:15 David Zaffiro - Surrender Absolute (1992)


*Artist: David Zaffiro
*Album: Surrender Absolute
*Year: 1992
*Genre: Hard Rock/Aor
*Country: United States
*Format: flac
*Size: 309MB

Tracklist:
1. Find My Way 04:05
2. To The Heavens 04:16
3. Carousel 04:17
4. Silas And Serai 05:18
5. In A Box 04:06
6. Attitude 03:58
7. Calling Out To Me 04:50
8. Surrender Absolute 04:00
9. Every Little Thing 04:20
10. No Long Goodbyes 05:03
******************************
Total playing time: 44:13

[more=Extended info]Cassette Album tape rip

third solo album by ex-Bloodgood guitarist

Label: Frontline Records – FLC9421

https://www.discogs.com/David-Zaffiro-Surrender-Absolute/release/7624492

https://en.wikipedia.org/wiki/David_Zaffiro[/more]

Register
(3) infiltrator, MrSatanislav, Olethros,
Oct 9 2020, 15:35:46 Blackglama - So Slick It Hurts (1989)


*Artist: Blackglama
*Album: So Slick It Hurts
*Year: 1989
*Genre: Hard Rock/Glam Metal
*Country: Canada
*Format: mp3@CBR320kbps
*Size: 54MB

Tracklist:
1. Guru Of Love 03:39
2. Blues From An Angel 03:11
3. Chronic Symptom 04:27
4. Playin' Hardball (With The Big Boys) 03:15
5. Poor Boy 03:58
6. Loser In Love 04:24
******************************
Total playing time: 22:54

[more=Extended info]"Basic LA sleaze glam leaning towards Zodiac Mindwarp".
For fans of bands like L.A. Guns, Faster Pussycat, etc

Thanks to the original uploader, skar.

https://www.discogs.com/Blackglama-So-SLick-It-Hurts/release/3662155

Vocals,Harmonica - K.C.
Bass – Charli Azidparti
Guitar – Paul Bishop
Drums, Piano – Steve (Lord Snake) G[/more]

[more=Technical info]
Input File: 01 - guru of love.mp3
Channels : 2
Sample Rate : 48000
Precision : 16-bit
Duration : 00:03:39.29 = 10525968 samples ~ 16446.8 CDDA sectors
File Size : 8.77M
Bit Rate : 320k
Sample Encoding: MPEG audio (layer I, II or III)
Comments :
Title=guru of love
Artist=blackglama
Album=so slick it hurts
Tracknumber=01
Year=1989

[/more]

Register
(3) after21allD, infiltrator, Olethros,
Oct 7 2020, 21:36:06 Violent Attack - Violent Attack Live [live] (2006)


*Artist: Violent Attack
*Album: Violent Attack Live [live]
*Year: 2006
*Genre: Thrash Metal
*Country: Paraguay
*Format: mp3@CBR320kbps
*Size: 104MB

Tracklist:
Side A
1. Thrashing with Hate 03:22
2. Destruction and Death 04:17
3. M.A.B. 03:30
4. Nuclear Crossfire 04:42
5. Troops of Doom (Sepultura cover) 03:33
6. Massacra (Hellhammer cover) 02:35
Side B
7. Violent Attack 05:42
8. When the Barbarity Reigned 04:22
9. Brain Dead 04:25
10. They Shall Pay 03:16
11. Dead City (Violent Force cover) 03:58
******************************
Total playing time: 43:42

[more=Extended info]Song 1-5: Live, December 25, 2004
Song 6: Rehearsal 2003 (bonus)
Song 7-11: Live 2002

For fans into rough/dirty thrash metal,
eg. SODOM (In the Sign of Evil, Obsessed by Cruelty), DESTRUCTION (Sentence of Death, Infernal Overkill), KREATOR (Endless Pain), SEPULTURA (Bestial Devastation), etc.

Release date: September 2006
Catalog ID: KV-R 013
Limited edition, Hand-numered, 500 Cassette copies
Label: Kuravilú Productions

tape rip by me

NO audio cleaning used, and tape hiss can be heard.
Don't like that? then fuck off.
Not for wimps

https://www.metal-archives.com/albums/Violent_Attack/Violent_Attack/139719

https://www.discogs.com/Violent-Attack-Live/release/5853574[/more]

[more=Technical info]
Input File: 01. Thrashing with Hate.mp3
Channels : 2
Sample Rate : 44100
Precision : 16-bit
Duration : 00:03:22.62 = 8935366 samples = 15196.2 CDDA sectors
File Size : 8.36M
Bit Rate : 330k
Sample Encoding: MPEG audio (layer I, II or III)
Comments :
Title=Thrashing with Hate
Artist=Violent Attack (Paraguay)
Album=Live Album
Tracknumber=1
Year=2006
Genre=Thrash Metal

[/more]

Register
(7) infiltrator, Niknne, Olethros, rebornflms95, Rosen, Wail, wreak,
Oct 7 2020, 12:40:38 Tygers Of Pan Tang - Unreleased Album Demos [demo] (1983)


*Artist: Tygers Of Pan Tang
*Album: Unreleased Album Demos [demo]
*Year: 1983
*Genre: Nwobhm
*Country: United Kingdom
*Format: mp3@CBR320kbps
*Size: 85MB

Tracklist:
1. With You 03:36
2. Square One 04:54
3. Travel the World 03:41
4. Darkest Cloud 05:03
5. Time Files 03:43
6. Real Life 03:42
7. Samurai 03:03
8. Fake Diamonds 03:38
9. Answers 03:41
******************************
Total playing time: 35:01

[more=Extended info]Ripped and originally uploaded by Daysbetween of heavymetalrarities, thanks a lot!

Demos recorded for unreleased 5th album just before band split.
All songs unreleased elsewhere.

Jon Deverill Vocals
Fred Purser - Guitar + Keyboards
Robb Weir - Guitar
Rocky - Bass
Brian Dick - Drums[/more]

[more=Technical info]
Input File: 01. With You.mp3
Channels : 2
Sample Rate : 44100
Precision : 16-bit
Duration : 00:03:36.51 = 9548267 samples = 16238.5 CDDA sectors
File Size : 8.66M
Bit Rate : 320k
Sample Encoding: MPEG audio (layer I, II or III)
Comments :
Title=With You
Artist=Tygers Of Pan Tang
Album=Unreleased Album Demos
Year=1983

[/more]

Register
(8) infiltrator, Olethros, Rosen, stumpheavyrock, tireheb, vaalkoth, Wail, wreak,
Oct 3 2020, 18:07:20 Michael White - The White (1990)


*Artist: Michael White
*Album: The White
*Year: 1990
*Genre: Hard Rock/Bluesy Rock
*Country: United States
*Format: mp3@CBR320kbps
*Size: 116MB

Tracklist:
1. Swampsnake 05:15
2. The Stroll 03:01
3. China Blue 03:36
4. Communication Breakdown 04:12
5. Tennessee 03:10
6. Baby Let's Play House 02:23
7. The X 04:00
8. Satisfaction Man 02:37
9. Fire 03:06
10. The Whisky Song 04:08
11. Ooh My Head 04:00
12. Whole Lotta Love 10:47
******************************
Total playing time: 50:15

[more=Extended info]Thanks to the original uploader, eggnish from Heavy Metal Rarities.

Led Zeppelin - type clone band / Bluesy Rock
second album from Robert Plant influenced Vocalist

https://en.wikipedia.org/wiki/Michael_White_%26_The_White

Line Up:
Michael White - Vocals, Harmonica, Keyboards, Guitars
Phil Bolene - Acoustic & Electric Guitars, Mandolin
Gene Stout - Bass Guitar
Danny Bilan - Drums[/more]

[more=Technical info]
Input File: 07 Michael White - The X.mp3
Channels : 2
Sample Rate : 44100
Precision : 16-bit
Duration : 00:04:01.02 = 10628938 samples = 18076.4 CDDA sectors
File Size : 9.64M
Bit Rate : 320k
Sample Encoding: MPEG audio (layer I, II or III)
Comments :
Title=The X
Artist=Michael White
Album=Michael White & The White
Tracknumber=7/12
Year=1990
Genre=Hard Rock
Discnumber=1/1

[/more]

Register
(4) Diflock, infiltrator, marilin, Olethros,
Oct 3 2020, 17:31:09 Santa Claus - Rocks In Your Stocking [demo] (1988)
Santa Claus (US) Demo 88 Rocks in Your Stocking @320
Size: 98.9 MB
42 minutes 45 seconds
Thanks to the original uploader.
Register

(1) Wail,
Oct 3 2020, 16:48:03 Various Artists - Florida Explosion [compilation] (1985)


*Artist: Various Artists
*Album: Florida Explosion [compilation]
*Year: 1985
*Genre: Heavy Metal/Punk
*Country: United States
*Format: mp3@CBR128kbps
*Size: 83MB

Tracklist:
1. Disorderly Conduct - All Talk 02:29
2. Rock City Angels - Pit Bull 03:05
3. Amazing Grace - White Dollar 02:57
4. Crank - Endless Sky 03:50
5. Cryer - Getting Back 02:47
6. Nobody's Heroes - Johnny Left Home 02:23
7. We the Living - Shamada 02:35
8. RBT - War Games 03:44
9. Sector 4 - Destroy 01:24
10. Pagan Faith - Wimpy Skank 03:16
11. Poison Pack - Aim and Run 01:45
12. Reactions - Sick of You 01:55
13. Incursion - Vengence 03:53
14. Drills - Vultures 05:54
15. Drills - Got No Heart 02:39
16. Disorderly Conduct - Some Real Friend 03:45
17. Abusers - Angels of the Night 02:27
18. Nobody's Heroes - Oh No! 01:29
19. Sector 4 - Iss 01:07
20. Pagan Faith - Here They Come 01:22
21. Incursion - Tell Me the Truth 04:35
22. Crank - All Reved Up 03:19
23. Amazing Grace - Morbid Opera 03:30
24. Foul Existence - New Hope for the Dead 01:42
25. U.S. Furys - Stars in Your Eyes 03:43
26. Cryer - What You've Done 03:06
27. Poison Pack - Hold Me 02:25
28. Reactions - Haulover Beach 02:02
29. Myron & the 2 Wotz - Wang 00:49
******************************
Total playing time: 1:19:57

[more=Extended info]Rick Lennick's Florida Explosion Comp

Thanks to the original ripper and uploader, Moss Memorial Reboot 2012 facebook group.

https://www.discogs.com/Various-Florida-Explosion/release/15475738
Alter Reels / E-Sync Records #ARE 1
"Compiled by Rick Lennick, former DJ at Flynn's on Miami Beach."[/more]

[more=Technical info]
Input File: 02. Pit Bull.mp3
Channels : 2
Sample Rate : 44100
Precision : 16-bit
Duration : 00:03:05.03 = 8159911 samples = 13877.4 CDDA sectors
File Size : 3.25M
Bit Rate : 141k
Sample Encoding: MPEG audio (layer I, II or III)
Comments :
Title=Pit Bull
Artist=Rock City Angels
Album=Florida Explosion [Compilation]
Tracknumber=2
Year=1985

[/more]

Register
(4) after21allD, infiltrator, Rosen, Xutun,
Sep 29 2020, 21:33:21 Zirconium (New Zealand) Demo (2002)
Zirconium (Nzl) - [Demo] (2002)





Genre: Death/Black Metal
Country: New Zealand (Wellington)
youtube rip
Bitrate: 128 kbps
Size: 25.1 MB
24 minutes 58 seconds
1. Intro (0:14)
2. Tranquil Sky (5:22)
3. Fake Embrace (7:11)
4. Embedded Within (5:46)
5. The Veil of Negative Existence (6:25)
---------------------------------------------------------------------
Thanks to the original uploader, anaemiabag
https://www.youtube.com/watch?v=hIWLTz8XfK4

https://www.discogs.com/artist/5305001-Zirconium-2
https://www.metal-archives.com/bands/Zirconium/26190

Vocals - Jolene Tempest [Dark Divinity, ex-Bulletbelt]
Guitars - Maelstrom [ex-Falciform, ex-Denial, ex-Draco Aerius, ex-Monsterworks, ex-Demiurge]
Bass - Astrophus [Draco Aerius, ex-Kaput Mortuum, ex-Eternal Damnation, ex-Lucretia]
Drums - Jason Hislop [Cenosphere, Draco Aerius, ex-Falciform, ex-Denial, ex-Slave Cadaver (live), ex-Backyard Burial, ex-Demiurge]
Violin - Rosemary Dey (R.I.P. 2016)

Register


(2) thenecromancer, Wail,
Sep 28 2020, 18:30:38 Baphomet - Baphomet [single] (1990)
Baphomet 1990 Apocalypse Club Toronto, photo by Susan S.E. Campbell
https://i.imgur.com/hrPndqD.jpg
(1) thenecromancer,
Sep 27 2020, 21:04:23 Various Artists - Alice Cooper And Friends [ T V Special ] [concert] (1977)


*Performer: Various Artists
*Title: Alice Cooper And Friends [ T V Special ]
*Type: Concert
*Year: 1977
*Genre: Rock And Roll/Hard Rock
*Country: Many

*Audio: ac3@127kbps
*Video: h.264@352kbps
*Resolution: 320x208
*Size: 175MB
******************************
*Length: 00:50:20

[more=Extended info]Codec: H264 = MPEG-4 AVC (part 10)(avc1)4
video size (data rate): 352 kbps
Bitrate: 480 kbps
FPS: 15.000 fps

audio: 127 kbps stereo MPEG AAC Audio (mp4a)
44 100 kHz

Thanks to the original uploader, Boris Koscheev

POOR QUALITY - for diehard fans only!

some of it is on youtube
https://www.youtube.com/playlist?list=PLsfV8Vk2ZCPmUvibCpAY4AZWdXW3ygfgV

https://www.imdb.com/title/tt0283244/

https://en.wikipedia.org/wiki/Alice_Cooper_and_Friends

Alice Cooper and Friends was a live music television special starring Alice Cooper.
Broadcast in the United States in September 1977, it was released on VHS in 1978.
This rare video has a running time of 52 minutes, of which 25 minutes feature Cooper.
It also features live footage of The Tubes, Nazareth and Sha Na Na.

Alice Cooper and Friends was filmed in concert on 19 June 1977 at the Anaheim Stadium, Anaheim, California, USA.

This was the first night of Cooper's "King of the Silver Screen" tour, in support of his album Lace and Whiskey.
The special captured a very drunken and lethargic performance by Cooper, which he himself has dismissed as his worst performance.
The video does include the infamous Chickens with Machine Guns sequence during the song "Lace and Whiskey".
This special was the only commercially released video footage from that tour.

The video of the special has been discontinued since its original release, and has not been issued on DVD.
---------------------------------------------------------------------
1. Alice Cooper - School's Out
2. Nazareth - This Flight Tonight
3. Nazareth - Love Hurts
4. Sha Na Na - Yakety Yak (the Coasters cover)
5. Sha Na Na - Jailhouse Rock (Elvis Presley cover)
6. Sha Na Na - Leader of the Pack (The Shangri-Las cover)/I Will Follow Him (Little Peggy March cover)
7. Sha Na Na - Blue Moon (cover song)
8. The Tubes - Love Will Keep Us Together (Captain & Tennille cover)
9. The Tubes - This Town (Frank Sinatra cover)
10. Nazareth - Loved And Lost
11. Alice Cooper - Is It My Body (excerpt)
12. Alice Cooper - Under My Wheels (excerpt)
13. Alice Cooper - Billion Dollar Babies (excerpt)
14. Alice Cooper - You And Me
15. Alice Cooper - Only Women Bleed (excerpt)
16. Alice Cooper - Lace And Whiskey
17. Alice Cooper - I Love The Dead[/more]

Register
(1) Wail,
Sep 26 2020, 11:39:32 Emmos - Tyrant After Tyrant [demo] (2005)
Emmos (Fra) 2005 Tyrant After Tyrant Demo @FLAC
Register
(1) Wail,
Sep 26 2020, 10:44:34 Demontage - Madness Disease [demo] (2004)


FLAC
Register

320
Register
(1) Wail,
Sep 24 2020, 07:16:22 Varathron - His Majesty At The Swamp (1993)
Varathron 2020 His Majesty at the Swamp [128]
Register
(1) Forcerecon1,
Sep 22 2020, 00:18:40 Various Artists - Temporary Insanity [A Salute To Deliverance] [compilation] (2010)


*Artist: Various Artists
*Album: Temporary Insanity [A Salute To Deliverance] [compilation]
*Year: 2010
*Genre: Thrash/Death/Power Metal
*Country: United States
*Format: mp3@CBR192kbps
*Size: 195MB

Tracklist:
CD 1
1. Deliverance - Flesh & Blood (A 25th Anniversary Special Re-Recording) 08:11
2. Deliverance - In U ( A 25th Anniversary Special Re-Recording) 06:19
3. Oil - Attack 03:39
4. Applehead Fasedown - Belltown 04:39
5. Lambs Among Wolves - Greetings Of Death 02:47
6. Stricken - No Time 04:34
7. P C W - What A Joke 06:10
8. Grave Robber - Awake 03:52
9. Ghostemple - If We Faint Not 04:26
10. Faith Factor - Weapons Of Our Warfare 04:26
11. Whisper From Heaven - Anymore 04:55
12. Venia - Desperate Cries 04:02
13. Days Of Affliction - River Disturbance 06:22
14. Grave Forsaken - Bought By Blood 03:46
15. Eternal Decision - Belltown 04:40

CD 2
16. Deliverance - Hunger And The Thirst (Previously Unreleased) 03:47
17. Oil - Screaming 04:37
18. The Sacrificed - Slay The Wicked 04:02
19. Krig - Weapons Of Our Warfare 06:23
20. Coriolis - What A Joke 04:53
21. Leper - The Call 03:47
22. Unforsaken - Stay Of Execution 04:06
23. Crucible Divine - Ramming Speed 05:57
24. Walk On Water - Learn 04:21
25. Visions Of Reality - Blood Of The Covenant 05:01
26. Saint Spirit - Prophets Of Idiocy 03:26
27. Bloodpaid - Words To The… 04:32
28. Bi-Polar Echo - The Call 04:40
29. Incarnate - Victory 04:39
30. Pastor Brad - A Space Called You 04:12
******************************
Total playing time: 2:21:11

[more=Extended info]Thanks to the original ripper and uploader. (Leif Andersen ?)

https://www.discogs.com/Various-Temporary-Insanity-A-Salute-To-Deliverance/release/6596255
Roxx Records ‎– RRCD-DEL01
2 × CD

https://www.metal-archives.com/bands/Deliverance/1215

https://www.spirit-of-metal.com/en/band/Deliverance_(USA)[/more]

[more=Technical info]
Input File: Various - Temporary Insanity [A Salute To Deliverance] CD1 - 01 - Flesh & Blood (A 25th Anniversary Special Re-Recording) (Deliverance).mp3
Channels : 2
Sample Rate : 44100
Precision : 16-bit
Duration : 00:08:12.17 = 21704829 samples = 36913 CDDA sectors
File Size : 11.8M
Bit Rate : 192k
Sample Encoding: MPEG audio (layer I, II or III)
Comments :
Title=Flesh & Blood (A 25th Anniversary Special Re-Recording) (Deliverance)
Artist=Various
Album=Temporary Insanity [A Salute To Deliverance] CD1
Tracknumber=01
Year=2010
Genre=Christian Metal

[/more]

Register
(8) boby9052, dafya328, heinz88, infiltrator, Marek, metalfaze, Rosen, thenecromancer,
Sep 19 2020, 23:37:36 God B.C. - Eargasms In Eden (1989)
God B.C. (Swe) - Eargasms in Eden (1989) @192
Size: 52.0 MB
https://www.metal-archives.com/bands/God_B.C./13158
1986-1988 (as God), 1988-1989 (as God B.C.)
pre-Hyste’riah G.B.C. 1989-1992

similar to Mezzrow, Hexenhaus, Wrathchild America

Thanks to the original ripper and uploader, probably Aggression, or someone from t-mag.
Register
(2) DarkHorde, traitor666,
Sep 19 2020, 21:18:51 Various - Milwaukee Metalfest [bootleg] (1992)


*Performer: Various
*Title: Milwaukee Metalfest
*Type: Bootleg
*Year: 1992
*Genre: Death/Thrash/heavy/punk Metal
*Country: United States

*Audio: ac3@224kbps
*Video: mpeg1@1411kbps
*Resolution: 352x288
*Size: 867MB
******************************
*Length: 01:25:52

[more=Extended info]http://metallipromo.com/images/obituary/19920718.jpg

Thanks to the original ripper and uploader, (t-mag, or Lockjaw blog?)

Milwaukee Metalfest VI
Saturday, July 18, 1992
MECCA Arena, Milwaukee, WI, USA

https://www.setlist.fm/festival/1992/milwaukee-metalfest-vi-23d680d3.html

Bands played in following order:
(first 8 not known),
Demonomacy, Morbid Corpse, Baphomet, Mythic, Macabre, Impetigo, Zoetrope, Stygian, Metal x, Old Skull, Epidemic, Aversion, Exhorder, Hexx, Solitude Aeturnus, Broken Hope, Suffocation, Malevolent Creation, Brutal Truth, Scat Opera, Blitz, Murphys Law, Agnostic Front, Mentors, Dog Star, Cancer, Cannibal Corpse, Obituary, Deicide.

someone uploaded onto youtube with zero information.
It is the same length, so I am guessing he also downloaded this many years ago from the same website I did
---------------------------------------------------------------------
I figured out most of the songs, took me a long time.
Got tired, so, you decipher rest of the missing bands/titles.

band/song

00:00 ? -
04:22 Mythic -
09:20 Macabre- Zodiac
12:45 Impetigo - Wizard of Gore
17:04 Zoetrope - It's My Life
19:47 Old Skull -
22:20 ? Epidemic -
27:18 Exhorder - Desecrator
34:00 Hexx - Blood Hunter
38:18 Solitude Aeturnus - The Hourglass
43:10 King Diamond introduces Broken Hope
49:36 Broken Hope -
53:21 King Diamond introduces Malevolent Creation
53:43 Malevolent Creation -
1:00: Agnostic Front -
1:03:45 backstage clip of guys hauling away a chick
1:04:01 ? Cancer -
1:09:35 Obituary -
1:13:31 Obituary - Cause of Death
1:19:15 Deicide - Satan Spawn, The Caco-Daemon
1:23:12 Deicide - Dead By Dawn[/more]

Register
(3) DarkHorde, Occultas, Rosen,
Sep 19 2020, 13:11:12 Falcon - Demo [demo] (2003)


*Artist: Falcon
*Album: Demo [demo]
*Year: 2003
*Genre: Heavy Metal
*Country: United States
*Format: mp3@VBR256kbps
*Size: 36MB

Tracklist:
1. Shelob's Lair 05:28
2. Downer 04:31
3. The Crying of Lot 246 04:01
4. On The Slab 05:00
******************************
Total playing time: 19:00

[more=Extended info]m4a vbr~256

Thanks to the original ripper and uploader, Mcniggleston of heavymetalrarities

Cirith Ungol's Greg Lindstrom on bass

https://www.metal-archives.com/bands/Falcon/33057

The first demo from Falcon back in 2003, a great and unfortunately rare demo limited to 100. You guys should proper enjoy this one if you like Cirith Ungol and such acts of that sound. These are all early demo versions of what later came on the debut album from 2004.

Line-up:
Perry Grayson - Lead Vocals, Guitar
Greg Lindstrom - Bass, Keyboards, Guitars (Track 1)
Darin McCloskey - Drums[/more]

[more=Technical info]
Input File: 01 Shelob\'s Lair.m4a
Channels : 1
Sample Rate : 8000
Precision : 16-bit
Duration : 00:00:24.18 = 193416 samples ~ 1813.27 CDDA sectors
File Size : 10.8M
Bit Rate : 3.58M
Sample Encoding: MPEG audio (layer I, II or III)

[/more]

Register
(7) after21allD, caro, infiltrator, Mogozoz, Olethros, Rosen, wreak,
Sep 16 2020, 15:53:01 Decaying Citadel - Ruin Of The Wooded Realm [demo] (2009)
holy crap, thanks Borderline1991, it figures you are always the guy to find impossible requests!
you all will kneel before ̶Go̶d̶ Borderline1991
(1) Borderline1991,
Sep 15 2020, 11:33:29 Draco Aerius - Goddess Of Bloodshed [demo] (2003)
please reupload
(2) infiltrator, thenecromancer,
Sep 13 2020, 18:30:57 Existence - Reign In Violence (1991)
Existence (Ger) 1990 Reign In Violence [192]
Size:76.9 MB
Thanks to the original uploader.
I guess for fans into Intrinsic, or Iron Maiden with Bruce.
Register
(2) thenecromancer, Wail,
Sep 13 2020, 18:17:34 Various Artists - Metal Meltdown II [best of/compilation] (1987)
Metal Meltdown Vol. 2 (1987) Ever Rat Records @256
Size:78.2 MB
Register
(1) thenecromancer,
Sep 13 2020, 10:12:06 Various Artists - Screams Of Abaddon Metal Fest [bootleg] (2006)


*Artist: Various Artists
*Album: Screams Of Abaddon Metal Fest [bootleg]
*Year: 2006
*Genre: Thrash/Unblack/Death/Melodic Heavy-Power Metal
*Country: Brazil
*Format: flac
*Size: 587MB

Tracklist:
1. Amnistia (Brazil, Itabuna, Bahia) changed name to Rival Machine [thrash] 03:18
02. Amnistia 02:15
03. Amnistia 03:28
04. Ira Divina (Brazil, Aracaju, Sergipe) [Unblack metal] 00:30
05. Ira Divina 03:17
06. Ira Divina 01:32
07. Ira Divina 06:14
08. Ira Divina [cuts in] 01:51
09. Ira Divina cuts in [guest singer] 03:14
10. Metal Celestial (Brazil,Maceio,Alagoas) 03:30
11. Metal Celestial 03:55
12. Metal Celestial 03:37
13. Worshiper (Brazil,Aracaju,Sergipe) [Unblack metal] 00:36
14. Worshiper 05:29
15. Worshiper 04:25
16. Worshiper 03:53
17. Worshiper drummer preaching 01:39
18. Worshiper 04:10
19. Worshiper 04:50
20. Factor Cross (Brazil, Aracaju, Sergipe) 05:45
21. Factor Cross singer talks 02:01
22. Factor Cross 03:18
23. Symphony Christ (Brazil, Vitória, Espírito Santo) 01:34
24. Symphony Christ 01:12
25. Symphony Christ 00:42
26. Symphony Christ 03:16
27. Symphony Christ 03:33
28. Symphony Christ 04:49
29. Symphony Christ 03:14
30. Against Death (Brazil, Recite, Pernambuco) 01:49
31. Against Death 03:42
32. Against Death 00:34
33. Against Death 09:05
34. Against Death 03:39
35. Against Death 05:22
36. Against Death 03:58
37. Against Death 03:24
38. Stryfer (Brazil, Vitória, Espirito Santo) 02:38
39. Stryfer 03:42
40. Stryfer [cuts off] 01:31
******************************
Total playing time: 2:10:31

[more=Extended info]I don't have the song titles, so it would help if anyone knows them to tell us.

DVD audio rip
audience recording

Screams Of Abaddon Metal Fest recorded Live in Salvador 2006.
The festival featured promising bands from the Christian scene in Brazil.

01. Amnistia (Amnesty)
02. Ira Divina (Divine Wrath)
03. Metal Celestial
04. Worshiper
05. Factor Cross
06. Against Death
07. Symphony Christ
08. Stryfer (cuts off)

09. Célicos (missing)

https://www.spirit-of-metal.com/en/band/Against_Death
https://www.metal-archives.com/bands/Against_Death/69649
https://www.metal-archives.com/bands/Amnistia/3540261230
https://www.metal-archives.com/bands/C%C3%A9licos/3540275829
https://www.metal-archives.com/bands/Factor_Cross/93963
https://www.metal-archives.com/bands/Ira_Divina/74930
http://metalcristao.com.br/b/STRIFER
http://unblack-archives.blogspot.com/2018/02/unknown-band-name.html
https://www.metal-archives.com/bands/Symphony_Christ/86387

http://unblack-archives.blogspot.com/search?q=Worshiper+
https://www.youtube.com/watch?v=gPZsU1kGOqs[/more]

Register
(4) infiltrator, Rosen, Wail, wreak,

21 Pages V   1 2 3 > » 
- Lo-Fi Version Support form
Copyrights and abuse reports form
Time is now: 27th October 2020 - 07:49:00