Welcome Guest ( Log In | Register )

История благодарностей участнику GorAtheist ::: Спасибо сказали: 1766 раз(а)
Дата поста: В теме: За сообщение: Спасибо сказали:
Yesterday, 21:08:37 Vorkreist - Sigil Whore Christ (2012)
320kbps

Register
(1) kipelov999,
Yesterday, 12:20:27 Today Needed
ЦИТАТА(FlammenTod666 @ Oct 15 2021, 15:27:35) *


Флачок для коллекции есть только: Akrotheism - 2019 - Law of Seven Deaths (FLAC +spectrum)

Register
(1) FlammenTod666,
Yesterday, 12:08:56 Calligram - Demimonde [ep] (2016)


*Artist: Calligram
*Album: Demimonde [ep]
*Year: 2016
*Genre: Black Metal/Hardcore
*Country: United Kingdom
*Format: mp3@CBR320kbps
*Size: 49MB

Tracklist:
1. Red Rope 05:02
2. Bed of Nails 03:40
3. Drowned 04:42
4. Black Velvet 03:41
5. Bataclan 04:23
******************************
Total playing time: 21:28



[more=Extended info]https://www.metal-archives.com/albums/Calligram/Demimonde/701771[/more]

[more=Technical info]
Input File: 04 - Black Velvet.mp3
Channels : 2
Sample Rate : 44100
Precision : 16-bit
Duration : 00:03:41.24 = 9756816 samples = 16593.2 CDDA sectors
File Size : 9.28M
Bit Rate : 336k
Sample Encoding: MPEG audio (layer I, II or III)
Comments :
Title=Black Velvet
Artist=Calligram
Album=Demimonde
Tracknumber=4
Year=2016

[/more]

Register
(4) artscald, Ostinato, sludge666, vasiljev_sergej,
Yesterday, 09:01:03 Acid Deathtrip - Acid Deathtrip [ep] (2013)
mp3@VBR264kbps

Register
(2) eddbuzz, scrollbar,
Yesterday, 08:54:07 Misanthrope - Bâtisseur De Cathédrales: Les Fissures De L'édifice (2020)
mp3@CBR320kbps

Register
(3) Grzechu, kimkayoung, thenecromancer,
Oct 18 2021, 21:10:20 Today Needed
ЦИТАТА(rebornflms95 @ Oct 18 2021, 03:23:28) *
Thornspawn/Maledictvs- Guided by Vengeance & Bloodlust June 30th
Vulcan Tyrant- Vulcanocide Aug.8th
Hour of 13- Black Magick Rites Aug.27th
Abigail- Grotesque Nightmare Oct.1st
Hounds of Hasselvander- Another Dose of Life Oct.13th


Hour Of 13 - Black Magick Rites (2020) 320kbps

Register
(2) rebornflms95, thenecromancer,
Oct 18 2021, 21:00:45 Carcharoth - Dies Nefastus [demo] (2002)
mp3@CBR320kbps (+spectrum)

Register
(2) kim666, thenecromancer,
Oct 17 2021, 14:47:08 Bourn Ultra - Aforetime Masters (2018)


*Artist: Bourn Ultra
*Album: Aforetime Masters
*Year: 2018
*Genre: Black/Death Metal
*Country: United States
*Format: mp3@CBR320kbps
*Size: 76MB

Tracklist:
1. Diluvian 04:36
2. Thrall to the Expanse 03:09
3. Entrance 03:01
4. Razor Wolves 03:41
5. Eidolon 03:17
6. Scorpium 04:21
7. Into the Furor 02:38
8. The Far Seer 03:57
9. Nameless Ones 04:23
******************************
Total playing time: 33:03



[more=Extended info]https://www.metal-archives.com/albums/Bourn_Ultra/Aforetime_Masters/740116[/more]

[more=Technical info]
Input File: 01 Diluvian.mp3
Channels : 2
Sample Rate : 44100
Precision : 16-bit
Duration : 00:04:37.02 = 12216450 samples = 20776.3 CDDA sectors
File Size : 11.2M
Bit Rate : 325k
Sample Encoding: MPEG audio (layer I, II or III)
Comments :
Title=Diluvian
Artist=Bourn Ultra
Album=Aforetime Masters
Tracknumber=1
Year=2018
Genre=Black/Death Metal

[/more]

Register
(6) AlexSmith, artscald, caro, Olethros, vasiljev_sergej, wanderer73,
Oct 16 2021, 16:41:46 Sepulcro - Sepulcro [demo] (1989)
224kbps

Register
(3) hell_armageddon, thenecromancer, Z28517,
Oct 16 2021, 13:39:31 Sterbeklang - Leere (2009)
mp3@CBR320kbps

Register
(2) kim666, thenecromancer,
Oct 14 2021, 20:47:30 Parasite - Inner Disruption (2014)


*Artist: Parasite
*Album: Inner Disruption
*Year: 2014
*Genre: Thrash Metal
*Country: Colombia
*Format: mp3@CBR320kbps
*Size: 77MB

Tracklist:
1. Death 03:23
2. The Decaying Truth 03:32
3. Lost in Lust 03:39
4. Yoke of Pain 02:59
5. MK Ultra 03:52
6. Beneath the Silence 03:04
7. Tumbas 03:05
8. Horrors 16:30
******************************
Total playing time: 40:04



[more=Extended info]https://www.metal-archives.com/albums/Parasite/Inner_Disruption/491053[/more]

[more=Technical info]
Input File: 02-The Decaying Truth.mp3
Channels : 2
Sample Rate : 44100
Precision : 16-bit
Duration : 00:03:32.43 = 9368339 samples = 15932.5 CDDA sectors
File Size : 8.50M
Bit Rate : 320k
Sample Encoding: MPEG audio (layer I, II or III)
Comments :
Title=The Decaying Truth
Artist=Parasite
Album=Inner Disruption
Tracknumber=2
Year=2014
Genre=Thrash Metal

[/more]

Register
(10) boby9052, BugEyes, caro, HMHamster, julianotidre, Marek, Olethros, sergsazan, stumpheavyrock, Svafrlami,
Oct 14 2021, 20:34:07 Tristana - Back To The Future (2003)


*Artist: Tristana
*Album: Back To The Future
*Year: 2003
*Genre: Speed/Power Metal
*Country: Slovakia
*Format: mp3@CBR320kbps
*Size: 97MB

Tracklist:
1. Back to the Future 04:55
2. Black Demons 04:44
3. In the Speed Is Power 03:49
4. Dark Remembers 04:18
5. Dont Take a Life Which Doesnt Belong to You 06:16
6. Future 04:08
7. Empire of Madness 04:54
8. Yes or No 05:19
9. Fire 04:50
******************************
Total playing time: 43:13

[more=Extended info]https://www.metal-archives.com/albums/Tristana/Back_to_the_Future/135886[/more]

[more=Technical info]
Input File: 09-Fire.mp3
Channels : 2
Sample Rate : 44100
Precision : 16-bit
Duration : 00:04:50.45 = 12808757 samples = 21783.6 CDDA sectors
File Size : 11.6M
Bit Rate : 320k
Sample Encoding: MPEG audio (layer I, II or III)
Comments :
Title=Fire
Artist=Tristana
Album=Back To The Future
Tracknumber=9
Year=2003
Genre=Speed/Power Metal

[/more]

Register
(10) boby9052, caro, HMHamster, Marek, nord6666, Olethros, sergsazan, stumpheavyrock, Svafrlami, Сварог Барг,
Oct 14 2021, 16:53:29 Pazuzu - Experience Of A Human Mind [ep] (2019)


*Artist: Pazuzu
*Album: Experience Of A Human Mind [ep]
*Year: 2019
*Genre: Experimental Death/Drone/Doom Metal
*Country: France
*Format: mp3@CBR320kbps
*Size: 61MB

Tracklist:
1. Metro 05:05
2. #NotAllMen 03:40
3. High Gain 05:01
4. Demon in a Bottle 08:15
5. Digression 04:35
******************************
Total playing time: 26:36



[more=Extended info]https://www.metal-archives.com/albums/Pazuzu/Experience_of_a_Human_Mind/953119[/more]

[more=Technical info]
Input File: 05 Digression.mp3
Channels : 2
Sample Rate : 44100
Precision : 16-bit
Duration : 00:04:35.08 = 12131204 samples = 20631.3 CDDA sectors
File Size : 11.1M
Bit Rate : 324k
Sample Encoding: MPEG audio (layer I, II or III)
Comments :
Title=Digression
Artist=Pazuzu
Album=Experience Of A Human Mind
Tracknumber=5
Year=2019

[/more]

Register
(9) A.L.Rapsod, artscald, caro, infozahist, kimkayoung, lacrimoza, Olethros, Reverend, sergsazan,
Oct 14 2021, 10:59:45 Negative Self - Control The Fear (2018)
mp3@CBR320kbps

Register
(2) hell_armageddon, Phantom_Voodoo,
Oct 13 2021, 19:44:54 Ouijabeard - Die And Let Live (2012)
mp3@CBR320kbps

Register
(2) Phantom_Voodoo, wgs73,
Oct 13 2021, 19:18:10 Grst - Plague Seed (2014)
flac

Register
(1) kim666,
Oct 13 2021, 19:13:07 Genus Ordinis Dei - Genus Ordinis Dei [ep] (2014)
mp3@CBR320kbps

Register
(1) thenecromancer,
Oct 11 2021, 18:19:54 Echoterra - In Your Eyes [ep] (2010)
flac (+cue +log +scans)

Register
(2) kimkayoung, Veggr,
Oct 11 2021, 18:00:06 Silent Opera - Act One [ep] (2010)
mp3@CBR128kbps

Register
(2) aleon, kimkayoung,
Oct 11 2021, 14:43:50 Hoath - Codex I: I.R.E. [demo] (2003)
mp3@CBR128kbps

Register
(1) Antichrist,
Oct 11 2021, 14:35:54 Vaura - The Missing (2013)
mp3@CBR320kbps

Register
(1) Exhorder121121,
Oct 11 2021, 14:24:59 Höllenlärm - Hellish Noise (2011)
320kbps

Register
(1) Carcharoth,
Oct 11 2021, 14:13:18 Höllenlärm - Glutton (2016)
mp3@CBR320kbps

Register
(1) Carcharoth,
Oct 11 2021, 08:18:29 Torched Ebony Skies - Tabula Rasa/Nocuous Keloid (2017)


*Artist: Torched Ebony Skies
*Album: Tabula Rasa/Nocuous Keloid
*Year: 2017
*Genre: Industrial Black Metal
*Country: United States
*Format: mp3@CBR320kbps
*Size: 177MB

Tracklist:
1. Intro: Fall (An Autumn Bestowed) 00:59
2. Discrete Nonnumerical Formulas 07:23
3. The Impeccable Being 05:53
4. For All That Exists 06:42
5. Dirge for the Fallen 05:52
6. The Fruitless Spoils of Hopeless Romance 07:30
7. Intermission: The Facades of a Cynic 04:52
8. Interregnum: Anthem of the Tyrant 03:31
9. Despotic Reign of Grandeur 07:42
10. Transcendental Nihilism 12:17
11. Traversing That Which Was Once 07:22
12. The Pseudo-Art of Diplomacy 09:27
******************************
Total playing time: 1:19:30



[more=Extended info]https://www.metal-archives.com/albums/Torched_Ebony_Skies/Tabula_Rasa_-_Nocuous_Keloid/643189[/more]

[more=Technical info]
Input File: 02-Discrete Nonnumerical Formulas.mp3
Channels : 2
Sample Rate : 48000
Precision : 16-bit
Duration : 00:07:23.64 = 21294864 samples ~ 33273.2 CDDA sectors
File Size : 17.8M
Bit Rate : 320k
Sample Encoding: MPEG audio (layer I, II or III)
Comments :
Title=Discrete Nonnumerical Formulas
Artist=Torched Ebony Skies
Album=Tabula Rasa / Nocuous Keloid
Tracknumber=2
Year=2017
Genre=Industrial Black Metal

[/more]

Register
(13) AlexSmith, artscald, caro, gwar, kim666, metala, Olethros, SilentNidhogg, supremo, symphonicadiction, Taakeferd, vasiljev_sergej, Сварог Барг,
Oct 11 2021, 07:51:26 Primal - Matka Noc [ep] (2013)
mp3@CBR320kbps

Register
(2) kim666, VVR,

13 Pages V   1 2 3 > » 
- Lo-Fi Version Support form
Copyrights and abuse reports form
Time is now: 20th October 2021 - 13:19:15