Welcome Guest ( Log In | Register )

История благодарностей участнику Placenta ::: Спасибо сказали: 128 раз(а)
Дата поста: В теме: За сообщение: Спасибо сказали:
Jul 20 2021, 22:26:38 Leichenzug - Krieg (Burzum Cover) [single] (2018)


*Artist: Leichenzug
*Album: Krieg (Burzum Cover) [single]
*Year: 2018
*Genre: Black Metal/Pagan Metal
*Country: Germany
*Format: mp3@VBR269kbps
*Size: 5MB

Tracklist:
1. Krieg (Burzum Cover) 02:26
******************************
Total playing time: 2:26

[more=Extended info][/more]

[more=Technical info]
Input File: Leichenzug - Krieg (BurzumCover).mp3
Channels : 2
Sample Rate : 44100
Precision : 16-bit
Duration : 00:02:26.18 = 6446582 samples = 10963.6 CDDA sectors
File Size : 5.10M
Bit Rate : 279k
Sample Encoding: MPEG audio (layer I, II or III)
Comments :
Title=Krieg (BurzumCover)
Artist=Leichenzug
Year=2018

[/more]

Register
(11) caro, chipsgott, dalex, infiltrator, Lanceatum, Olethros, Razorbladeswaltz, Reverend, thenecromancer, vasiljev_sergej, wreak,
Jul 20 2021, 22:17:58 Pestlegion - Entsage Gott [ep] (2018)


*Artist: Pestlegion
*Album: Entsage Gott [ep]
*Year: 2018
*Genre: Black Metal
*Country: Germany
*Format: mp3@VBR253kbps
*Size: 17MB

Tracklist:
1. Entsage Gott 04:43
2. Final Sacrifice 04:00
******************************
Total playing time: 8:43

[more=Extended info]
YouTube[/more]

[more=Technical info]
Input File: Pestlegion - Entsage Gott - 01 Entsage Gott.mp3
Channels : 2
Sample Rate : 44100
Precision : 16-bit
Duration : 00:04:43.25 = 12491105 samples = 21243.4 CDDA sectors
File Size : 9.05M
Bit Rate : 256k
Sample Encoding: MPEG audio (layer I, II or III)
Comments :
Title=Entsage Gott
Artist=Pestlegion
Album=Entsage Gott
Tracknumber=1
Year=2018

[/more]

Register
(17) andivi, cacicandriera, caro, chipsgott, cist, Ildjarn, infiltrator, NachtWulf, Occultas, Olethros, SilentNidhogg, smysl, stub888, thenecromancer, VALERY, vasiljev_sergej, wreak,
Jul 19 2021, 22:44:08 Crown Of Contempt & Beetlegork - Crown Of Gork [split] (2021)


*Artist: Crown Of Contempt & Beetlegork
*Album: Crown Of Gork [split]
*Year: 2021
*Genre: Thrash/Groove Metal | Sludge
*Country: United States | United States
*Format: mp3@VBR274kbps
*Size: 56MB

Tracklist:
Beetlegork:
1Tuguskatron 04:46
2.Williamsonville 05:03
3.Squeedle Mountain 04:54
Crown of Contempt:
4.Violent Crown 03:51
5.Ghosts Within 04:43
6.New Plague 03:54
******************************
Total playing time: 27:11





[more=Technical info]
Input File: Beetlegork - Crown of Gork - 03 Beetlegork - Squeedle Mountain.mp3
Channels : 2
Sample Rate : 44100
Precision : 16-bit
Duration : 00:04:54.53 = 12988773 samples = 22089.7 CDDA sectors
File Size : 10.3M
Bit Rate : 279k
Sample Encoding: MPEG audio (layer I, II or III)
Comments :
Title=Beetlegork - Squeedle Mountain
Artist=Beetlegork
Album=Crown of Gork
Tracknumber=3
Year=2021

[/more]

Register
(6) caro, infiltrator, METALHUNTER, piwimetal, stumpheavyrock, wreak,
Jul 19 2021, 22:10:55 Chaosadist - Chaosadistic Plague [demo] (2021)


*Artist: Chaosadist
*Album: Chaosadistic Plague [demo]
*Year: 2021
*Genre: Death/Black Metal/Noise
*Country: United States
*Format: mp3@VBR270kbps
*Size: 41MB

Tracklist:
1. Atomic Bloodbath Extinction (Intro) 02:04
2. Nuclear Storm 666 05:19
3. Missile Execution Kommand 04:40
4. Chaosxgenocidexholokaust 04:24
5. Chaosadistic Plague 04:23
******************************
Total playing time: 20:50

[more=Extended info][/more]

[more=Technical info]
Input File: CHAOSADIST - CHAOSADISTIC PLAGUE - 03 MISSILE EXECUTION KOMMAND.mp3
Channels : 2
Sample Rate : 44100
Precision : 16-bit
Duration : 00:04:40.89 = 12387425 samples = 21067 CDDA sectors
File Size : 9.46M
Bit Rate : 269k
Sample Encoding: MPEG audio (layer I, II or III)
Comments :
Title=MISSILE EXECUTION KOMMAND
Artist=CHAOSADIST
Album=CHAOSADISTIC PLAGUE
Tracknumber=3
Year=2021

[/more]

Register
(8) caro, Hell_Is_Here, infiltrator, Olethros, SilentNidhogg, stub888, varlam4, wreak,
Jul 19 2021, 21:48:38 Carved Soul - The Ultimate Nightmare [demo] (2021)


*Artist: Carved Soul
*Album: The Ultimate Nightmare [demo]
*Year: 2021
*Genre: Black Metal
*Country: Portugal
*Format: mp3@VBR300kbps
*Size: 11MB

Tracklist:
1. Missing Footage 01:05
2. A False Sense Of Solace 02:57
3. Engraved Seal (Outro) 00:47
******************************
Total playing time: 4:49

[more=Extended info]YouTube
[/more]

[more=Technical info]
Input File: CARVED SOUL - The Ultimate Nightmare (EP) - 02 A False Sense Of Solace.mp3
Channels : 2
Sample Rate : 44100
Precision : 16-bit
Duration : 00:02:57.16 = 7812844 samples = 13287.1 CDDA sectors
File Size : 6.78M
Bit Rate : 306k
Sample Encoding: MPEG audio (layer I, II or III)
Comments :
Title=A False Sense Of Solace
Artist=CARVED SOUL
Album=The Ultimate Nightmare (EP)
Tracknumber=2
Year=2021

[/more]

Register
(4) infiltrator, Olethros, vasiljev_sergej, Wail,
Jul 19 2021, 21:37:42 Burning Sword - Burning Sword Ii [ep] (2021)


*Artist: Burning Sword
*Album: Burning Sword Ii [ep]
*Year: 2021
*Genre: Sludge/Doom Metal
*Country: United States
*Format: mp3@VBR287kbps
*Size: 26MB

Tracklist:
1. I 02:10
2. II 01:29
3. III 01:18
4. IV 01:46
5. V 03:02
6. VI 01:44
******************************
Total playing time: 11:29



[more=Technical info]
Input File: Burning Sword - Burning Sword II - 03 iii.mp3
Channels : 2
Sample Rate : 44100
Precision : 16-bit
Duration : 00:01:18.42 = 3458278 samples = 5881.43 CDDA sectors
File Size : 2.97M
Bit Rate : 303k
Sample Encoding: MPEG audio (layer I, II or III)
Comments :
Title=iii
Artist=Burning Sword
Album=Burning Sword II
Tracknumber=3
Year=2021

[/more]

Register
(10) caro, HMHamster, infiltrator, marilin, Olethros, stumpheavyrock, VALERY, varlam4, vlad74, wreak,
Jul 19 2021, 19:55:57 Beaver Fever - Autophagic Execution [ep] (2020)


*Artist: Beaver Fever
*Album: Autophagic Execution [ep]
*Year: 2020
*Genre: Grindcore
*Country: Canada
*Format: mp3@VBR250kbps
*Size: 18MB

Tracklist:
1. Autophagic Execution 01:30
2. Organ Hunter 01:21
3. Designer Genes 01:36
4. Haemorrhagic Poison 01:08
5. Technological Leash 00:48
6. Escape Plan 01:42
7. Resurrection 01:05
******************************
Total playing time: 9:10



[more=Technical info]
Input File: Beaver Fever - Autophagic Execution - 02 Organ Hunter.mp3
Channels : 2
Sample Rate : 44100
Precision : 16-bit
Duration : 00:01:21.42 = 3590754 samples = 6106.72 CDDA sectors
File Size : 2.66M
Bit Rate : 261k
Sample Encoding: MPEG audio (layer I, II or III)
Comments :
Title=Organ Hunter
Artist=Beaver Fever
Album=Autophagic Execution
Tracknumber=2
Year=2020

[/more]

Register
(6) caro, infiltrator, kefka, Olethros, varlam4, wreak,
Jul 18 2021, 23:42:28 Befoulment & Putrid Temple - Befoulment//Putrid Temple [split] (2019)


*Artist: Befoulment & Putrid Temple
*Album: Befoulment//Putrid Temple [split]
*Year: 2019
*Genre: Black/Death Metal | Black/Death Metal
*Country: United States | United States
*Format: mp3@CBR293kbps
*Size: 42MB

Tracklist:
1. Nazarene Warfront 02:23
2. Dread Steeds Ov Nicaea 06:09
3. Ascension Ov The Goreblest 04:27
4. Black Lighting Stigmata 06:41
******************************
Total playing time: 19:40



[more=Technical info]
Input File: 01 Nazarene Warfront.mp3
Channels : 2
Sample Rate : 44100
Precision : 16-bit
Duration : 00:02:23.15 = 6312959 samples = 10736.3 CDDA sectors
File Size : 4.22M
Bit Rate : 236k
Sample Encoding: MPEG audio (layer I, II or III)
Comments :
Title=Nazarene Warfront
Artist=Befoulment
Album=BEFOULMENT // PUTRID TEMPLE
Tracknumber=1
Year=2019

[/more]

Register
(1) sacrut,
Jul 18 2021, 22:55:40 Tomb King - Debris [single] (2021)


*Artist: Tomb King
*Album: Debris [single]
*Year: 2021
*Genre: Black Metal
*Country: Germany
*Format: mp3@CBR266kbps
*Size: 8MB

Tracklist:
Debris 04:12
******************************
Total playing time: 4:12



[more=Technical info]
Input File: Tomb King - Debris.mp3
Channels : 2
Sample Rate : 44100
Precision : 16-bit
Duration : 00:04:12.29 = 11125989 samples = 18921.8 CDDA sectors
File Size : 8.42M
Bit Rate : 267k
Sample Encoding: MPEG audio (layer I, II or III)
Comments :
Title=Debris
Artist=Tomb King
Year=2021

[/more]

Register
(8) caro, infiltrator, NachtWulf, Olethros, Taakeferd, varlam4, vasiljev_sergej, wreak,
Jul 18 2021, 22:06:08 Exhumation - Opus Death (Remastered) [ep] (2021)


*Artist: Exhumation
*Album: Opus Death (Remastered) [ep]
*Year: 2021
*Genre: Death Metal
*Country: Indonesia
*Format: mp3@CBR285kbps
*Size: 88MB

Tracklist:
1. Soul Wanders 03:41
2. Upon Our Hordes 04:15
3. Witching Evil 04:51
4. Possessed 04:24
5. The Sleeping Darkness 03:20
6. Graveyard Alike 04:21
7. Labyrinth Of Fire 03:56
8. Ironheart 04:18
9. Hymn Of Death 04:35
10. Lullabyss 03:01
11. Death Dealer 02:21
******************************
Total playing time: 43:03




[more=Technical info]
Input File: 04 Possessed.mp3
Channels : 2
Sample Rate : 44100
Precision : 16-bit
Duration : 00:04:24.41 = 11660525 samples = 19830.8 CDDA sectors
File Size : 9.55M
Bit Rate : 289k
Sample Encoding: MPEG audio (layer I, II or III)
Comments :
Title=Possessed
Artist=EXHUMATION
Album=EXHUMATION - OPUS DEATH
Tracknumber=4
Year=2021

[/more]

Register
(1) Occultas,
Jul 18 2021, 21:43:14 Tentacult - Obsidian Blade [ep] (2021)


*Artist: Tentacult
*Album: Obsidian Blade [ep]
*Year: 2021
*Genre: Death Metal
*Country: United States
*Format: mp3@CBR260kbps
*Size: 36MB

Tracklist:
1. Obsidian Blade 05:17
2. Seismic Assault 03:18
3. Into Astral Crypt 08:35
******************************
Total playing time: 17:10




[more=Technical info]
Input File: 01 Obsidian Blade.mp3
Channels : 2
Sample Rate : 44100
Precision : 16-bit
Duration : 00:05:17.10 = 13984110 samples = 23782.5 CDDA sectors
File Size : 10.5M
Bit Rate : 266k
Sample Encoding: MPEG audio (layer I, II or III)
Comments :
Title=Obsidian Blade
Artist=TENTACULT
Album=TENTACULT - OBSIDIAN BLADE
Tracknumber=1
Year=2021

[/more]

Register
(16) caro, cesar, chipsgott, denver, Hell_Is_Here, infiltrator, infozahist, Marek, Mist13Signifier, Occultas, Olethros, Taakeferd, VALERY, vyacheslav, wanderer73, wreak,
Jul 18 2021, 21:30:37 Low Flesh - Low Flesh [ep] (2021)


*Artist: Low Flesh
*Album: Low Flesh [ep]
*Year: 2021
*Genre: Doom Metal/Sludge
*Country: United States
*Format: mp3@CBR302kbps
*Size: 39MB

Tracklist:
1. Black Blood of the Earth 04:46
2. Down Towards the Universe 04:14
3. Six Demon Bag 02:31
4. Equal With Heaven 06:11
******************************
Total playing time: 17:42




[more=Technical info]
Input File: 03 Six Demon Bag.mp3
Channels : 2
Sample Rate : 44100
Precision : 16-bit
Duration : 00:02:31.90 = 6698878 samples = 11392.6 CDDA sectors
File Size : 5.48M
Bit Rate : 289k
Sample Encoding: MPEG audio (layer I, II or III)
Comments :
Title=Six Demon Bag
Artist=LOW FLESH
Album=LOW FLESH
Tracknumber=3
Year=2021

[/more]

Register
(11) caro, fallen, HMHamster, infiltrator, Olethros, Ostinato, sludge666, stumpheavyrock, VALERY, vlad74, wreak,
Jul 18 2021, 21:07:39 Shitbag - Burden [ep] (2021)


*Artist: Shitbag
*Album: Burden [ep]
*Year: 2021
*Genre: Sludge/Grind
*Country: United States
*Format: mp3@CBR266kbps
*Size: 41MB

Tracklist:
1. Fathers and Sons 08:16
2. Contempt for Cockroaches 01:03
3. The Weight 10:14
******************************
Total playing time: 19:33




[more=Technical info]
Input File: 02 Contempt for Cockroaches.mp3
Channels : 2
Sample Rate : 44100
Precision : 16-bit
Duration : 00:01:03.79 = 2813183 samples = 4784.32 CDDA sectors
File Size : 2.25M
Bit Rate : 283k
Sample Encoding: MPEG audio (layer I, II or III)
Comments :
Title=Contempt for Cockroaches
Artist=SHITBAG
Album=SHITBAG - BURDEN
Tracknumber=2
Year=2021

[/more]

Register
(7) caro, Hell_Is_Here, infiltrator, Olethros, sludge666, vlad74, wreak,
Jul 18 2021, 20:11:00 Ancient Tome - Final Tomb [ep] (2021)


*Artist: Ancient Tome
*Album: Final Tomb [ep]
*Year: 2021
*Genre: Doom/Black Metal
*Country: United States
*Format: mp3@CBR281kbps
*Size: 50MB

Tracklist:
1. Choleric 07:20
2. Sycophants 07:41
3. The Amber Crutch 06:46
4. To Come to the End of a Time of Anxiety and Fear 01:54
******************************
Total playing time: 23:41

[more=Extended info][youtube]https://youtu.be/asK2jV0rqz8[/youtube]
[/more]

[more=Technical info]
Input File: 02 Sycophants.mp3
Channels : 2
Sample Rate : 44100
Precision : 16-bit
Duration : 00:07:41.40 = 20347740 samples = 34605 CDDA sectors
File Size : 16.4M
Bit Rate : 284k
Sample Encoding: MPEG audio (layer I, II or III)
Comments :
Title=Sycophants
Artist=ANCIENT TOME
Album=ANCIENT TOME - FINAL TOMB
Tracknumber=2
Year=2021

[/more]

Register
(16) caro, denver, fallen, infiltrator, Mogozoz, Olethros, Sanctus, sergsazan, SilentNidhogg, Taakeferd, thenecromancer, VALERY, varlam4, vasiljev_sergej, Wail, wreak,
Jul 18 2021, 19:54:56 Cessation - Cessation [demo] (2021)


*Artist: Cessation
*Album: Cessation [demo]
*Year: 2021
*Genre: Funeral Doom Metal
*Country: United States
*Format: mp3@CBR250kbps
*Size: 39MB

Tracklist:
Abyss of Desolation - 20:12
******************************
Total playing time: 20:12

[more=Extended info][/more]

[more=Technical info]
Input File: CESSATION - CESSATION - 01 Abyss of Desolation.mp3
Channels : 2
Sample Rate : 44100
Precision : 16-bit
Duration : 00:20:12.79 = 53483863 samples = 90959 CDDA sectors
File Size : 38.4M
Bit Rate : 253k
Sample Encoding: MPEG audio (layer I, II or III)
Comments :
Title=Abyss of Desolation
Artist=CESSATION
Album=CESSATION
Tracknumber=1
Year=2021

[/more]

Register
(1) thenecromancer,
Jun 30 2021, 23:22:44 Melissa - Melissa [demo] (2021)


*Artist: Melissa
*Album: Melissa [demo]
*Year: 2021
*Genre: Black Metal/Blackened Punk
*Country: United States
*Format: mp3@CBR290kbps
*Size: 34MB

Tracklist:
1. Intro 00:30
2. Breonna 03:01
3. Jennifer 04:03
4. Jacob 03:59
5. Christopher 04:13
******************************
Total playing time: 15:46

[more=Extended info][youtube]https://youtu.be/rWsWjGeNJsg[/youtube]
[/more]

[more=Technical info]
Input File: Melissa - FP029 MELISSA - S-T - 05 A5 Christopher.mp3
Channels : 2
Sample Rate : 44100
Precision : 16-bit
Duration : 00:04:14.01 = 11202017 samples = 19051 CDDA sectors
File Size : 9.35M
Bit Rate : 294k
Sample Encoding: MPEG audio (layer I, II or III)
Comments :
Title=A5 Christopher
Artist=Melissa
Album=FP029 MELISSA - S/T
Tracknumber=5
Year=2021

[/more]

Register
(4) caro, dermarsoran, Olethros, wreak,

- Lo-Fi Version Support form
Copyrights and abuse reports form
Time is now: 4th December 2021 - 23:58:55