Welcome Guest ( Log In | Register )

Объявления

* gmail.com упорно продолжает считать почту с нас "unsolicited" и отбивает в том числе и письма активации, поэтому просьба использовать альтернативные почтовые ящики.
------------
* gmail.com continues reject all mail from us as "unsolicited" (activation mails too) therefore please use alternate mail servers.
История благодарностей участнику ZeroIISum ::: Спасибо сказали: 470 раз(а)
Дата поста: В теме: За сообщение: Спасибо сказали:
Oct 9 2023, 20:50:38 Mortvary Kvlt - The Throne Of Blasphemy... Is Arrived!!! [demo] (2009)
(1) rickzammuto,
Oct 7 2023, 02:06:47 Кистень - Головная Боль [ep] (2023)
(2) egortitov, Evrom,
Oct 24 2022, 22:36:21 Baphomorph - Baphomorph - I​,​ii​,​iii [compilation] (2022)


*Artist: Baphomorph
*Album: Baphomorph - I​,​ii​,​iii [compilation]
*Year: 2022
*Genre: Blackened Doom Metal
*Country: United States
*Format: mp3@CBR320kbps
*Size: 62MB

Tracklist:
1.Don't Try 03:54
2.Counterspell 01:36
3.No Longer Human 02:53
4.Gloomnivore 03:23
5.Indomitable 03:08
6.Power Word Heal 02:30
7.The Destroyers 03:18
8.The Apologists 04:12
******************************
Total playing time: 24:54



[more=Technical info]
Input File: Baphomorph - Baphomorph - I,II,III - 03 No Longer Human.mp3
Channels : 2
Sample Rate : 44100
Precision : 16-bit
Duration : 00:02:53.07 = 7632387 samples = 12980.2 CDDA sectors
File Size : 7.03M
Bit Rate : 325k
Sample Encoding: MPEG audio (layer I, II or III)
Comments :
Title=No Longer Human
Artist=Baphomorph
Album=Baphomorph - I,II,III
Tracknumber=3
Year=2022

[/more]

Register
(13) artscald, Grev, judaz, metala, Olethros, Razorbladeswaltz, robertho777, supremo, VALERY, varlam4, vlad74, wreak, Zer0,
Oct 24 2022, 13:14:34 Oathless One - Samhain (2022)


*Artist: Oathless One
*Album: Samhain
*Year: 2022
*Genre: Black Metal/Doom/Noise
*Country: United Kingdom
*Format: mp3@CBR320kbps
*Size: 100MB

Tracklist:
1.Samhain 15:08
2.Midwinter Bonfire 07:08
3.Vile Omen 08:46
4.Spectre of Ice and Snow 11:52
******************************
Total playing time: 42:54



[more=Technical info]
Input File: Oathless One - Samhain - 02 Midwinter Bonfire.mp3
Channels : 2
Sample Rate : 44100
Precision : 16-bit
Duration : 00:07:08.09 = 18878857 samples = 32106.9 CDDA sectors
File Size : 17.3M
Bit Rate : 324k
Sample Encoding: MPEG audio (layer I, II or III)
Comments :
Title=Midwinter Bonfire
Artist=Oathless One
Album=Samhain
Tracknumber=2
Year=2022

[/more]

Register
(7) AlexSmith, artscald, stormhatt, stub888, supremo, varlam4, wreak,
Oct 24 2022, 12:54:46 Sapo Negro - Ur​ó​boro [ep] (2022)


*Artist: Sapo Negro
*Album: Ur​ó​boro [ep]
*Year: 2022
*Genre: Black Metal
*Country: Spain
*Format: mp3@CBR320kbps
*Size: 18MB

Tracklist:
1.10 años de oscuridad 01:45
2.El desierto de los tártaros 02:40
3.No pertenezco a esto (Versión de Jerry's Kids) 01:32
4.El rey de la ceniza 01:55
******************************
Total playing time: 7:52



[more=Technical info]
Input File: SAPO NEGRO - Uróboro - 03 No pertenezco a esto (Versión de Jerry\'s Kids).mp3
Channels : 2
Sample Rate : 44100
Precision : 16-bit
Duration : 00:01:32.97 = 4100153 samples = 6973.05 CDDA sectors
File Size : 3.81M
Bit Rate : 328k
Sample Encoding: MPEG audio (layer I, II or III)
Comments :
Title=No pertenezco a esto (Versión de Jerry's Kids)
Artist=SAPO NEGRO
Album=Uróboro
Tracknumber=3
Year=2022

[/more]

Register
(11) artscald, judaz, Lord Of The Siths, nemx, Olethros, SilentNidhogg, stormhatt, VALERY, varlam4, vasiljev_sergej, wreak,
Oct 24 2022, 12:17:37 Nietzu - Monarch Of Sorrow (2021)


*Artist: Nietzu
*Album: Monarch Of Sorrow
*Year: 2021
*Genre: Atmospheric/Post-Black Metal
*Country: United Kingdom
*Format: mp3@CBR320kbps
*Size: 81MB

Tracklist:
1.Artifice of Meaning 04:52
2.Wounds Upon a Frigid Landscape 04:21
3.Simulacra (Interlude) 01:24
4.The Symbols Fall Away 07:53
5.Woodcutter 03:25
6.A Candle Ends 05:06
7.Fraxinus Noctis (Bonus Track) 05:21
******************************
Total playing time: 32:22



[more=Technical info]
Input File: Nietzu (Uk) - Monarch of Sorrow - 05 Woodcutter.mp3
Channels : 2
Sample Rate : 44100
Precision : 16-bit
Duration : 00:03:25.41 = 9058669 samples = 15405.9 CDDA sectors
File Size : 8.31M
Bit Rate : 324k
Sample Encoding: MPEG audio (layer I, II or III)
Comments :
Title=Woodcutter
Artist=Nietzu (Uk)
Album=Monarch of Sorrow
Tracknumber=5
Year=2021

[/more]

Register
(17) aleon, AlexSmith, artscald, bOOLty, Dante_D, kim666, kimkayoung, Olethros, randumbum, robertho777, sergsazan, stormhatt, supremo, VALERY, varlam4, vasiljev_sergej, wreak,
Oct 24 2022, 11:56:07 Dark Watcher - Hymns Of A Godless Land [ep] (2021)


*Artist: Dark Watcher
*Album: Hymns Of A Godless Land [ep]
*Year: 2021
*Genre: Black Metal
*Country: United States
*Format: mp3@CBR320kbps
*Size: 41MB

Tracklist:
1.Farewell To The Old West 05:00
2.Orb 07:08
3.A Devil On Yonder Ridge 04:36
******************************
Total playing time: 16:44



[more=Technical info]
Input File: Dark Watcher - Hymns Of A Godless Land - 03 A Devil On Yonder Ridge.mp3
Channels : 2
Sample Rate : 44100
Precision : 16-bit
Duration : 00:04:36.76 = 12204940 samples = 20756.7 CDDA sectors
File Size : 11.3M
Bit Rate : 326k
Sample Encoding: MPEG audio (layer I, II or III)
Comments :
Title=A Devil On Yonder Ridge
Artist=Dark Watcher
Album=Hymns Of A Godless Land
Tracknumber=3
Year=2021

[/more]

Register
(9) artscald, kim666, Olethros, SilentNidhogg, stormhatt, VALERY, varlam4, vasiljev_sergej, wreak,
Oct 21 2022, 23:29:53 Untergang - The "Fuck You All" [ep] (2010)
free download
(2) Wail, wendigo,
Oct 21 2022, 23:22:47 Mor - Hram Krvi I Praznine (2009)
free download
(1) wendigo,
Oct 21 2022, 18:39:12 Witches Forest - The Beauty Of Silence (2022)


*Artist: Witches Forest
*Album: The Beauty Of Silence
*Year: 2022
*Genre: Raw/Atmospheric Black Metal
*Country: United States
*Format: mp3@CBR320kbps
*Size: 93MB

Tracklist:
1. Infinity 03:01
2. Dawn of Melancholy 03:56
3. Into the Roes Bush 05:40
4. A Silver Blade 04:45
5. Tarde 05:14
6. The One Who Haunts These Roads 04:04
7. The Night Sky Reflecting in a Pond 04:49
8. Goodnight 02:17
9. And There was Silence 05:08
******************************
Total playing time: 38:54



[more=Technical info]
Input File: Witches Forest - The Beauty of Silence - 08 Goodnight.mp3
Channels : 2
Sample Rate : 44100
Precision : 16-bit
Duration : 00:02:17.54 = 6065602 samples = 10315.6 CDDA sectors
File Size : 5.69M
Bit Rate : 331k
Sample Encoding: MPEG audio (layer I, II or III)
Comments :
Title=Goodnight
Artist=Witches Forest
Album=The Beauty of Silence
Tracknumber=8
Year=2022

[/more]

Register
(17) aleon, AlexSmith, Altkiller, artscald, DeathDragon, kim666, legion01, metala, nemx, randumbum, robertho777, SilentNidhogg, stormhatt, supremo, varlam4, vasiljev_sergej, wreak,
Oct 21 2022, 18:31:28 Witches Forest - Witches Forest [ep] (2022)


*Artist: Witches Forest
*Album: Witches Forest [ep]
*Year: 2022
*Genre: Raw/Atmospheric Black Metal
*Country: United States
*Format: mp3@CBR320kbps
*Size: 37MB

Tracklist:
1. Witches Forest 04:21
2. Lurker 03:17
3 Blades Pierced my Heart 04:29
4. What Watches You 03:58
******************************
Total playing time: 16:05



[more=Technical info]
Input File: Witches Forest - Witches Forest - 02 Lurker.mp3
Channels : 2
Sample Rate : 44100
Precision : 16-bit
Duration : 00:03:17.50 = 8709574 samples = 14812.2 CDDA sectors
File Size : 7.98M
Bit Rate : 323k
Sample Encoding: MPEG audio (layer I, II or III)
Comments :
Title=Lurker
Artist=Witches Forest
Album=Witches Forest
Tracknumber=2
Year=2022

[/more]

Register
(15) aleon, artscald, DeathDragon, kim666, legion01, nemx, Olethros, randumbum, robertho777, SilentNidhogg, stormhatt, varlam4, vasiljev_sergej, Vitald, wreak,
Oct 21 2022, 10:19:42 Yahwist - В​е​й​м​а​р (2022)


*Artist: Yahwist
*Album: В​е​й​м​а​р
*Year: 2022
*Genre: Raw Black Metal/Punk
*Country: Russian Federation
*Format: mp3@CBR320kbps
*Size: 68MB

Tracklist:
1. Тропка Дурачества 02:51
2. Джук Джойнт 03:08
3. Веймар 02:34
4. О Любви 02:27
5. Потустороннее 02:02
6. Утроба 02:00
7. О Дальних Странствиях В Пределах Близких 01:58
8. Ниче Не Понял 01:42
9. Яхве Наказал 02:16
10. Память 02:32
11. Вопли 01:39
12. Death II (Pulp Cover) 03:55
******************************
Total playing time: 29:04



[more=Extended info]free download on bandcamp[/more]

[more=Technical info]
Input File: Yahwist - Веймар - 11 Вопли.mp3
Channels : 2
Sample Rate : 44100
Precision : 16-bit
Duration : 00:01:39.90 = 4405458 samples = 7492.28 CDDA sectors
File Size : 4.07M
Bit Rate : 326k
Sample Encoding: MPEG audio (layer I, II or III)
Comments :
Title=Вопли
Artist=Yahwist
Album=Веймар
Tracknumber=11
Year=2022

[/more]

Register
(11) AlexSmith, Aresson, artscald, dcatagua, elsunga, judaz, Olethros, SilentNidhogg, stormhatt, supremo, wreak,
Oct 20 2022, 19:44:34 Смертельная Нагрузка - С​о​б​а​ч​и​й С​в​и​с​т (2022)


*Artist: Смертельная Нагрузка
*Album: С​о​б​а​ч​и​й С​в​и​с​т
*Year: 2022
*Genre: Black Metal/Punk
*Country: Belarus
*Format: mp3@CBR320kbps
*Size: 46MB

Tracklist:
1.ИНТРО 02:35
2.НАВАЖДЕНИЕ 02:09
3.КРУГЛОЕ 02:12
4.ПРОСТУДА 02:36
5.СКИТ 01:03
6.СОБАЧИЙ СВИСТ 02:28
7.ИЛЛЮЗИЯ 04:13
******************************
Total playing time: 17:16



[more=Technical info]
Input File: СМЕРТЕЛЬНАЯ НАГРУЗКА - СОБАЧИЙ СВИСТ - 03 КРУГЛОЕ.mp3
Channels : 2
Sample Rate : 44100
Precision : 16-bit
Duration : 00:02:12.08 = 5824816 samples = 9906.15 CDDA sectors
File Size : 5.63M
Bit Rate : 341k
Sample Encoding: MPEG audio (layer I, II or III)
Comments :
Title=КРУГЛОЕ
Artist=СМЕРТЕЛЬНАЯ НАГРУЗКА
Album=СОБАЧИЙ СВИСТ
Tracknumber=3
Year=2022

[/more]

Register
(10) AlexSmith, Aresson, artscald, dcatagua, judaz, stormhatt, supremo, VALERY, varlam4, wreak,
Oct 20 2022, 18:35:51 Alkaphrah - Memorial [ep] (2022)


*Artist: Alkaphrah
*Album: Memorial [ep]
*Year: 2022
*Genre: Experimental Raw Black Metal/Ambient
*Country: Russian Federation
*Format: mp3@CBR320kbps
*Size: 77MB

Tracklist:
1.На Шестую Ночь 06:34
2.Память 10:25
3.Последние Проводы 06:34
4.Забвение 07:42
******************************
Total playing time: 31:15



[more=Technical info]
Input File: Alkaphrah - MEMORIAL - 01 На Шестую Ночь.mp3
Channels : 2
Sample Rate : 44100
Precision : 16-bit
Duration : 00:06:34.08 = 17378840 samples = 29555.9 CDDA sectors
File Size : 15.9M
Bit Rate : 322k
Sample Encoding: MPEG audio (layer I, II or III)
Comments :
Title=На Шестую Ночь
Artist=Alkaphrah
Album=MEMORIAL
Tracknumber=1
Year=2022

[/more]

Register
(12) AlexSmith, artscald, Emhyr var Emreis, Hell_Is_Here, metala, murian, Olethros, robertho777, SilentNidhogg, stormhatt, vasiljev_sergej, wreak,
Oct 20 2022, 18:22:08 Eltun - A La Sombra Del Pill​á​n (2022)


*Artist: Eltun
*Album: A La Sombra Del Pill​á​n
*Year: 2022
*Genre: Black Metal
*Country: Chile
*Format: mp3@CBR320kbps
*Size: 74MB

Tracklist:
1.Vientos de Desolación 05:31
2.El Viaje del Guerrero 03:41
3.En el Campo Entre Hualles (acustic) 01:34
4.A la Sombra del Pillán 03:52
5.Bajan con Antorchas ( re-recorded, 1553) 08:18
6.Negro Metal del Averno (re-recorded, Oscuros Bosques Paganos) 03:18
7.Funeral Ancestral 04:32
8.A las Profundidades con las Ánimas (Ambient) 00:58
******************************
Total playing time: 31:44



[more=Technical info]
Input File: Eltun - A la Sombra del Pillán - 03 En el Campo Entre Hualles (acustic).mp3
Channels : 2
Sample Rate : 44100
Precision : 16-bit
Duration : 00:01:34.99 = 4188883 samples = 7123.95 CDDA sectors
File Size : 3.93M
Bit Rate : 331k
Sample Encoding: MPEG audio (layer I, II or III)
Comments :
Title=En el Campo Entre Hualles (acustic)
Artist=Eltun
Album=A la Sombra del Pillán
Tracknumber=3
Year=2022

[/more]

Register
(12) AlexSmith, alikkon, artscald, dermarsoran, GAS, kim666, korovakaska, randumbum, VALERY, varlam4, vasiljev_sergej, wreak,
Oct 20 2022, 14:35:44 Glasyalabolas - The Immortal Warrior [ep] (2022)


*Artist: Glasyalabolas
*Album: The Immortal Warrior [ep]
*Year: 2022
*Genre: Black/Heavy Metal
*Country: Russian Federation
*Format: mp3@CBR320kbps
*Size: 60MB

Tracklist:
1.Crackle of Shields 06:04
2.Evil Spirits 06:22
3.The Immortal Warrior 05:25
4.Betrayal 07:56
******************************
Total playing time: 25:47



[more=Technical info]
Input File: Glasyalabolas - The Immortal Warrior - 03 The Immortal Warrior.mp3
Channels : 2
Sample Rate : 44100
Precision : 16-bit
Duration : 00:05:25.74 = 14365046 samples = 24430.4 CDDA sectors
File Size : 13.1M
Bit Rate : 323k
Sample Encoding: MPEG audio (layer I, II or III)
Comments :
Title=The Immortal Warrior
Artist=Glasyalabolas
Album=The Immortal Warrior
Tracknumber=3
Year=2022

[/more]

Register
(7) artscald, Carcharoth, stormhatt, stumpheavyrock, Vitald, Wail, wreak,
Oct 20 2022, 14:26:12 Glasyalabolas - Act I [demo] (2021)


*Artist: Glasyalabolas
*Album: Act I [demo]
*Year: 2021
*Genre: Black/Heavy Metal
*Country: Russian Federation
*Format: mp3@CBR320kbps
*Size: 43MB

Tracklist:
I 04:39
II 03:05
III 02:25
IV 07:48
******************************
Total playing time: 17:57



[more=Technical info]
Input File: Glasyalabolas - Act I - 03 III.mp3
Channels : 2
Sample Rate : 44100
Precision : 16-bit
Duration : 00:02:25.51 = 6416991 samples = 10913.2 CDDA sectors
File Size : 6.05M
Bit Rate : 333k
Sample Encoding: MPEG audio (layer I, II or III)
Comments :
Title=III
Artist=Glasyalabolas
Album=Act I
Tracknumber=3
Year=2021

[/more]

Register
(8) artscald, Carcharoth, Olethros, Razorbladeswaltz, stormhatt, stumpheavyrock, Wail, wreak,
Oct 17 2022, 17:35:37 Wormgod - Where Old Curses Rest (2022)


*Artist: Wormgod
*Album: Where Old Curses Rest
*Year: 2022
*Genre: Black Metal
*Country: Romania
*Format: mp3@CBR320kbps
*Size: 92MB

Tracklist:
1.My blood 03:33
2.The blossom of fear 05:31
3.Hunter’s wake 03:13
4.În vale 04:47
5.Failure’s Reign 04:10
6.Icon of sin 03:20
7.Olden crusade 04:28
8.Amorphous hate 04:45
9.Post-self apocalypse 05:34
******************************
Total playing time: 39:21



[more=Technical info]
Input File: WormGod - Where Old Curses Rest - 03 Hunter’s wake.mp3
Channels : 2
Sample Rate : 44100
Precision : 16-bit
Duration : 00:03:13.24 = 8521796 samples = 14492.9 CDDA sectors
File Size : 7.96M
Bit Rate : 329k
Sample Encoding: MPEG audio (layer I, II or III)
Comments :
Title=Hunter’s wake
Artist=WormGod
Album=Where Old Curses Rest
Tracknumber=3
Year=2022

[/more]

Register
(26) AlexSmith, Altkiller, artscald, BlackMirror, Cyrci, dermarsoran, judaz, kim666, Melusinara, Mencae77, MMMMM, Olethros, Papych, randumbum, robertho777, SilentNidhogg, Slammingmoji, stormhatt, supremo, unit731, VALERY, varlam4, vasiljev_sergej, wreak, yuratroll, Zer0,
Oct 16 2022, 20:06:25 Salqiu - The Colossal Weight Of My Illusion​.​.​. (2022)


*Artist: Salqiu
*Album: The Colossal Weight Of My Illusion​.​.​.
*Year: 2022
*Genre: Avant-Garde Black Metal
*Country: Brazil
*Format: mp3@CBR320kbps
*Size: 111MB

Tracklist:
1....Will Throw Me in Abyssal Disillusion 04:48
2.Pariah II 09:00
3.Interlude - As a Glimpse of Hope Eludes the Grasping Claws of My Misery 01:12
4.For I am Umbra, the Adumbration, the Shade of Antimatter 08:20
5.Slow it Down, Oh Lord 04:41
6....And the Devil Keeps on Playing Jazz 06:40
7.Greek Suite Closure - Mycenae 02:32
8.Outro - In My Darkest Moments 02:50
******************************
Total playing time: 40:03



[more=Technical info]
Input File: SALQIU - The Colossal Weight of My Illusion... - 07 Greek Suite Closure - Mycenae.mp3
Channels : 2
Sample Rate : 44100
Precision : 16-bit
Duration : 00:02:32.07 = 6706155 samples = 11405 CDDA sectors
File Size : 6.29M
Bit Rate : 331k
Sample Encoding: MPEG audio (layer I, II or III)
Comments :
Title=Greek Suite Closure - Mycenae
Artist=SALQIU
Album=The Colossal Weight of My Illusion...
Tracknumber=7
Year=2022

[/more]

Register
(22) A.L.Rapsod, AlexSmith, Altkiller, artscald, dermarsoran, Ignativs, kimkayoung, maochen, Mencae77, MMMMM, nikolay81, Olethros, randumbum, robertho777, SilentNidhogg, stormhatt, supremo, varlam4, vasiljev_sergej, Wail, wreak, Zer0,
Oct 16 2022, 17:24:26 Salqiu - Pariah (2022)


*Artist: Salqiu
*Album: Pariah
*Year: 2022
*Genre: Avant-Garde Black Metal
*Country: Brazil
*Format: mp3@CBR320kbps
*Size: 122MB

Tracklist:
1.A Greek Suite Part I - Fates 02:14
2.A Greek Suite Part II - Clothos 02:51
3.A Greek Suite Part III - Lachesis 03:36
4.A Greek Suite Part IV - Clothos Returns 02:59
5.A Greek Suite Part V - Atropos 02:25
6.God Broke His Contract To His Lamb 05:28
7.Pariah 10:47
8.The Mordant Fascination of a Murder (While the Devil Plays Jazz) 08:32
9.Death! That's Where I belong 04:33
******************************
Total playing time: 43:25



[more=Technical info]
Input File: SALQIU - Pariah - 01 A Greek Suite Part I - Fates.mp3
Channels : 2
Sample Rate : 44100
Precision : 16-bit
Duration : 00:02:14.85 = 5946929 samples = 10113.8 CDDA sectors
File Size : 5.52M
Bit Rate : 327k
Sample Encoding: MPEG audio (layer I, II or III)
Comments :
Title=A Greek Suite Part I - Fates
Artist=SALQIU
Album=Pariah
Tracknumber=1
Year=2022

[/more]

Register
(17) A.L.Rapsod, AlexSmith, Altkiller, artscald, fuoco, Ignativs, kimkayoung, Mencae77, Olethros, robertho777, SilentNidhogg, stormhatt, supremo, varlam4, vasiljev_sergej, Wail, wreak,
Oct 16 2022, 17:10:26 Salqiu - Ign​ó​bil (2021)


*Artist: Salqiu
*Album: Ign​ó​bil
*Year: 2021
*Genre: Avant-Garde Black Metal
*Country: Brazil
*Format: mp3@CBR320kbps
*Size: 113MB

Tracklist:
1.Ignóbil I 08:39
2.Ignóbil II 06:04
3.Ignóbil III 09:35
4.Ignóbil IV 07:36
5.Ignóbil V 11:47
******************************
Total playing time: 43:41



[more=Technical info]
Input File: SALQIU - Ignóbil - 02 Ignóbil II.mp3
Channels : 2
Sample Rate : 44100
Precision : 16-bit
Duration : 00:06:04.87 = 16090855 samples = 27365.4 CDDA sectors
File Size : 14.7M
Bit Rate : 322k
Sample Encoding: MPEG audio (layer I, II or III)
Comments :
Title=Ignóbil II
Artist=SALQIU
Album=Ignóbil
Tracknumber=2
Year=2021

[/more]

Register
(15) A.L.Rapsod, AlexSmith, Altkiller, artscald, fuoco, kimkayoung, Mencae77, Olethros, SilentNidhogg, stormhatt, supremo, varlam4, vasiljev_sergej, Wail, wreak,
Oct 16 2022, 09:58:21 Salqiu - Lazarus Denied (2021)


*Artist: Salqiu
*Album: Lazarus Denied
*Year: 2021
*Genre: Avant-Garde Black Metal
*Country: Brazil
*Format: mp3@CBR320kbps
*Size: 118MB

Tracklist:
1.Part I - A Glimpse Through Past Anguish 08:08
2.Part II - My Mind A Sea Of Smoke 06:44
3.Part III - The Unwanted Enlightenment 13:09
4.Part IV - Lazarus 09:00
5.Part V - These Walls Are Eternal 10:13
******************************
Total playing time: 47:14



[more=Technical info]
Input File: SALQIU - Lazarus Denied - 02 Part II - My Mind A Sea Of Smoke.mp3
Channels : 2
Sample Rate : 44100
Precision : 16-bit
Duration : 00:06:44.08 = 17820104 samples = 30306.3 CDDA sectors
File Size : 16.4M
Bit Rate : 325k
Sample Encoding: MPEG audio (layer I, II or III)
Comments :
Title=Part II - My Mind A Sea Of Smoke
Artist=SALQIU
Album=Lazarus Denied
Tracknumber=2
Year=2021

[/more]

Register
(19) A.L.Rapsod, AlexSmith, Altkiller, artscald, as71, dermarsoran, kimkayoung, Mencae77, Olethros, robertho777, Sanctus, SilentNidhogg, stormhatt, supremo, VALERY, varlam4, vasiljev_sergej, Wail, wreak,
Oct 16 2022, 09:41:14 Salqiu - Leukantu [ep] (2020)


*Artist: Salqiu
*Album: Leukantu [ep]
*Year: 2020
*Genre: Avant-Garde Black Metal
*Country: Brazil
*Format: mp3@CBR320kbps
*Size: 54MB

Tracklist:
1.Flos Iuventutis 03:54
2.Aqueles que de Leste Caminham 10:23
3.Os Penhascos da Serra Vistos do Poço do Inferno 08:34
******************************
Total playing time: 22:51



[more=Technical info]
Input File: SALQIU - Leukantu EP - 01 Flos Iuventutis.mp3
Channels : 2
Sample Rate : 44100
Precision : 16-bit
Duration : 00:03:54.75 = 10352431 samples = 17606.2 CDDA sectors
File Size : 9.52M
Bit Rate : 324k
Sample Encoding: MPEG audio (layer I, II or III)
Comments :
Title=Flos Iuventutis
Artist=SALQIU
Album=Leukantu EP
Tracknumber=1
Year=2020

[/more]

Register
(13) A.L.Rapsod, artscald, kimkayoung, Mencae77, Olethros, robertho777, Sanctus, SilentNidhogg, stormhatt, varlam4, vasiljev_sergej, Wail, wreak,
Oct 16 2022, 09:28:07 Salqiu - The Chaos Path [ep] (2020)


*Artist: Salqiu
*Album: The Chaos Path [ep]
*Year: 2020
*Genre: Avant-Garde Black Metal
*Country: Brazil
*Format: mp3@CBR320kbps
*Size: 63MB

Tracklist:
1.This Nude God That Mocks Me 04:11
2.I Am the Angel of Despair 07:27
3.Insanity in Every Drop of Water 05:25
4.Nullified, Forsaken, Voided... 04:58
******************************
Total playing time: 22:01



[more=Technical info]
Input File: SALQIU - The Chaos Path EP - 01 This Nude God That Mocks Me.mp3
Channels : 2
Sample Rate : 44100
Precision : 16-bit
Duration : 00:04:11.08 = 11072452 samples = 18830.7 CDDA sectors
File Size : 10.2M
Bit Rate : 324k
Sample Encoding: MPEG audio (layer I, II or III)
Comments :
Title=This Nude God That Mocks Me
Artist=SALQIU
Album=The Chaos Path EP
Tracknumber=1
Year=2020

[/more]

Register
(12) A.L.Rapsod, artscald, kimkayoung, Mencae77, Olethros, robertho777, SilentNidhogg, stormhatt, varlam4, vasiljev_sergej, Wail, wreak,
Oct 16 2022, 08:59:26 Salqiu - Oranssi Mies [ep] (2019)


*Artist: Salqiu
*Album: Oranssi Mies [ep]
*Year: 2019
*Genre: Avant-Garde Black Metal
*Country: Brazil
*Format: mp3@CBR320kbps
*Size: 32MB

Tracklist:
1.Maadoitettu Astronautti (Grounded Astronaut) 05:54
2.Ylivoimainen Mies (The Superior Man) 06:44
******************************
Total playing time: 12:38



[more=Technical info]
Input File: SALQIU - Oranssi Mies (EP) - 01 Maadoitettu Astronautti (Grounded Astronaut).mp3
Channels : 2
Sample Rate : 44100
Precision : 16-bit
Duration : 00:05:54.95 = 15653075 samples = 26620.9 CDDA sectors
File Size : 14.3M
Bit Rate : 322k
Sample Encoding: MPEG audio (layer I, II or III)
Comments :
Title=Maadoitettu Astronautti (Grounded Astronaut)
Artist=SALQIU
Album=Oranssi Mies (EP)
Tracknumber=1
Year=2019

[/more]

Register
(12) A.L.Rapsod, artscald, kimkayoung, Mencae77, Olethros, robertho777, SilentNidhogg, stormhatt, varlam4, vasiljev_sergej, Wail, wreak,

2 Pages V   1 2 >
- Lo-Fi Version Support form
Copyrights and abuse reports form
Time is now: 15th July 2024 - 21:38:50