Welcome Guest ( Log In | Register )

Объявления

* gmail.com упорно продолжает считать почту с нас "unsolicited" и отбивает в том числе и письма активации, поэтому просьба использовать альтернативные почтовые ящики.
------------
* gmail.com continues reject all mail from us as "unsolicited" (activation mails too) therefore please use alternate mail servers.
История благодарностей участнику Vismuth ::: Спасибо сказали: 748 раз(а)
Дата поста: В теме: За сообщение: Спасибо сказали:
May 6 2024, 15:46:18 Agares - At The Seven Cycle Of The Moon [ep] (2018)


*Artist: Agares
*Album: At The Seven Cycle Of The Moon [ep]
*Year: 2018
*Genre: Black Metal
*Country: Chile
*Format: mp3@CBR320kbps
*Size: 55MB

Tracklist:
01. At The Seven Cycle Of The Moon 05:37
02. The Forgotten Spectres 04:37
03. Among The Graves In A Land Once Time Forgotten 06:45
04. Those Haunted Woods 04:31
05. The Last Winter Moon 04:38
******************************
Total playing time: 26:09


 ! 

Mono
 


[more=Technical info]
Input File: 02. The Forgotten Spectres.mp3
Channels : 1
Sample Rate : 44100
Precision : 16-bit
Duration : 00:04:38.20 = 12268488 samples = 20864.8 CDDA sectors
File Size : 11.1M
Bit Rate : 320k
Sample Encoding: MPEG audio (layer I, II or III)
Comments :
Title=The Forgotten Spectres
Artist=Agares
Album=At The Seven Cycle Of The Moon (EP)
Tracknumber=02
Year=2018
Genre=Black Metal

[/more]

Register
(5) AlexSmith, Corpuscul, Grev, kim666, Wail,
May 2 2024, 16:58:53 Verminate - Mass Human Liquefaction [ep] (2024)


*Artist: Verminate
*Album: Mass Human Liquefaction [ep]
*Year: 2024
*Genre: Slamming Brutal Death Metal
*Country: Australia
*Format: mp3@CBR320kbps
*Size: 21MB

Tracklist:
01. Back Alley Fent Stare 01:20
02. Toolshed Dentistry 01:30
03. Devoured 01:51
04. Recreational Tax Fraud 03:25
******************************
Total playing time: 8:07

[more=Technical info]
Input File: 01. Back Alley Fent Stare.mp3
Channels : 2
Sample Rate : 48000
Precision : 16-bit
Duration : 00:01:20.21 = 3849984 samples ~ 6015.6 CDDA sectors
File Size : 3.72M
Bit Rate : 371k
Sample Encoding: MPEG audio (layer I, II or III)
Comments :
Title=Back Alley Fent Stare
Artist=Verminate
Album=Mass Human Liquefaction (EP)
Tracknumber=01
Year=2024
Genre=Slamming Brutal Death Metal

[/more]

Register
(4) artscald, infozahist, supremo, wreak,
May 2 2024, 16:17:50 Gomorrah's Ruin - Temple Of Profanation [demo] (2020)


*Artist: Gomorrah's Ruin
*Album: Temple Of Profanation [demo]
*Year: 2020
*Genre: Blackened Death Metal
*Country: Gibraltar
*Format: mp3@CBR192kbps
*Size: 11MB

Tracklist:
01. Ceremony Of The Gashes 02:16
02. Goatpiss Sacrament 02:25
03. Red Mist Nocturnal 03:16
******************************
Total playing time: 7:58

[more=Technical info]
Input File: 02. Goatpiss Sacrament.mp3
Channels : 2
Sample Rate : 44100
Precision : 16-bit
Duration : 00:02:25.07 = 6397631 samples = 10880.3 CDDA sectors
File Size : 3.54M
Bit Rate : 195k
Sample Encoding: MPEG audio (layer I, II or III)
Comments :
Title=Goatpiss Sacrament
Artist=Gomorrah's Ruin
Album=Temple Of Profanation (Demo)
Tracknumber=02
Year=2020
Genre=Blackened Death Metal

[/more]

Register
(1) Wail,
Apr 25 2024, 18:40:45 Dying Raven - The Rising Fire (2024)


*Artist: Dying Raven
*Album: The Rising Fire
*Year: 2024
*Genre: Depressive Black Metal
*Country: Moldova
*Format: mp3@CBR320kbps
*Size: 84MB

Tracklist:
01. Dark Clouds 08:21
02. The Gates Of Hell 08:55
03. Dancing Shadows 06:49
04. Cold Trees 06:25
******************************
Total playing time: 30:31

[more=Technical info]
Input File: 02. The Gates Of Hell.mp3
Channels : 2
Sample Rate : 44100
Precision : 16-bit
Duration : 00:08:55.10 = 23597822 samples = 40132.4 CDDA sectors
File Size : 24.4M
Bit Rate : 365k
Sample Encoding: MPEG audio (layer I, II or III)
Comments :
Title=The Gates Of Hell
Artist=Dying Raven
Album=The Rising Fire
Tracknumber=02
Year=2024
Genre=Depressive Âlack Metal

[/more]

Register
(14) aleon, AlexSmith, Altkiller, artscald, dcatagua, HMHamster, kim666, rabindranad, supremo, VALERY, vlad74, Wail, Weikai, wreak,
Apr 25 2024, 13:38:43 Moonshadow's Slave - Pantagruel's Dreams (2024)


*Artist: Moonshadow's Slave
*Album: Pantagruel's Dreams
*Year: 2024
*Genre: Depressive Black Metal
*Country: Greece
*Format: mp3@CBR320kbps
*Size: 52MB

Tracklist:
01. Damaged Lullaby 03:27
02. Deep Degenerative Lethargy 02:31
03. A Very Sad Disturbed Clown 06:09
04. Rotting Regicide 05:17
05. My Slowest Dance 05:04
******************************
Total playing time: 22:29

[more=Technical info]
Input File: 05. My Slowest Dance.mp3
Channels : 2
Sample Rate : 48000
Precision : 16-bit
Duration : 00:05:04.01 = 14592384 samples ~ 22800.6 CDDA sectors
File Size : 12.3M
Bit Rate : 324k
Sample Encoding: MPEG audio (layer I, II or III)
Comments :
Title=My Slowest Dance
Artist=Moonshadow's Slave
Album=Pantagruel's Dreams
Tracknumber=05
Year=2024
Genre=Depressive Black Metal

[/more]

Register
(11) aleon, artscald, Dante_D, HMHamster, kim666, metala, SilentNidhogg, supremo, VALERY, Weikai, wreak,
Apr 22 2024, 20:47:40 Pride Is Murder - Destripada Masa Corporal [ep] (2018)


*Artist: Pride Is Murder
*Album: Destripada Masa Corporal [ep]
*Year: 2018
*Genre: Slamming Brutal Death Metal
*Country: El Salvador
*Format: mp3@CBR320kbps
*Size: 33MB

Tracklist:
01. Extirpación Visceral 03:17
02. Aberrante Fantasia Zoofilica 03:18
03. Destripada Masa Corporal 02:19
04. Heladero Pedofilo Chancroso 02:22
05. Infección Uterina Por Herpes 02:37
******************************
Total playing time: 13:54

[more=Technical info]
Input File: 02. Aberrante Fantasia Zoofilica.mp3
Channels : 2
Sample Rate : 44100
Precision : 16-bit
Duration : 00:03:18.93 = 8772945 samples = 14920 CDDA sectors
File Size : 8.09M
Bit Rate : 325k
Sample Encoding: MPEG audio (layer I, II or III)
Comments :
Title=Aberrante Fantasia Zoofilica
Artist=Pride Is Murder
Album=Destripada Masa Corporal
Tracknumber=02
Year=2018
Genre=Slamming Brutal Death Metal

[/more]

Register
(1) grobator,
Apr 22 2024, 20:19:41 Cranioencephalic - A Bloody Night [ep] (2023)


*Artist: Cranioencephalic
*Album: A Bloody Night [ep]
*Year: 2023
*Genre: Slamming Brutal Death Metal
*Country: Brazil
*Format: mp3@CBR192kbps
*Size: 20MB

Tracklist:
01. Killer Baby 03:10
02. Organs Out 03:31
03. Suicide 03:08
04. Bloody Bath 02:45
05. A Bloody Night 01:29
******************************
Total playing time: 14:03

[more=Technical info]
Input File: 03. Suicide.mp3
Channels : 2
Sample Rate : 44100
Precision : 16-bit
Duration : 00:03:08.39 = 8307823 samples = 14129 CDDA sectors
File Size : 4.64M
Bit Rate : 197k
Sample Encoding: MPEG audio (layer I, II or III)
Comments :
Title=Suicide
Artist=Cranioencephalic
Album=A Bloody Night (EP)
Tracknumber=03
Year=2023
Genre=Slamming Brutal Death Metal

[/more]

Register
(3) Dante_D, grobator, uk82grind,
Apr 22 2024, 19:13:27 Suicide Theory - And Our Black Wounds Still Remains Silence... [demo] (2014)


*Artist: Suicide Theory
*Album: And Our Black Wounds Still Remains Silence... [demo]
*Year: 2014
*Genre: Raw/Depressive Black Metal
*Country: Indonesia
*Format: mp3@CBR192kbps
*Size: 39MB

Tracklist:
01. Depressed Wounded, The End... 04:37
02. Life's Killing Me 06:07
03. Pain In The Moon 04:26
04. A Bottle Of Poison 04:26
05. Welcome To The Pain Of The World 04:19
06. Into Gate My Of Nothingness 04:37
******************************
Total playing time: 28:32

[more=Technical info]
Input File: 02. Life\'s Killing Me.mp3
Channels : 2
Sample Rate : 48000
Precision : 16-bit
Duration : 00:06:07.10 = 17620992 samples ~ 27532.8 CDDA sectors
File Size : 8.85M
Bit Rate : 193k
Sample Encoding: MPEG audio (layer I, II or III)
Comments :
Title=Life's Killing Me
Artist=Suicide Theory
Album=And Our Black Wounds Still Remains Silence... (Demo)
Tracknumber=02
Year=2014
Genre=Depressive Black Metal

[/more]

Register
(5) aleon, Carcharoth, kim666, SilentNidhogg, Tyrone,
Apr 20 2024, 15:46:09 Santet & Istidraj - Verbis Diaboli (Raising High The Horns Ov Hell) [split] (2024)


*Artist: Santet & Istidraj
*Album: Verbis Diaboli (Raising High The Horns Ov Hell) [split]
*Year: 2024
*Genre: Melodic Black Metal | Black Metal
*Country: Indonesia | Singapore
*Format: mp3@CBR320kbps
*Size: 88MB

Tracklist:
01. Susuk (Curse Of Black Witch) 09:35
02. Roh Roworhontek 05:12
03. Black Fucking Mist 05:55
04. Belis Berholo Jiwo 06:38
05. Nyupang Nyi Blorong 06:24
06. Black Flags Of Khorasan 04:30
07. La Obe (The Swallows cover) 03:45
08. Zamhareer Of Jahannam 02:55
09. Verbis Diaboli 02:58
10. God Fukkin Sodomy Anno 2024 Bastardi 03:33
******************************
Total playing time: 51:30

[more=Technical info]
Input File: 06. Black Flags Of Khorasan.mp3
Channels : 1
Sample Rate : 44100
Precision : 16-bit
Duration : 00:04:30.59 = 11933063 samples = 20294.3 CDDA sectors
File Size : 10.9M
Bit Rate : 323k
Sample Encoding: MPEG audio (layer I, II or III)
Comments :
Title=Black Flags Of Khorasan
Artist=Istidraj
Album=Verbis Diaboli (Raising High The Horns Ov Hell) (Split)
Tracknumber=06
Year=2024
Genre=Black Metal

[/more]

Register
(7) dermarsoran, Grev, kim666, Lanceatum, SilentNidhogg, stormhatt, Wail,
Apr 20 2024, 13:28:01 Tulah - Forbidden Oath [ep] (2022)


*Artist: Tulah
*Album: Forbidden Oath [ep]
*Year: 2022
*Genre: Black/Thrash Metal
*Country: Malaysia
*Format: mp3@CBR192kbps
*Size: 28MB

Tracklist:
01. Darkness Is Thy Light 03:18
02. The Glory Of Satan 03:28
03. Curse Of The Damned 03:08
04. Soul Of Eternity 02:52
05. The Resilent Symbol 02:44
06. Forbidden Oath 03:54
******************************
Total playing time: 19:25

[more=Technical info]
Input File: 02. The Glory Of Satan.mp3
Channels : 2
Sample Rate : 44100
Precision : 16-bit
Duration : 00:03:28.11 = 9177651 samples = 15608.2 CDDA sectors
File Size : 5.16M
Bit Rate : 198k
Sample Encoding: MPEG audio (layer I, II or III)
Comments :
Title=The Glory Of Satan
Artist=Tulah
Album=Forbidden Oath (EP)
Tracknumber=02
Year=2022
Genre=Black Metal

[/more]

Register
(7) dermarsoran, Grev, metala, stumpheavyrock, Wail, wgs73, Xtohar,
Apr 19 2024, 19:06:44 Asathor - Vegvísir (2019)


*Artist: Asathor
*Album: Vegvísir
*Year: 2019
*Genre: Blackened Death/Viking Metal
*Country: Luxembourg
*Format: mp3@CBR320kbps
*Size: 66MB

Tracklist:
01. Vegvísir 01:32
02. Conquerors 06:18
03. Ginnungagap 05:39
04. The Calm Before The Storm 01:13
05. Naglfar 04:00
06. Menschenfleisch 04:33
07. Nazgûl 05:44
******************************
Total playing time: 28:59

[more=Technical info]
Input File: 03. Ginnungagap.mp3
Channels : 2
Sample Rate : 44100
Precision : 16-bit
Duration : 00:05:39.09 = 14953781 samples = 25431.6 CDDA sectors
File Size : 13.6M
Bit Rate : 321k
Sample Encoding: MPEG audio (layer I, II or III)
Comments :
Title=Ginnungagap
Artist=Asathor
Album=Vegvísir
Tracknumber=03
Year=2019
Genre=Blackened Death Metal; Viking Metal

[/more]

Register
(6) Cartman223, Grev, infozahist, metala, Surt, Wail,
Apr 19 2024, 15:40:43 GoatVomit Voidkvlt - GoatVomit Voidkvlt [demo] (2019)


*Artist: GoatVomit Voidkvlt
*Album: GoatVomit Voidkvlt [demo]
*Year: 2019
*Genre: Raw Black Metal
*Country: Croatia
*Format: mp3@CBR192kbps
*Size: 10MB

Tracklist:
01. Kvlt ov the Spectral Goat 03:45
02. Fvckwhore ov Satan 03:44
******************************
Total playing time: 7:29

[more=Technical info]
Input File: 02. Fvckwhore ov Satan.mp3
Channels : 2
Sample Rate : 44100
Precision : 16-bit
Duration : 00:03:44.07 = 9881619 samples = 16805.5 CDDA sectors
File Size : 5.41M
Bit Rate : 193k
Sample Encoding: MPEG audio (layer I, II or III)
Comments :
Title=Fvckwhore ov Satan
Artist=GoatVomit Voidkvlt
Album=GoatVomit Voidkvlt (Demo)
Tracknumber=02
Year=2019
Genre=Raw Black Metal

[/more]

Register
(6) Carcharoth, Grev, kim666, SilentNidhogg, uk82grind, Wail,
Apr 19 2024, 06:11:14 Oratorium - Kosac [ep] (2012)


*Artist: Oratorium
*Album: Kosac [ep]
*Year: 2012
*Genre: Black Metal
*Country: Croatia
*Format: mp3@CBR192kbps
*Size: 36MB

Tracklist:
01. Ognjišta Vječnih Kletvi 05:00
02. Crni Plamen 04:17
03. Prokleta Zemlja 02:48
04. Razjarena Djevica 03:58
05. Kolo Punog Mjeseca 10:19
******************************
Total playing time: 26:24

[more=Technical info]
Input File: 03. Prokleta Zemlja.mp3
Channels : 2
Sample Rate : 44100
Precision : 16-bit
Duration : 00:02:48.66 = 7437994 samples = 12649.6 CDDA sectors
File Size : 4.08M
Bit Rate : 194k
Sample Encoding: MPEG audio (layer I, II or III)
Comments :
Title=Prokleta Zemlja
Artist=Oratorium
Album=Kosac (EP)
Tracknumber=03
Year=2012
Genre=Black Metal

[/more]

Register
(5) Carcharoth, Grev, kim666, SilentNidhogg, Wail,
Apr 19 2024, 05:30:16 Epilectomy - Human Beef Roast (2018)


*Artist: Epilectomy
*Album: Human Beef Roast
*Year: 2018
*Genre: Brutal Death Metal/Goregrind
*Country: Uruguay
*Format: mp3@CBR256kbps
*Size: 39MB

Tracklist:
01. Decapitated By An Edger 02:06
02. Virulent Sick Hallucination By Alteration In The Encephalic System 02:02
03. Human Beef Roast 03:24
04. Deams With The Pig 02:25
05. Caminando Entre Huesos 03:02
06. Olor A Podrido 02:38
07. Suffocated By Sleep 02:16
08. Involuntary Murder 02:41
******************************
Total playing time: 20:35

[more=Technical info]
Input File: 02. Virulent Sick Hallucination By Alteration In The Encephalic System.mp3
Channels : 2
Sample Rate : 44100
Precision : 16-bit
Duration : 00:02:02.36 = 5396208 samples = 9177.22 CDDA sectors
File Size : 4.12M
Bit Rate : 269k
Sample Encoding: MPEG audio (layer I, II or III)
Comments :
Title=Virulent Sick Hallucination By Alteration In The Encephalic System
Artist=Epilectomy
Album=Human Beef Roast
Tracknumber=02
Year=2018
Genre=Brutal Death Metal; Goregrind

[/more]

Register
(3) grobator, jollo, Wail,
Apr 18 2024, 21:29:27 Collapsing Decay - Dominion Surge Ov Fallen Angel [demo] (2019)


*Artist: Collapsing Decay
*Album: Dominion Surge Ov Fallen Angel [demo]
*Year: 2019
*Genre: Blackened Death Metal
*Country: Myanmar
*Format: mp3@CBR192kbps
*Size: 29MB

Tracklist:
01. Intro 01:48
02. Temple Of Blood 03:16
03. Dominion Surge ov Fallen Angel 03:18
04. The Purge 03:08
05. Doom 03:28
06. Requiem 05:16
******************************
Total playing time: 20:14

[more=Technical info]
Input File: 03. Dominion Surge Ov Fallen Angel.mp3
Channels : 2
Sample Rate : 44100
Precision : 16-bit
Duration : 00:03:18.84 = 8768668 samples = 14912.7 CDDA sectors
File Size : 5.02M
Bit Rate : 202k
Sample Encoding: MPEG audio (layer I, II or III)
Comments :
Title=Dominion Surge ov Fallen Angel
Artist=Collapsing Decay
Album=Dominion Surge ov Fallen Angel (Demo)
Tracknumber=03
Year=2019
Genre=Death Metal

[/more]

Register
(3) Carcharoth, V_H_H_V, Wail,
Apr 18 2024, 20:46:04 Torturation - Pearly Penile Papule [ep] (2021)


*Artist: Torturation
*Album: Pearly Penile Papule [ep]
*Year: 2021
*Genre: Brutal Death Metal
*Country: Thailand
*Format: mp3@CBR320kbps
*Size: 57MB

Tracklist:
01. Pearly Penile Papule 02:04
02. Molluscum Contagiosum 02:06
03. Angiokeratomas Of Fordyce 02:40
04. Lymphogranuloma Venereum 03:55
05. Treponema Pallidum (Single 2021) 02:27
06. Slow Slicing (Demo 2020) 04:48
07. Lingering Death (Demo 2020) 03:45
08. Death By Thousand Cuts (Demo 2020) 02:36
******************************
Total playing time: 24:24

[more=Technical info]
Input File: 04. Lymphogranuloma Venereum.mp3
Channels : 2
Sample Rate : 44100
Precision : 16-bit
Duration : 00:04:01.54 = 10651738 samples = 18115.2 CDDA sectors
File Size : 9.66M
Bit Rate : 320k
Sample Encoding: MPEG audio (layer I, II or III)
Comments :
Title=Lymphogranuloma Venereum
Artist=Torturation
Album=Pearly Penile Papule (EP)
Tracknumber=04
Year=2021
Genre=Brutal Death Metal

[/more]

Register
(7) artscald, grobator, supremo, vyacheslav, Wail, wanderer73, wreak,
Apr 17 2024, 18:29:04 Rope In Forest - Lost In The Abyss Emotions [ep] (2022)


*Artist: Rope In Forest
*Album: Lost In The Abyss Emotions [ep]
*Year: 2022
*Genre: Atmospheric/Depressive Black Metal
*Country: Poland
*Format: mp3@CBR320kbps
*Size: 57MB

Tracklist:
01. Emptiness 08:05
02. Sadness 05:24
03. Last Light 06:27
04. Lonely Wanderer 05:34
******************************
Total playing time: 25:31

[more=Technical info]
Input File: 02. Sadness.mp3
Channels : 2
Sample Rate : 44100
Precision : 16-bit
Duration : 00:05:26.19 = 14384759 samples = 24463.9 CDDA sectors
File Size : 13.0M
Bit Rate : 320k
Sample Encoding: MPEG audio (layer I, II or III)
Comments :
Title=Sadness
Artist=Rope In Forest
Album=Lost In The Abyss Emotions (EP)
Tracknumber=02
Year=2022
Genre=Atmospheric/Depressive Black Metal

[/more]

Register
(5) AlexSmith, Dante_D, kim666, vlad74, Wail,
Apr 17 2024, 15:09:15 Damnatio Aeterna - Humana Fragilitas [ep] (2017)


*Artist: Damnatio Aeterna
*Album: Humana Fragilitas [ep]
*Year: 2017
*Genre: Depressive Black Metal
*Country: Italy
*Format: mp3@CBR320kbps
*Size: 64MB

Tracklist:
01. Intro 03:13
02. God Is Dead 09:31
03. Eternal Twilight 06:24
04. Ghost Of A Forgotten Love 07:23
05. Outro 01:57
******************************
Total playing time: 28:29

[more=Technical info]
Input File: 03. Eternal Twilight.mp3
Channels : 2
Sample Rate : 44100
Precision : 16-bit
Duration : 00:06:24.07 = 16937619 samples = 28805.5 CDDA sectors
File Size : 15.4M
Bit Rate : 321k
Sample Encoding: MPEG audio (layer I, II or III)
Comments :
Title=Eternal Twilight
Artist=Damnatio Aeterna
Album=Humana Fragilitas (EP)
Tracknumber=03
Year=2017
Genre=Depressive Black Metal

[/more]

Register
(7) AlexSmith, Carcharoth, kim666, thenecromancer, vasiljev_sergej, vlad74, Wail,
Apr 17 2024, 12:56:56 Sombres Souvenirs - Sombre Chemin [ep] (2024)


*Artist: Sombres Souvenirs
*Album: Sombre Chemin [ep]
*Year: 2024
*Genre: Depressive Black Metal/Instrumental
*Country: Belgium
*Format: mp3@CBR320kbps
*Size: 41MB

Tracklist:
01. Sombre Chemin I (Fuir Pour Oublier) 02:05
02. Sombre Chemin II (Paranoïa Et Déception) 06:01
03. Sombre Chemin III (Rêverie Douloureuse) 06:26
******************************
Total playing time: 14:32

[more=Technical info]
Input File: 02. Sombre Chemin II (Paranoïa Et Déception).mp3
Channels : 2
Sample Rate : 44100
Precision : 16-bit
Duration : 00:06:01.97 = 15962965 samples = 27147.9 CDDA sectors
File Size : 14.6M
Bit Rate : 323k
Sample Encoding: MPEG audio (layer I, II or III)
Comments :
Title=Sombre Chemin II (Paranoïa Et Déception)
Artist=Sombres Souvenirs
Album=Sombre Chemin (EP)
Tracknumber=02
Year=2024
Genre=Depressive Black Metal

[/more]

Register
(5) Dante_D, kim666, SilentNidhogg, vlad74, Wail,
Apr 17 2024, 12:38:49 Sombres Souvenirs - Souvenirs D'un Spectre (2023)


*Artist: Sombres Souvenirs
*Album: Souvenirs D'un Spectre
*Year: 2023
*Genre: Depressive Black Metal
*Country: Belgium
*Format: mp3@CBR320kbps
*Size: 56MB

Tracklist:
01. C.12 00:38
02. Dernier Rayon De Lumière 03:39
03. Ne Me Laisse Pas Seul Ici... 03:03
04. Rêve Lucide 02:28
05. Cauchemar Lucide 04:44
06. Souvenirs D'un Spectre 09:20
******************************
Total playing time: 23:52

[more=Technical info]
Input File: 03. Ne Me Laisse Pas Seul Ici....mp3
Channels : 2
Sample Rate : 44100
Precision : 16-bit
Duration : 00:03:03.86 = 8108182 samples = 13789.4 CDDA sectors
File Size : 7.43M
Bit Rate : 323k
Sample Encoding: MPEG audio (layer I, II or III)
Comments :
Title=Ne Me Laisse Pas Seul Ici...
Artist=Sombres Souvenirs
Album=Souvenirs D'un Spectre
Tracknumber=03
Year=2023
Genre=Depressive Black Metal

[/more]

Register
(11) aleon, AlexSmith, artscald, Dante_D, kim666, metala, SilentNidhogg, supremo, VALERY, vlad74, wreak,
Apr 16 2024, 18:03:46 Misanthropia - ...??? [ep] (2023)


*Artist: Misanthropia
*Album: ...??? [ep]
*Year: 2023
*Genre: Depressive Black Metal
*Country: Bosnia and Herzegovina
*Format: mp3@CBR192kbps
*Size: 35MB

Tracklist:
01. ...??? 01:36
02. Are You Happy 02:36
03. Bezdan 07:05
04. Depths Of Mind 04:09
05. External Solitude 02:56
06. Im Fucking Sorry 07:06
******************************
Total playing time: 25:28

[more=Technical info]
Input File: 04. Depths Of Mind.mp3
Channels : 2
Sample Rate : 44100
Precision : 16-bit
Duration : 00:04:09.73 = 11012961 samples = 18729.5 CDDA sectors
File Size : 6.03M
Bit Rate : 193k
Sample Encoding: MPEG audio (layer I, II or III)
Comments :
Title=Depths Of Mind
Artist=Misanthropia
Album=...??? (EP)
Tracknumber=04
Year=2023
Genre=Depressive Black Metal

[/more]

Register
(6) aleon, kim666, Reverend, SilentNidhogg, vlad74, Wail,
Apr 16 2024, 18:02:37 Misanthropia - Through The Dark Path [ep] (2023)


*Artist: Misanthropia
*Album: Through The Dark Path [ep]
*Year: 2023
*Genre: Depressive Black Metal/Dark Ambient
*Country: Bosnia and Herzegovina
*Format: mp3@CBR192kbps
*Size: 10MB

Tracklist:
01. Introduction 00:45
02. Untilted Dream 03:28
03. Through The Dark Path 02:52
******************************
Total playing time: 7:06

[more=Technical info]
Input File: 03. Through The Dark Path.mp3
Channels : 2
Sample Rate : 44100
Precision : 16-bit
Duration : 00:02:52.48 = 7606192 samples = 12935.7 CDDA sectors
File Size : 4.31M
Bit Rate : 200k
Sample Encoding: MPEG audio (layer I, II or III)
Comments :
Title=Through The Dark Path
Artist=Misanthropia
Album=Through The Dark Path (EP)
Tracknumber=03
Year=2023
Genre=Depressive Black Metal

[/more]

Register
(6) aleon, kim666, Reverend, SilentNidhogg, vlad74, Wail,
Apr 16 2024, 18:01:03 Misanthropia - Crucifixion [demo] (2023)


*Artist: Misanthropia
*Album: Crucifixion [demo]
*Year: 2023
*Genre: Depressive Black Metal
*Country: Bosnia and Herzegovina
*Format: mp3@CBR192kbps
*Size: 15MB

Tracklist:
01. Intro 01:51
02. Dead Dream 03:49
03. Silence 01:41
04. Forgotten Souls 02:20
******************************
Total playing time: 9:41

[more=Technical info]
Input File: 02. Dead Dream.mp3
Channels : 2
Sample Rate : 44100
Precision : 16-bit
Duration : 00:03:49.19 = 10107411 samples = 17189.5 CDDA sectors
File Size : 5.82M
Bit Rate : 203k
Sample Encoding: MPEG audio (layer I, II or III)
Comments :
Title=Dead Dream
Artist=Misanthropia
Album=Crucifixion (Demo)
Tracknumber=02
Year=2023
Genre=Depressive Black Metal

[/more]

Register
(5) kim666, Reverend, SilentNidhogg, vlad74, Wail,
Apr 15 2024, 19:11:39 Chullpa - Iconos De Destrucción (2008)


*Artist: Chullpa
*Album: Iconos De Destrucción
*Year: 2008
*Genre: Death Metal
*Country: Bolivia
*Format: mp3@CBR320kbps
*Size: 86MB

Tracklist:
01. Momia 04:51
02. En Tu Mundo 04:02
03. Tierra 04:58
04. Bañado Con Sangre Inocente 06:00
05. Absorción De Vidas 05:01
06: Animal Indefenso Oculto 07:00
07. Un Solo Poder 05:31
08. Falsos Dioses 03:31
09. Equilibrio Destruido 05:34
******************************
Total playing time: 46:28

[more=Technical info]
Input File: 05. Absorción De Vidas.mp3
Channels : 2
Sample Rate : 44100
Precision : 16-bit
Duration : 00:05:01.08 = 13277408 samples = 22580.6 CDDA sectors
File Size : 9.73M
Bit Rate : 259k
Sample Encoding: MPEG audio (layer I, II or III)
Comments :
Title=Absorción De Vidas
Artist=Chullpa
Album=Iconos De Destrucción
Tracknumber=05
Year=2008
Genre=Death Metal

[/more]

Register
(3) Carcharoth, jollo, Wail,
Apr 15 2024, 18:57:23 Gyötrelem - A Halál Időtlen Óceánja (2021)


*Artist: Gyötrelem
*Album: A Halál Időtlen Óceánja
*Year: 2021
*Genre: Black Metal
*Country: Hungary
*Format: mp3@CBR320kbps
*Size: 93MB

Tracklist:
01. Lélektelen Sötét Lebegés 06:36
02. A Halál Magva 03:23
03. Elpisztul Minden 05:55
04. A Halál Királysága 04:06
05. A Jelen Börtönében05:56
06. Háborgó Mély Üresség 03:01
07. Halálhozó 04:10
08. Mikor Öszeroskad A Mindenség 06:40
******************************
Total playing time: 39:47

[more=Technical info]
Input File: 04. A Halál Királysága.mp3
Channels : 2
Sample Rate : 48000
Precision : 16-bit
Duration : 00:04:06.12 = 11813760 samples ~ 18459 CDDA sectors
File Size : 10.1M
Bit Rate : 330k
Sample Encoding: MPEG audio (layer I, II or III)
Comments :
Title=A Halál Királysága
Artist=Gyötrelem
Album=A Halál Időtlen Óceánja
Tracknumber=04
Year=2021
Genre=Black Metal

[/more]

Register
(16) AlexSmith, Altkiller, artscald, Carcharoth, Necromag, Rita, SilentNidhogg, SlimBZ, stormhatt, supremo, the_cleanser, VALERY, vovenom, Wail, wreak, ZambuL,

6 Pages V   1 2 3 > » 
- Lo-Fi Version Support form
Copyrights and abuse reports form
Time is now: 25th May 2024 - 19:02:04