Welcome Guest ( Log In | Register )

Объявления

* gmail.com упорно продолжает считать почту с нас "unsolicited" и отбивает в том числе и письма активации, поэтому просьба использовать альтернативные почтовые ящики.
------------
* gmail.com continues reject all mail from us as "unsolicited" (activation mails too) therefore please use alternate mail servers.
История благодарностей участнику Vismuth ::: Спасибо сказали: 754 раз(а)
Дата поста: В теме: За сообщение: Спасибо сказали:
May 5 2022, 17:31:54 Neamh​-Mharbh - Tundra Ablaze (2020)


*Artist: Neamh​-​Mharbh
*Album: Tundra Ablaze
*Year: 2020
*Genre: Black/Folk Metal
*Country: Ireland
*Format: mp3@CBR320kbps
*Size: 89MB

Tracklist:
01. Ancestors 03:08
02. Pestilent Horde 02:46
03. Pathologic 06:54
04. Tundra Ablaze 08:55
05. The Thaw 05:30
06. Lá Na Fola 05:47
07. Astral Pyre 05:22
******************************
Total playing time: 38:22

[more=Technical info]
Input File: 04. Tundra Ablaze.mp3
Channels : 2
Sample Rate : 44100
Precision : 16-bit
Duration : 00:08:59.97 = 23812809 samples = 40498 CDDA sectors
File Size : 21.6M
Bit Rate : 320k
Sample Encoding: MPEG audio (layer I, II or III)
Comments :
Title=Tundra Ablaze
Artist=Neamh-Mharbh
Album=Tundra Ablaze
Tracknumber=04
Year=2020
Genre=Black Metal

[/more]

Register
(23) AlexSmith, artscald, caro, Cartman223, chipsgott, csgmnk, Danilodanilo, gwar, metala, metalwoman, Mogozoz, nsk2008, oldvarg, Olethros, Shadechaser, SilentNidhogg, stormhatt, supremo, Surt, VALERY, varlam4, vasiljev_sergej, wreak,

6 Pages V  « < 4 5 6
- Lo-Fi Version Support form
Copyrights and abuse reports form
Time is now: 17th June 2024 - 09:29:35