Welcome Guest ( Log In | Register )

Объявления

* gmail.com упорно продолжает считать почту с нас "unsolicited" и отбивает в том числе и письма активации, поэтому просьба использовать альтернативные почтовые ящики.
------------
* gmail.com continues reject all mail from us as "unsolicited" (activation mails too) therefore please use alternate mail servers.
История благодарностей участнику Vismuth ::: Спасибо сказали: 754 раз(а)
Дата поста: В теме: За сообщение: Спасибо сказали:
Apr 14 2024, 18:28:37 Broyeur D'Enfance - Suicide Social (2022)


*Artist: Broyeur D'Enfance
*Album: Suicide Social
*Year: 2022
*Genre: Depressive Black Metal
*Country: France
*Format: mp3@CBR256kbps
*Size: 77MB

Tracklist:
01. De Retour Dans Le Broyeur... 01:05
02. Liberté, Egalité & Suicide Assisté 08:53
03. Zémus Ou Les 365 Jours D'ivresse 05:25
04. Funérailles De Ma Blonde 02:03
05. Les Larmes De Christine 06:59
06. Amis De La Mélancolie 07:52
07. Mourir Sur Seine (Ode À La Solitude) 01:30
08. Suicide Social 07:49
******************************
Total playing time: 41:36

[more=Technical info]
Input File: 03. Zémus Ou Les 365 Jours D\'ivresse.mp3
Channels : 2
Sample Rate : 44100
Precision : 16-bit
Duration : 00:05:25.13 = 14338409 samples = 24385 CDDA sectors
File Size : 10.5M
Bit Rate : 259k
Sample Encoding: MPEG audio (layer I, II or III)
Comments :
Title=Zémus Ou Les 365 Jours D'ivresse
Artist=Broyeur D'Enfance
Album=Suicide Social
Tracknumber=03
Year=2022
Genre=Depressive Black Metal

[/more]

Register
(8) aleon, Dante_D, dermarsoran, kim666, metala, Reverend, vlad74, Wail,
Apr 14 2024, 18:27:19 Broyeur D'Enfance - Suicide Sentimental (2021)


*Artist: Broyeur D'Enfance
*Album: Suicide Sentimental
*Year: 2021
*Genre: Depressive Black Metal
*Country: France
*Format: mp3@CBR256kbps
*Size: 68MB

Tracklist:
01. Dans Le Broyeur... 03:32
02. Amour, Le Berceau De La Haine 06:56
03. La Mélancolie Du Quotidien 04:16
04. Scarifié Par Ton Bonheur 06:17
05. Ode À Metal Noir! 03:33
06. J'irai Dégueuler Ma Haine Sur Ta Tombe 04:02
07. Suicide Sentimental 08:33
******************************
Total playing time: 37:09

[more=Technical info]
Input File: 05. Ode À Metal Noir!.mp3
Channels : 2
Sample Rate : 44100
Precision : 16-bit
Duration : 00:03:33.06 = 9396122 samples = 15979.8 CDDA sectors
File Size : 6.85M
Bit Rate : 257k
Sample Encoding: MPEG audio (layer I, II or III)
Comments :
Title=Ode À Metal Noir!
Artist=Broyeur D'Enfance
Album=Suicide Sentimental
Tracknumber=05
Year=2021
Genre=Depressive Black Metal

[/more]

Register
(6) aleon, Dante_D, kim666, Reverend, vlad74, Wail,
Apr 11 2024, 18:47:00 Ashur - Divine Retribution (2023)


*Artist: Ashur
*Album: Divine Retribution
*Year: 2023
*Genre: Black Metal
*Country: Morocco
*Format: mp3@CBR320kbps
*Size: 95MB

Tracklist:
01. A Secret Of Eternity 02:16
02. ʿĀd Of The Pillars 04:55
03. Echoes Of Iram 05:25
04. Regret Of Wickedness 06:48
05. Divine Retribution 06:03
06. Arid Anguish 06:41
07. Dunes Of Destiny 07:59
08. Outro 01:12
******************************
Total playing time: 41:19

[more=Technical info]
Input File: 03. Echoes Of Iram.mp3
Channels : 2
Sample Rate : 44100
Precision : 16-bit
Duration : 00:05:25.09 = 14336249 samples = 24381.4 CDDA sectors
File Size : 13.1M
Bit Rate : 323k
Sample Encoding: MPEG audio (layer I, II or III)
Comments :
Title=Echoes Of Iram
Artist=Ashur
Album=Divine Retribution
Tracknumber=03
Year=2023
Genre=Black Metal

[/more]

Register
(6) AlexSmith, kim666, Sanctus, SilentNidhogg, VALERY, Wail,
Apr 11 2024, 16:17:11 Marghöfða Dýrið - Djöfladýrkun Undir Jökli [ep] (2017)


*Artist: Marghöfða Dýrið
*Album: Djöfladýrkun Undir Jökli [ep]
*Year: 2017
*Genre: Black Metal
*Country: Iceland
*Format: mp3@CBR192kbps
*Size: 28MB

Tracklist:
01. Djöfladýrkun Undir Jökli 20:45
******************************
Total playing time: 20:45

[more=Technical info]
Input File: 01. Djöfladýrkun Undir Jökli.mp3
Channels : 2
Sample Rate : 44100
Precision : 16-bit
Duration : 00:20:45.87 = 54942867 samples = 93440.2 CDDA sectors
File Size : 30.2M
Bit Rate : 194k
Sample Encoding: MPEG audio (layer I, II or III)
Comments :
Title=Djöfladýrkun Undir Jökli
Artist=Marghöfða Dýrið
Album=Djöfladýrkun Undir Jökli (EP)
Tracknumber=01
Year=2017
Genre=Black Metal

[/more]

Register
(8) cancer1974, Carcharoth, kim666, Sanctus, Surt, thenecromancer, Wail, yuratroll,
Apr 10 2024, 16:02:27 Paguba - I (The Occurance) (EP) [ep] (2020)


*Artist: Paguba
*Album: I (The Occurance) (EP) [ep]
*Year: 2020
*Genre: Black Metal
*Country: Bulgaria
*Format: mp3@CBR320kbps
*Size: 34MB

Tracklist:
01. I (The Fruits Of Existence) 03:56
02. II (The Woods Of Agony) 03:21
03. III (Symbol Of Fertility And Dirt) 04:12
04. IV (The Achievement Of Ours) 03:08
******************************
Total playing time: 14:37

[more=Technical info]
Input File: 01. I (The Fruits Of Existence).mp3
Channels : 2
Sample Rate : 44100
Precision : 16-bit
Duration : 00:03:56.11 = 10412319 samples = 17708 CDDA sectors
File Size : 9.49M
Bit Rate : 322k
Sample Encoding: MPEG audio (layer I, II or III)
Comments :
Title=I (The Fruits Of Existence)
Artist=Paguba
Album=I (The Occurance) (EP)
Tracknumber=01
Year=2020
Genre=Black Metal

[/more]

Register
(4) Grev, kim666, SilentNidhogg, Wail,
Apr 8 2024, 11:17:27 Niemalsland - Weltenflug (2012)


*Artist: Niemalsland
*Album: Weltenflug
*Year: 2012
*Genre: Depressive Black Metal
*Country: Germany
*Format: mp3@CBR256kbps
*Size: 70MB

Tracklist:
01. Einklang 01:41
02. Ein Wort ins Nichts 07:15
03. Weltenflug 10:58
04. Geist In Eitelkeit 07:26
05. Die Tore 2012 - Dedicated To Mike 12:52
******************************
Total playing time: 40:14

[more=Technical info]
Input File: 04. Geist In Eitelkeit.mp3
Channels : 2
Sample Rate : 44100
Precision : 16-bit
Duration : 00:07:26.98 = 19711598 samples = 33523.1 CDDA sectors
File Size : 14.6M
Bit Rate : 261k
Sample Encoding: MPEG audio (layer I, II or III)
Comments :
Title=Geist In Eitelkeit
Artist=Niemalsland
Album=Weltenflug
Tracknumber=04
Year=2015
Genre=Depressive Black Metal

[/more]

Register
(6) aleon, Carcharoth, kim666, Sanctus, SilentNidhogg, vlad74,
Apr 8 2024, 10:43:08 Nachtqual - Disharmonie Innerer Welten [ep] (2016)


*Artist: Nachtqual
*Album: Disharmonie Innerer Welten [ep]
*Year: 2016
*Genre: Depressive Black Metal
*Country: Germany
*Format: mp3@CBR256kbps
*Size: 26MB

Tracklist:
01. Disharmonie Innerer Welten 03:29
02. Rushmoon 02:31
03. Fern 03:28
04. Verkrüppelte Seele 04:44
******************************
Total playing time: 14:12

[more=Technical info]
Input File: 03. Fern.mp3
Channels : 2
Sample Rate : 44100
Precision : 16-bit
Duration : 00:03:28.07 = 9176063 samples = 15605.5 CDDA sectors
File Size : 6.70M
Bit Rate : 258k
Sample Encoding: MPEG audio (layer I, II or III)
Comments :
Title=Fern
Artist=Nachtqual
Album=Disharmonie Innerer Welten (EP)
Tracknumber=03
Year=2016
Genre=Depressive Black Metal

[/more]

Register
(7) aleon, Carcharoth, dermarsoran, khestanow3001, kim666, SilentNidhogg, vlad74,
Apr 8 2024, 09:22:12 Goat Oath - Morgenkulde (2021)


*Artist: Goat Oath
*Album: Morgenkulde
*Year: 2021
*Genre: Depressive Black Metal
*Country: Denmark
*Format: mp3@CBR192kbps
*Size: 83MB

Tracklist:
01. My Life Dismissed 10:14
02. As The Light Goes Out 09:13
03. To Have Never Lived 08:18
04. Inside 02:54
05. Morgenkulde 08:46
06. The Long Walk 11:22
07. Den Sidste Udvej 09:10
******************************
Total playing time: 59:57

[more=Technical info]
Input File: 06. The Long Walk.mp3
Channels : 2
Sample Rate : 44100
Precision : 16-bit
Duration : 00:11:22.12 = 30081536 samples = 51159.1 CDDA sectors
File Size : 16.5M
Bit Rate : 193k
Sample Encoding: MPEG audio (layer I, II or III)
Comments :
Title=The Long Walk
Artist=Goat Oath
Album=Morgenkulde
Tracknumber=06
Year=2021
Genre=Depressive Black Metal

[/more]

Register
(6) aleon, Grev, kim666, SilentNidhogg, Tyrone, vlad74,
Apr 7 2024, 15:37:07 Foraoisí Gan Iniúchadh - Isolation (2022)


*Artist: Foraoisí Gan Iniúchadh
*Album: Isolation
*Year: 2022
*Genre: Depressive Black Metal
*Country: Ireland
*Format: mp3@CBR256kbps
*Size: 72MB

Tracklist:
01. Everything Turns To Black 06:32
02. See The Sun Rise 06:25
03. Pink Mist 04:30
04. Sixteen 02:24
05. The Awakening 04:55
06. The Kingdom Will Die 07:08
07. The Souls Of The Damned 04:21
08. Epilogue 03:01
******************************
Total playing time: 39:17

[more=Technical info]
Input File: 05. The Awakening.mp3
Channels : 2
Sample Rate : 44100
Precision : 16-bit
Duration : 00:04:55.07 = 13012411 samples = 22130 CDDA sectors
File Size : 9.51M
Bit Rate : 258k
Sample Encoding: MPEG audio (layer I, II or III)
Comments :
Title=The Awakening
Artist=Foraoisí Gan Iniúchadh
Album=Isolation
Tracknumber=05
Year=2022
Genre=Depressive Black Metal

[/more]

Register
(9) aleon, Carcharoth, Dante_D, kim666, metala, rominow, SilentNidhogg, Tyrone, vlad74,
Apr 7 2024, 14:22:52 Möhryäk - Westbound [demo] (2022)


*Artist: Möhryäk
*Album: Westbound [demo]
*Year: 2022
*Genre: Black Metal
*Country: Ireland
*Format: mp3@CBR320kbps
*Size: 20MB

Tracklist:
01. Westbound 04:29
02. Execution 04:15
******************************
Total playing time: 8:44

[more=Technical info]
Input File: 02. Execution.mp3
Channels : 2
Sample Rate : 44100
Precision : 16-bit
Duration : 00:04:15.78 = 11279854 samples = 19183.4 CDDA sectors
File Size : 10.3M
Bit Rate : 322k
Sample Encoding: MPEG audio (layer I, II or III)
Comments :
Title=Execution
Artist=Möhryäk
Album=Westbound (Demo)
Tracknumber=02
Year=2022
Genre=Black Metal

[/more]

Register
(3) kim666, SilentNidhogg, Wail,
Apr 6 2024, 19:15:53 Šuma - Izolacija [ep] (2021)


*Artist: Šuma
*Album: Izolacija [ep]
*Year: 2021
*Genre: Atmospheric Black Metal
*Country: Croatia
*Format: mp3@CBR320kbps
*Size: 60MB

Tracklist:
01. One More Day 06:59
02. Katakombe 02:41
03. Ophiolite 07:12
04. Isolate 05:43
05. Regresija 03:47
******************************
Total playing time: 26:22

[more=Technical info]
Input File: 03. Ophiolite.mp3
Channels : 2
Sample Rate : 44100
Precision : 16-bit
Duration : 00:07:12.09 = 19055125 samples = 32406.7 CDDA sectors
File Size : 17.3M
Bit Rate : 321k
Sample Encoding: MPEG audio (layer I, II or III)
Comments :
Title=Ophiolite
Artist=Šuma
Album=Izolacija (EP)
Tracknumber=03
Year=2021
Genre=Atmospheric Black Metal

[/more]

Register
(6) aleon, AlexSmith, kim666, SilentNidhogg, vlad74, Wail,
Apr 6 2024, 15:36:16 Less Beauty - Obsessed [ep] (2021)


*Artist: Less Beauty
*Album: Obsessed [ep]
*Year: 2021
*Genre: Raw/Depressive Black Metal
*Country: Romania
*Format: mp3@CBR320kbps
*Size: 56MB

Tracklist:
01. You Are Mine 04:51
02. She Is K... 04:31
03. I Don't Want To Exist Anymore 03:27
04. Mi Amor Es Para Ti 06:20
05. The Darkness 02:09
06. Infinite 01:49
******************************
Total playing time: 23:10

[more=Technical info]
Input File: 03. I Don\'t Want To Exist Anymore.mp3
Channels : 2
Sample Rate : 44100
Precision : 16-bit
Duration : 00:03:43.32 = 9848368 samples = 16748.9 CDDA sectors
File Size : 8.93M
Bit Rate : 320k
Sample Encoding: MPEG audio (layer I, II or III)
Comments :
Title=I Don't Want To Exist Anymore
Artist=Less Beauty
Album=Obsessed (EP)
Tracknumber=03
Year=2021
Genre=Depressive Black Metal

[/more]

Register
(3) AlexSmith, SilentNidhogg, vlad74,
Apr 6 2024, 15:34:00 Less Beauty - Loner [ep] (2021)


*Artist: Less Beauty
*Album: Loner [ep]
*Year: 2021
*Genre: Raw/Depressive Black Metal
*Country: Romania
*Format: mp3@CBR192kbps
*Size: 13MB

Tracklist:
01. My Last Night 06:05
02. Wait for Me 03:21
******************************
Total playing time: 9:26

[more=Technical info]
Input File: 02. Wait for Me.mp3
Channels : 2
Sample Rate : 44100
Precision : 16-bit
Duration : 00:03:21.63 = 8891927 samples = 15122.3 CDDA sectors
File Size : 4.88M
Bit Rate : 194k
Sample Encoding: MPEG audio (layer I, II or III)
Comments :
Title=Wait for Me
Artist=Less Beauty
Album=Loner (EP)
Tracknumber=02
Year=2021
Genre=Depressive Black Metal

[/more]

Register
(2) SilentNidhogg, vlad74,
Apr 6 2024, 15:31:38 Less Beauty - Empty [ep] (2020)


*Artist: Less Beauty
*Album: Empty [ep]
*Year: 2020
*Genre: Raw/Depressive Black Metal
*Country: Romania
*Format: mp3@CBR192kbps
*Size: 13MB

Tracklist:
01. Empty Words 03:30
02. The Comedown 03:39
03. Noche De Lluvia Sin Ti 02:09
******************************
Total playing time: 9:19

[more=Technical info]
Input File: 02. The Comedown.mp3
Channels : 2
Sample Rate : 44100
Precision : 16-bit
Duration : 00:03:39.48 = 9678848 samples = 16460.6 CDDA sectors
File Size : 5.36M
Bit Rate : 195k
Sample Encoding: MPEG audio (layer I, II or III)
Comments :
Title=The Comedown
Artist=Less Beauty
Album=Empty (EP)
Tracknumber=02
Year=2020
Genre=Depressive Black Metal

[/more]

Register
(2) SilentNidhogg, vlad74,
Apr 6 2024, 15:30:10 Less Beauty - Empty [ep] (2020)


*Artist: Less Beauty
*Album: Empty [ep]
*Year: 2020
*Genre: Raw/Depressive Black Metal
*Country: Romania
*Format: mp3@CBR192kbps
*Size: 13MB

Tracklist:
01. Empty Words 03:30
02. The Comedown 03:39
03. Noche De Lluvia Sin Ti 02:09
******************************
Total playing time: 9:19

[more=Technical info]
Input File: 02. The Comedown.mp3
Channels : 2
Sample Rate : 44100
Precision : 16-bit
Duration : 00:03:39.48 = 9678848 samples = 16460.6 CDDA sectors
File Size : 5.36M
Bit Rate : 195k
Sample Encoding: MPEG audio (layer I, II or III)
Comments :
Title=The Comedown
Artist=Less Beauty
Album=Empty (EP)
Tracknumber=02
Year=2020
Genre=Depressive Black Metal

[/more]

Register
(1) SilentNidhogg,
Apr 6 2024, 15:27:53 Less Beauty - Blood [ep] (2021)


*Artist: Less Beauty
*Album: Blood [ep]
*Year: 2021
*Genre: Raw/Depressive Black Metal
*Country: Romania
*Format: mp3@CBR320kbps
*Size: 46MB

Tracklist:
01. My Father 02:26
02. Take Me 04:10
03. Wherewhatwhy 02:30
04. Why Me 00:57
05. Untitled 03:53
06. Why Can't Be Me 04:13
07. Cutting Myself 01:31
******************************
Total playing time: 19:43

[more=Technical info]
Input File: 03. Wherewhatwhy.mp3
Channels : 2
Sample Rate : 44100
Precision : 16-bit
Duration : 00:02:41.10 = 7104598 samples = 12082.6 CDDA sectors
File Size : 6.44M
Bit Rate : 320k
Sample Encoding: MPEG audio (layer I, II or III)
Comments :
Title=Wherewhatwhy
Artist=Less Beauty
Album=Blood (EP)
Tracknumber=03
Year=2021
Genre=Depressive Black Metal

[/more]

Register
(2) SilentNidhogg, vlad74,
Apr 6 2024, 14:09:37 Hipofrenia - Hipofrenia (2020)


*Artist: Hipofrenia
*Album: Hipofrenia
*Year: 2020
*Genre: Depressive Black Metal
*Country: Mexico
*Format: mp3@CBR320kbps
*Size: 53MB

Tracklist:
01. Intro 01:47
02. Comsmovisión 03:37
03. Aciago 03:38
04. El Viaje Superior 03:01
05. Proclamación De Inexistencia 03:21
06. Hipofrenia 03:55
07. Impulso Para Terminar 03:22
******************************
Total playing time: 22:42

[more=Technical info]
Input File: 06. Hipofrenia.mp3
Channels : 2
Sample Rate : 44100
Precision : 16-bit
Duration : 00:03:55.09 = 10367381 samples = 17631.6 CDDA sectors
File Size : 9.60M
Bit Rate : 327k
Sample Encoding: MPEG audio (layer I, II or III)
Comments :
Title=Hipofrenia
Artist=Hipofrenia
Album=Hipofrenia
Tracknumber=06
Year=2020
Genre=Depressive Black Metal

[/more]

Register
(8) aleon, AlexSmith, artscald, Rover, supremo, Tyrone, VALERY, wreak,
Apr 5 2024, 18:47:53 Enwinted - The Withering [ep] (2017)


*Artist: Enwinted
*Album: The Withering [ep]
*Year: 2017
*Genre: Depressive Black Metal/Blackgaze
*Country: Macedonia
*Format: mp3@CBR192kbps
*Size: 19MB

Tracklist:
01. Crippling Light 04:59
02. For My Broken Heart 03:53
03. Withering Away... 04:40
******************************
Total playing time: 13:32

[more=Technical info]
Input File: 02. For My Broken Heart.mp3
Channels : 2
Sample Rate : 44100
Precision : 16-bit
Duration : 00:03:53.09 = 10279093 samples = 17481.5 CDDA sectors
File Size : 5.71M
Bit Rate : 196k
Sample Encoding: MPEG audio (layer I, II or III)
Comments :
Title=For My Broken Heart
Artist=Enwinted
Album=The Withering (EP)
Tracknumber=02
Year=2017
Genre=Depressive Black Metal/Blackgaze

[/more]

Register
(5) aleon, kim666, Reverend, SilentNidhogg, vlad74,
Apr 5 2024, 17:35:40 Enwinted - Vein Deep Inside The Solution (2016)


*Artist: Enwinted
*Album: Vein Deep Inside The Solution
*Year: 2016
*Genre: Depressive Black Metal/Blackgaze
*Country: Macedonia
*Format: mp3@CBR192kbps
*Size: 69MB

Tracklist:
01. Intro / Prelude To Madness 02:15
02. No Help Is On It's Way 06:03
03. Piller Och Eufori 04:13
04. .45 Caliber Solution 07:15
05. For My Broken Heart 03:54
06. Beneath A Dying Sun 08:20
07. Suffer In The Flesh 07:58
08. Dead In A Dying World 04:23
09. The Wind Cries Your Name 04:32
10. Outro / No Escape 01:18
******************************
Total playing time: 50:11

[more=Technical info]
Input File: 05. For My Broken Heart.mp3
Channels : 2
Sample Rate : 44100
Precision : 16-bit
Duration : 00:03:54.08 = 10322884 samples = 17555.9 CDDA sectors
File Size : 5.67M
Bit Rate : 194k
Sample Encoding: MPEG audio (layer I, II or III)
Comments :
Title=For My Broken Heart
Artist=Enwinted
Album=Vein Deep Inside The Solution
Tracknumber=05
Year=2016
Genre=Depressive Black Metal/Blackgaze

[/more]

Register
(5) aleon, kim666, Reverend, SilentNidhogg, vlad74,
Apr 5 2024, 17:34:10 Enwinted - Suneater (2015)


*Artist: Enwinted
*Album: Suneater
*Year: 2015
*Genre: Depressive Black Metal/Blackgaze
*Country: Macedonia
*Format: mp3@CBR192kbps
*Size: 52MB

Tracklist:
01. The Rise Of July 05:04
02. While The City Sleeps 05:18
03. Like A Fallen Leaf 03:07
04. Where The Light Still Cries 05:42
05. Beneath A Dying Sun 08:41
06. Endless Sky 05:10
07. Suneater 04:33
******************************
Total playing time: 37:35

[more=Technical info]
Input File: 04. Where The Light Still Cries.mp3
Channels : 2
Sample Rate : 44100
Precision : 16-bit
Duration : 00:05:42.11 = 15086831 samples = 25657.9 CDDA sectors
File Size : 8.34M
Bit Rate : 195k
Sample Encoding: MPEG audio (layer I, II or III)
Comments :
Title=Where The Light Still Cries
Artist=Enwinted
Album=Suneater
Tracknumber=04
Year=2015
Genre=Depressive Black Metal/Blackgaze

[/more]

Register
(4) aleon, kim666, Reverend, SilentNidhogg,
Apr 4 2024, 19:07:39 Den Siste - Sonun Başlangıcı (2015)


*Artist: Den Siste
*Album: Sonun Başlangıcı
*Year: 2015
*Genre: Depressive Black Metal
*Country: Turkey
*Format: mp3@CBR256kbps
*Size: 86MB

Tracklist:
01. Bir Sonbahar Yağmuru 06:56
02. Close to Dawn 04:47
03. Kurtar 05:08
04. Near the Suicide 06:24
05. Özgür Veda 05:20
06. Sona Doğru 10:44
07. Veda 06:31
******************************
Total playing time: 45:51

[more=Technical info]
Input File: 03. Kurtar.mp3
Channels : 2
Sample Rate : 44100
Precision : 16-bit
Duration : 00:05:08.23 = 13593031 samples = 23117.4 CDDA sectors
File Size : 10.2M
Bit Rate : 265k
Sample Encoding: MPEG audio (layer I, II or III)
Comments :
Title=Kurtar
Artist=Den Siste
Album=Sonun Başlangıcı
Tracknumber=03
Year=2015
Genre=Depressive Black Metal

[/more]

Register
(4) aleon, metala, rimfrost, SilentNidhogg,
Apr 4 2024, 13:39:16 Madhouse Terror - Delirium (2022)


*Artist: Madhouse Terror
*Album: Delirium
*Year: 2022
*Genre: Slamming Brutal Death Metal
*Country: Turkey
*Format: mp3@CBR320kbps
*Size: 104MB

Tracklist:
01. A New Madness Upon Us 01:20
02. The Genesis of Madness 03:21
03. Supreme Sickness 04:58
04. Automatic Atrocity 05:16
05. Killing Spree 06:10
06. Unleash the Lunatics 05:31
07. Grim Infestation 05:15
08. Festering Microcosm 06:21
09. The Extinction of Mankind 04:00
10. Judgement Day 02:30
******************************
Total playing time: 44:47

[more=Technical info]
Input File: 02. The Genesis of Madness.mp3
Channels : 2
Sample Rate : 44100
Precision : 16-bit
Duration : 00:03:21.79 = 8899115 samples = 15134.5 CDDA sectors
File Size : 8.39M
Bit Rate : 332k
Sample Encoding: MPEG audio (layer I, II or III)
Comments :
Title=The Genesis of Madness
Artist=Madhouse Terror
Album=Delirium
Tracknumber=02
Year=2022
Genre=Slamming Brutal Death Metal

[/more]

Register
(4) grobator, jollo, vyacheslav, xariton,
Apr 3 2024, 19:11:19 Furricide - Heil Fur-rer! [demo] (2023)


*Artist: Furricide
*Album: Heil Fur-rer! [demo]
*Year: 2023
*Genre: Slamming Brutal Death Metal/Grindcore
*Country: Poland
*Format: mp3@CBR320kbps
*Size: 25MB

Tracklist:
01. Yiff You Apart 01:04
02. Fluffy Paw Rampage 01:39
03. Born 2 Yiff Forced 2 Woof 02:04
04. Apawcalypse 01:54
05. *dies from cringe* 00:03
06. Fiddleafox Is Hella Based 01:44
07. Yiffstruction 01:30
******************************
Total playing time: 10:01

[more=Technical info]
Input File: 03. Born 2 Yiff Forced 2 Woof.mp3
Channels : 2
Sample Rate : 44100
Precision : 16-bit
Duration : 00:02:04.92 = 5509148 samples = 9369.3 CDDA sectors
File Size : 5.23M
Bit Rate : 335k
Sample Encoding: MPEG audio (layer I, II or III)
Comments :
Title=Born 2 Yiff Forced 2 Woof
Artist=Furricide
Album=Heil Fur-rer!
Tracknumber=03
Year=2023
Genre=Slamming Brutal Death Metal

[/more]

Register
(4) artscald, Carcharoth, grobator, wreak,
Apr 3 2024, 18:04:56 Cerebromeningitis - Sickening Lust Of Adipocerative Mutilation [ep] (2021)


*Artist: Cerebromeningitis
*Album: Sickening Lust Of Adipocerative Mutilation [ep]
*Year: 2021
*Genre: Slamming Brutal Death Metal
*Country: India
*Format: mp3@CBR320kbps
*Size: 29MB

Tracklist:
01. Intro 00:55
02. Trepanation Of Obscure Fetuses 03:17
03. Grotesque Formations Of Purulent Matter 02:41
04. Facial Purulency 04:10
05. Congenital Semensitivity 01:23
******************************
Total playing time: 12:26

[more=Technical info]
Input File: 02. Trepanation Of Obscure Fetuses.mp3
Channels : 2
Sample Rate : 44100
Precision : 16-bit
Duration : 00:03:21.56 = 8888972 samples = 15117.3 CDDA sectors
File Size : 8.06M
Bit Rate : 320k
Sample Encoding: MPEG audio (layer I, II or III)
Comments :
Title=Trepanation Of Obscure Fetuses
Artist=Cerebromeningitis
Album=Sickening Lust Of Adipocerative Mutilation (EP)
Tracknumber=02
Year=2021
Genre=Slamming Brutal Death Metal

[/more]

Register
(4) artscald, grobator, vyacheslav, wreak,
Apr 1 2024, 09:06:39 Slamentable - Slamentable [demo] (2023)


*Artist: Slamentable
*Album: Slamentable [demo]
*Year: 2023
*Genre: Brutal Death Metal/Grindcore
*Country: Spain
*Format: mp3@CBR320kbps
*Size: 29MB

Tracklist:
01. Introducción Anal 01:04
02. Reyes Del Slam 01:20
03. Te Voy A Meter Más Rabo Que Cuello Tiene Un Pavo 01:04
04. Suena Bien Pero Mal 01:35
05. Semen Micelar 01:26
06. Me Siento Mujer Pero Con El Rabo Que Tengo No Lo Puedo Ser 01:40
07. Mi Semen Huele Mal Y Por Eso No Puedo Ligar 02:02
08. Bukano 01:40
******************************
Total playing time: 11:55

[more=Technical info]
Input File: 06. Me Siento Mujer Pero Con El Rabo Que Tengo No Lo Puedo Ser.mp3
Channels : 2
Sample Rate : 44100
Precision : 16-bit
Duration : 00:01:40.11 = 4414675 samples = 7507.95 CDDA sectors
File Size : 4.55M
Bit Rate : 364k
Sample Encoding: MPEG audio (layer I, II or III)
Comments :
Title=Me Siento Mujer Pero Con El Rabo Que Tengo No Lo Puedo Ser
Artist=Slamentable
Album=Slamentable (Demo)
Tracknumber=06
Year=2023
Genre=Brutal Death Metal/Grindcore

[/more]

Register
(1) rominow,

6 Pages V  < 1 2 3 4 > » 
- Lo-Fi Version Support form
Copyrights and abuse reports form
Time is now: 17th June 2024 - 09:25:11