Welcome Guest ( Log In | Register )

История благодарностей участнику Cramloth ::: Спасибо сказали: 4849 раз(а)
Дата поста: В теме: За сообщение: Спасибо сказали:
May 13 2021, 21:48:46 Leif - Gateways (2021)


*Artist: Leif
*Album: Gateways
*Year: 2021
*Genre: Melodic Black Metal
*Country: Germany
*Format: mp3@CBR320kbps
*Size: 103MB

Tracklist:
1. Astral Fall 05:04
2. Where the Waves Meet the Void 06:32
3. A Step into Darkness 04:22
4. Black Flame 05:12
5. Salt and Snow 08:47
6. The Gate 05:11
7. Into the Storm 04:36
8. Ruin 04:48
******************************
Total playing time: 44:32


Metal Archives


[more=Technical info]
Input File: Leif - 2 Where the waves meet the void.mp3
Channels : 2
Sample Rate : 44100
Precision : 16-bit
Duration : 00:06:32.54 = 17310882 samples = 29440.3 CDDA sectors
File Size : 15.7M
Bit Rate : 320k
Sample Encoding: MPEG audio (layer I, II or III)
Comments :
Title=Where the waves meet the void
Artist=Leif
Album=Gateways
Tracknumber=2
Year=2021
Genre=Black Metal

[/more]

Register
(14) AlexSmith, kim666, Korpse, Marek, metala, Ostinato, Reverend, Rover, sergsazan, Shadechaser, SilentNidhogg, Taakeferd, talismanFS, zhol,
May 13 2021, 19:39:00 O Fim - A Profanação Do 13 De Maio (2021)


*Artist: O Fim
*Album: A Profanação Do 13 De Maio
*Year: 2021
*Genre: Raw Black Metal/Noise
*Country: Portugal
*Format: mp3@CBR320kbps
*Size: 77MB

Tracklist:
1. Fornicação I: - Introdução da Profanação da Minha Caótica Existência... 04:46
2. Fornicação II: - Penumbra Nocturna 07:53
3. Fornicação III: - Silêncio Feroz 03:44
4. Profanação IV: - Observando a Minha Morte 02:37
5. Profanação V: - A Minha Profana Existência 02:02
6. Profanação VI: - Morte Abrupta 03:51
7. Profanação VII: - Deus Morreu 04:58
8. Profanação VIII: - As Fúnebres Sombras dos Mensageiros da Morte, Que Carregam os Restos da Minha Miserável Existência... 02:45
******************************
Total playing time: 32:36




[more=Technical info]
Input File: O Fim - Fornicação I Introdução da Profanação da Minha Caótica Existência.mp3
Channels : 2
Sample Rate : 44100
Precision : 16-bit
Duration : 00:04:46.89 = 12651981 samples = 21517 CDDA sectors
File Size : 11.5M
Bit Rate : 320k
Sample Encoding: MPEG audio (layer I, II or III)
Comments :
Title=Fornicação I: - Introdução da Profanação da Minha Caótica Existência...
Artist=O Fim
Album=A Profanação do 13 de Maio
Tracknumber=1
Year=2021
Genre=Raw Black Metal

[/more]

Register
(9) AlexSmith, heinz88, kim666, Olethros, SilentNidhogg, supremo, Taakeferd, varlam4, vasiljev_sergej,
May 13 2021, 18:03:57 Kings Rot - The Shadow Of The Accursed (2021)


*Artist: Kings Rot
*Album: The Shadow Of The Accursed
*Year: 2021
*Genre: Black Metal
*Country: Canada
*Format: mp3@CBR320kbps
*Size: 116MB

Tracklist:
1. Fall of the Witch King 06:27
2. Gaze Upon The Pale Serpent 04:32
3. On Fellbeasts They Come... 07:17
4. Hollow 05:27
5. Upheaval of Black Cosmic Divinity 04:47
6. In My Dreams of Darkness 04:16
7. Ominous Drudge 05:04
8. Father of Ash, Lord of Despair 12:03
******************************
Total playing time: 49:53




Metal Archives

[more=Technical info]
Input File: Kings Rot - 1 Fall of the Witch King.mp3
Channels : 2
Sample Rate : 44100
Precision : 16-bit
Duration : 00:06:27.91 = 17107007 samples = 29093.5 CDDA sectors
File Size : 15.5M
Bit Rate : 320k
Sample Encoding: MPEG audio (layer I, II or III)
Comments :
Title=Fall of the Witch King
Artist=Kings Rot
Album=The Shadow of the Accursed
Tracknumber=1
Year=2021
Genre=Black Metal

[/more]

Register
(15) AlexSmith, atavist, Constantinus I, kim666, Korpse, Marek, Olethros, robertho777, Rover, satanist666, SilentNidhogg, Taakeferd, VALERY, varlam4, vasiljev_sergej,
May 12 2021, 22:45:39 Black Spirit - El Sueño De La Razón Produce Monstruos (2021)


*Artist: Black Spirit
*Album: El Sueño De La Razón Produce Monstruos
*Year: 2021
*Genre: Black Metal
*Country: Spain
*Format: mp3@CBR320kbps
*Size: 117MB

Tracklist:
1. El Sueño de la Razón Produce Monstruos 02:31
2. Ignorance and The Grotesque 05:13
3. Dream or a Nightmare 06:15
4. At the Edge of Conciousness 04:56
5. Disparate del miedo 01:50
6. Black Paintings 03:28
7. The Depths of Time 04:13
8. Disparate Funebre 02:29
9. The Fanatics of Oppresion 05:07
10. The Mystical Silence 04:43
11. There will Always be a yet Greater Horror 03:48
12. In the Vortex to Infinite Blackness 05:55
******************************
Total playing time: 50:28

Metal Archives


[more=Technical info]
Input File: Black Spirit - 02 - Ignorance and The Grotesque.mp3
Channels : 2
Sample Rate : 48000
Precision : 16-bit
Duration : 00:05:13.11 = 15029328 samples ~ 23483.3 CDDA sectors
File Size : 12.5M
Bit Rate : 320k
Sample Encoding: MPEG audio (layer I, II or III)
Comments :
Title=Ignorance and The Grotesque
Artist=Black Spirit
Album=El Sueño De La Razón Produce Monstruos
Tracknumber=2
Year=2021
Genre=Black Metal

[/more]

Register
(9) AlexSmith, infiltrator, kauyumari, kim666, Olethros, satanist666, Taakeferd, VALERY, vasiljev_sergej,
May 12 2021, 22:31:34 Svartheim - Black Metal Finland (2021)
QUOTE(craP_cillA @ May 12 2021, 15:33:01) *
PLEASE! learn to tag/number the filenames correctly (1,2,3...) it's super annoying to have to rename everything by myself. 21.gif

You could have messaged if it was getting on your nerves thou 1488.gifsmile1.gif
But I'll try to not forget that
(2) craP_cillA, infiltrator,
May 12 2021, 02:34:03 Svartheim - Black Metal Finland (2021)


*Artist: Svartheim
*Album: Black Metal Finland
*Year: 2021
*Genre: Black Metal
*Country: Finland
*Format: mp3@CBR320kbps
*Size: 131MB

Tracklist:
1. Pimeyttä vasten 07:19​
2. Marras 07:16​
3. Kärsimysten airut 08:58​
4. Vaiettu 06:12
5. Sydäntä kylmää 09:32
6. Syvästä vihasta 05:51
7. Viimeiseen talveen 11:59
******************************
Total playing time: 57:07




[more=Technical info]
Input File: Svartheim - Pimeyttä Vasten.mp3
Channels : 2
Sample Rate : 48000
Precision : 16-bit
Duration : 00:07:19.30 = 21086544 samples ~ 32947.7 CDDA sectors
File Size : 17.6M
Bit Rate : 320k
Sample Encoding: MPEG audio (layer I, II or III)
Comments :
Title=Pimeyttä Vasten
Artist=Svartheim
Album=Black Metal Finland
Tracknumber=1
Year=2021
Genre=Black Metal

[/more]

Register
(42) AlexSmith, alikkon, Anarchead, andeimon, andivi, atavist, Begemot70, craP_cillA, cryptal, durandal, gena, infernallord, infiltrator, kim666, Korpse, Marek, Maximvs, nadin85, nemx, nsk2008, Olethros, Ostinato, Reverend, rimfrost, ripper33, robertho777, Rover, sabr, SaintVitus, satanist666, SilentNidhogg, supremo, Taakeferd, thenecromancer, VALERY, varlam4, vasiljev_sergej, Victim of fate, yarrsuaa, ZA670, ZambuL, добрыйКот,
May 11 2021, 15:49:55 Funeral Fullmoon - Poetry Of The Death Poison (2021)


*Artist: Funeral Fullmoon
*Album: Poetry Of The Death Poison
*Year: 2021
*Genre: Raw Black Metal
*Country: Chile
*Format: mp3@CBR320kbps
*Size: 69MB

Tracklist:
1. Poetry of the Death Poison 07:25
2. Beyond the Pain 05:48
3. Nokturnal Prayer 05:14
4. In the Night of Dark Ruins 09:28
******************************
Total playing time: 27:55



Metal Archives

[more=Extended info]Belongs to the Pure Raw Underground Black Metal Plague circle[/more]

[more=Technical info]
Input File: Funeral Fullmoon - Poetry of the Death Poison.mp3
Channels : 2
Sample Rate : 48000
Precision : 16-bit
Duration : 00:08:52.90 = 25579344 samples ~ 39967.7 CDDA sectors
File Size : 21.3M
Bit Rate : 320k
Sample Encoding: MPEG audio (layer I, II or III)
Comments :
Title=Poetry of the Death Poison
Artist=Funeral Fullmoon
Album=Poetry of the Death Poison
Tracknumber=1
Year=2021
Genre=Raw Black Metal

[/more]

Register
(24) AlexSmith, blacky66, Bzth, craP_cillA, gena, heinz88, infiltrator, kim666, korovakaska, Moonshtook, morbidjpg, Olethros, Rover, sacrut, satanist666, SilentNidhogg, supremo, Taakeferd, thenecromancer, VALERY, varlam4, vasiljev_sergej, Vidder242, Whiskey_wolv,
May 10 2021, 18:37:03 Ildfar - Som Vinden Farer Vil (2021)


*Artist: Ildfar
*Album: Som Vinden Farer Vil
*Year: 2021
*Genre: Black Metal
*Country: Norway
*Format: mp3@CBR320kbps
*Size: 95MB

Tracklist:
1. Taakeheimen 01:45
2. Under sorte vinger 06:02
3. The Last Dawn 04:19
4. Den gamle mannen hvisker mitt navn 03:59
5. Som vinden farer vil 04:08
6. Vandring 01:59
7. Under the Graves (of 1994) 03:11
8. Pesten 03:30
9. Behold the Throne 03:29
10. Lyset i skumringen 05:06
11. Norges haller 03:19
******************************
Total playing time: 40:47




Metal Archives

[more=Technical info]
Input File: Ildfar - Lyset I Skumringen.mp3
Channels : 2
Sample Rate : 48000
Precision : 16-bit
Duration : 00:05:05.22 = 14650368 samples ~ 22891.2 CDDA sectors
File Size : 12.2M
Bit Rate : 320k
Sample Encoding: MPEG audio (layer I, II or III)
Comments :
Title=Lyset i skumringen
Artist=Ildfar
Album=Som vinden farer vil
Tracknumber=10
Year=2021
Genre=Black Metal

[/more]

Register
(30) Bzth, cancer1974, caro, craP_cillA, cryptal, Cyrci, elsunga, HMHamster, infiltrator, kim666, Marek, Moonshtook, MortSathynr, nemx, Olethros, Ostinato, rimfrost, robertho777, RUDACHUR, satanist666, Sjelekval, smes, thenecromancer, tim47, toly1917, VALERY, vasiljev_sergej, Vidder242, Vitald, Waldemar666,
May 10 2021, 00:57:40 Forgotten Heritage - The Ominous Future Of Humanity Part I [demo] (2021)


*Artist: Forgotten Heritage
*Album: The Ominous Future Of Humanity Part I [demo]
*Year: 2021
*Genre: Raw Black Metal
*Country: Unknown
*Format: mp3@CBR320kbps
*Size: 73MB

Tracklist:
1. Untitled I 07:53
2. Untitled II 14:15
3. Untitled III 08:58
******************************
Total playing time: 31:06




[more=Technical info]
Input File: Forgotten Heritage - Untitled II.mp3
Channels : 2
Sample Rate : 48000
Precision : 16-bit
Duration : 00:14:15.32 = 41055312 samples ~ 64148.9 CDDA sectors
File Size : 34.2M
Bit Rate : 320k
Sample Encoding: MPEG audio (layer I, II or III)
Comments :
Title=Untitled II
Artist=Forgotten Heritage
Album=The Ominous Future of Humanity Part I
Tracknumber=2
Year=2021
Genre=Raw Black Metal

[/more]

Register
(4) infiltrator, kim666, Olethros, vasiljev_sergej,
May 9 2021, 22:33:57 Helsang - Helheim [ep] (2021)


*Artist: Helsang
*Album: Helheim [ep]
*Year: 2021
*Genre: Black Metal
*Country: Germany
*Format: mp3@CBR320kbps
*Size: 65MB

Tracklist:
1. Monumente des Todes 03:59
2. Das schwarze Tor 06:32
3. Spektrale Dunkelheit 05:30
4. In den kalten Ketten der Angst 07:17
5. Gefangen in der Leere 04:28
******************************
Total playing time: 27:46


Metal Archives


[more=Technical info]
Input File: Helsang - In den kalten Ketten der Angst.mp3
Channels : 2
Sample Rate : 48000
Precision : 16-bit
Duration : 00:07:17.65 = 21007104 samples ~ 32823.6 CDDA sectors
File Size : 17.5M
Bit Rate : 320k
Sample Encoding: MPEG audio (layer I, II or III)
Comments :
Title=In den kalten Ketten der Angst
Artist=Helsang
Album=Helheim
Tracknumber=4
Year=2021
Genre=Black Metal

[/more]

Register
(11) caro, infiltrator, kim666, Marek, murian, Olethros, Ostinato, robertho777, SilentNidhogg, VALERY, vasiljev_sergej,
May 9 2021, 03:21:18 Nihil Invocation - The Attaining Apparition And Night (2021)


*Artist: Nihil Invocation
*Album: The Attaining Apparition And Night
*Year: 2021
*Genre: Raw Black Metal
*Country: United States
*Format: mp3@CBR320kbps
*Size: 68MB

Tracklist:
1. Desecrating Grandeur (Withered Dead Upon the Path...) 02:54
2. The Attaining Apparition and Night 02:35
3. Reclusion as Homage to Rotting World 02:35
4. To Shatter All Bestowed Unto Myself 02:34
5. Storming Woods of Dark Embrace 03:44
6. For the Glory of Which Remains Forsaken 02:15
7. Within the Bliss of Dying Light 02:54
8. As an Onward Flowing Stream of Blight 03:16
9. The Fragile Basket and Eggs Within 03:05
10. Ultima Thule (Falkenbach cover) 03:35
******************************
Total playing time: 29:27



Metal Archives
Instagram


[more=Technical info]
Input File: Nihil Invocation - Desecrating Grandeur ( Withered Dead Upon the Path. ).mp3
Channels : 2
Sample Rate : 48000
Precision : 16-bit
Duration : 00:02:55.16 = 8407680 samples ~ 13137 CDDA sectors
File Size : 7.01M
Bit Rate : 320k
Sample Encoding: MPEG audio (layer I, II or III)
Comments :
Title=Desecrating Grandeur (Withered Dead Upon the Path...)
Artist=Nihil Invocation
Album=The Attaining Apparition and Night
Tracknumber=1
Year=2021
Genre=Black Metal

[/more]

Register
(12) Alexis The Best, infiltrator, judaz, kim666, Morra, Olethros, robertho777, Rover, SilentNidhogg, VALERY, vasiljev_sergej, Waldemar666,
May 8 2021, 19:34:23 Cryptic Vampire - Necrophony Of Decay [demo] (2020)


*Artist: Cryptic Vampire
*Album: Necrophony Of Decay [demo]
*Year: 2020
*Genre: Raw/Depressive Black Metal
*Country: Slovakia
*Format: mp3@CBR320kbps
*Size: 73MB

Tracklist:
1. Buried in Forest 05:50
2. Soul Redemption 06:13
3. Dark Rays of Sun 06:41
4. Necrophony of Decay Pt. I 01:21
5. Necrophony of Decay Pt. II 07:30
6. Nyctophilia 04:13
******************************
Total playing time: 31:48


Metal Archives


[more=Technical info]
Input File: Cryptic Vampire - Buried In Forest.mp3
Channels : 2
Sample Rate : 44100
Precision : 16-bit
Duration : 00:05:50.18 = 15442850 samples = 26263.4 CDDA sectors
File Size : 14.0M
Bit Rate : 320k
Sample Encoding: MPEG audio (layer I, II or III)
Comments :
Title=Buried In Forest
Artist=Cryptic Vampire
Album=Necrophony Of Decay
Tracknumber=1
Year=2020
Genre=Depressive Black Metal

[/more]

Register
(8) infiltrator, Kaotik, kim666, Olethros, robertho777, SilentNidhogg, VALERY, vasiljev_sergej,
May 8 2021, 01:27:03 Vallendusk - Heralds Of Strife (2021)


*Artist: Vallendusk
*Album: Heralds Of Strife
*Year: 2021
*Genre: Atmospheric Black Metal
*Country: Indonesia
*Format: mp3@CBR320kbps
*Size: 146MB

Tracklist:
1. The Last Soar as the Feathers Fall 09:27
2. Towards the Shimmering Dawn 09:31
3. Ethereal Echoes of Devotion 09:16
4. Solivagant Heart 07:32
5. Marching Ballad of the Unsung Ones 08:31
6. Immemorials in Eternal Slumber 07:40
7. The Sovereign 11:25
******************************
Total playing time: 1:03:22





[more=Technical info]
Input File: Vallendusk - The Last Soar As the Feathers Fall.mp3
Channels : 2
Sample Rate : 48000
Precision : 16-bit
Duration : 00:09:27.25 = 27227904 samples ~ 42543.6 CDDA sectors
File Size : 22.7M
Bit Rate : 320k
Sample Encoding: MPEG audio (layer I, II or III)
Comments :
Title=The Last Soar as the Feathers Fall
Artist=Vallendusk
Album=Heralds of Strife
Tracknumber=1
Year=2021
Genre=Atmospheric Black Metal

[/more]

Register
(16) aleon, Black Cat, cryptal, Femto, infiltrator, karpenka, kimkayoung, Korpse, madera, murian, Olethros, regorgitated, satanist666, sergsazan, vasiljev_sergej, yuratroll,
May 8 2021, 00:52:49 Waldseel & Szivilizs - Waldseel/Szivilizs [split] (2020)


*Artist: Waldseel & Szivilizs
*Album: Waldseel/Szivilizs [split]
*Year: 2020
*Genre: Black Metal | Black Metal
*Country: Germany | Switzerland
*Format: mp3@CBR320kbps
*Size: 79MB

Tracklist:
Waldseel

1. Continuous Rituals 04:15
2. Blindheit - Untertan 04:34
3. Scheinreich 05:01

Szivilizs
4. Angschtzuäschtänd Pt. I 08:50​
5. Angschtzuäschtänd Pt. II 11:44
******************************
Total playing time: 34:24


Metal Archives




[more=Technical info]
Input File: Szivilizs - Angschtzuäschtänd Pt. II.mp3
Channels : 2
Sample Rate : 48000
Precision : 16-bit
Duration : 00:11:44.65 = 33823104 samples ~ 52848.6 CDDA sectors
File Size : 28.2M
Bit Rate : 320k
Sample Encoding: MPEG audio (layer I, II or III)
Comments :
Title=Angschtzuäschtänd Pt. II
Artist=Szivilizs
Album=Waldseel / Szivilizs
Tracknumber=5
Year=2020
Genre=Black Metal

[/more]

Register
(9) Alexis The Best, infiltrator, kim666, Korpse, Qliphoth, rammmirez, satanist666, the_cleanser, vasiljev_sergej,
May 6 2021, 00:07:06 Gnaargakh - Erzleichnam [demo] (2021)


*Artist: Gnaargakh
*Album: Erzleichnam [demo]
*Year: 2021
*Genre: Black Metal
*Country: Germany
*Format: mp3@CBR320kbps
*Size: 51MB

Tracklist:
1. Der Entwürdiger 04:26
2. Grabschänder 06:00
3. Feindspalter 04:47
4. Erzleichnam 06:21
******************************
Total playing time: 21:34



Metal Archives

[more=Technical info]
Input File: Gnaargakh - Der Entwürdiger.mp3
Channels : 2
Sample Rate : 48000
Precision : 16-bit
Duration : 00:04:23.29 = 12637824 samples ~ 19746.6 CDDA sectors
File Size : 10.5M
Bit Rate : 320k
Sample Encoding: MPEG audio (layer I, II or III)
Comments :
Title=Der Entwürdiger
Artist=Gnaargakh Bookmark
Album=Erzleichnam
Tracknumber=1
Year=2021
Genre=Black Metal

[/more]

Register
(22) caro, craP_cillA, ent404, Grogro, infiltrator, Kazoth, kim666, Marek, NachtWulf, Olethros, rimfrost, robertho777, SaintVitus, satanist666, SilentNidhogg, stormhatt, SyncestrA, undeadlich, VALERY, vasiljev_sergej, Waldemar666, дивин,
May 4 2021, 23:15:52 Skadalv - Demo Ii [demo] (2021)


*Artist: Skadalv
*Album: Demo Ii [demo]
*Year: 2021
*Genre: Raw Black Metal
*Country: United States
*Format: mp3@CBR320kbps
*Size: 27MB

Tracklist:
1. Ruinous Conjury 06:03
2. Cursed Hallucinations 05:16
******************************
Total playing time: 11:19


Metal Archives

[more=Technical info]
Input File: Skadalv - Ruinous Conjury.mp3
Channels : 2
Sample Rate : 48000
Precision : 16-bit
Duration : 00:06:03.34 = 17440512 samples ~ 27250.8 CDDA sectors
File Size : 14.5M
Bit Rate : 320k
Sample Encoding: MPEG audio (layer I, II or III)
Comments :
Title=Ruinous Conjury
Artist=Skadalv
Album=Demo II
Tracknumber=1
Year=2021
Genre=Raw Black Metal

[/more]

Register
(9) caro, infiltrator, kim666, Olethros, satanist666, SilentNidhogg, VALERY, vasiljev_sergej, Waldemar666,
May 4 2021, 00:05:48 Lidérc - Promo [demo] (2021)


*Artist: Lidérc
*Album: Promo [demo]
*Year: 2021
*Genre: Black Metal
*Country: Hungary
*Format: mp3@CBR320kbps
*Size: 25MB

Tracklist:
1. I 05:34
2. II 05:18
******************************
Total playing time: 10:52


Metal Archives


[more=Technical info]
Input File: Lidérc - I.mp3
Channels : 2
Sample Rate : 48000
Precision : 16-bit
Duration : 00:05:34.81 = 16070736 samples ~ 25110.5 CDDA sectors
File Size : 13.4M
Bit Rate : 320k
Sample Encoding: MPEG audio (layer I, II or III)
Comments :
Title=I
Artist=Lidérc
Album=Promo
Tracknumber=1
Year=2021
Genre=Black Metal

[/more]

Register
(11) IncendiaryMight, infiltrator, kim666, metaljosue, noel666, Olethros, satanist666, thenecromancer, undeadlich, VALERY, vasiljev_sergej,
May 3 2021, 19:02:38 Celestia - Delhÿs Cätess [demo] (2007)
320 CBR MP3
Register

(3) acerbus, thenecromancer, varlam4,
May 3 2021, 17:49:26 La Ballade Des Rats - Rattus Magnus (2021)


*Artist: La Ballade Des Rats
*Album: Rattus Magnus
*Year: 2021
*Genre: Raw Black Metal
*Country: France
*Format: mp3@CBR320kbps
*Size: 130MB

Tracklist:
1. Impedimentum 04:37
2. Bourrasque Pestiférée 04:18
3. Fax Ardebat 06:45
4. Comme Nous Guerroyons Aussi 02:44
5. Lou Castelet 03:39
6. Conciliabule 06:19
7. Chant du Thoronet 02:01
8. Le Sacre du Rat 10:15
9. Rats & Poussière 02:42
10. Purpura 06:20
11. Affliction Divine 03:13
12. À Dieu Aux Rats 01:32
******************************
Total playing time: 54:25


Metal Archives



[more=Technical info]
Input File: La Ballade des Rats - Le Sacre du Rat.mp3
Channels : 2
Sample Rate : 44100
Precision : 16-bit
Duration : 00:10:15.27 = 27133319 samples = 46145.1 CDDA sectors
File Size : 24.6M
Bit Rate : 320k
Sample Encoding: MPEG audio (layer I, II or III)
Comments :
Title=Le Sacre du Rat
Artist=La Ballade des Rats
Album=Rattus Magnus
Tracknumber=8
Year=2021
Genre=Black Metal

[/more]

Register
(19) AlexSmith, ent404, Ildjarn, infiltrator, kim666, Leolomb, lordbathor, Moonshtook, Olethros, Ostinato, robertho777, rominow, Rover, satanist666, SilentNidhogg, supremo, VALERY, vasiljev_sergej, Waldemar666,
May 3 2021, 02:23:42 Rüyyn - Rüyyn [ep] (2021)


*Artist: Rüyyn
*Album: Rüyyn [ep]
*Year: 2021
*Genre: Atmospheric Black Metal
*Country: France
*Format: mp3@CBR320kbps
*Size: 67MB

Tracklist:
1. I 09:46
2. II 05:43
3. III 05:18
4. IV 07:25
5. ..... 00:50
******************************
Total playing time: 29:02




Instagram

[more=Technical info]
Input File: RüYYn - I.mp3
Channels : 2
Sample Rate : 44100
Precision : 16-bit
Duration : 00:09:46.69 = 25873029 samples = 44001.8 CDDA sectors
File Size : 23.5M
Bit Rate : 320k
Sample Encoding: MPEG audio (layer I, II or III)
Comments :
Title=I
Artist=RüYYn
Album=RüYYn
Tracknumber=1
Year=2021
Genre=Atmospheric Black Metal

[/more]

Register
(37) Aamiinaa, aleon, Anarchead, cesar, Cyrci, El_Chibo, gena, infernallord, infiltrator, kim666, kimkayoung, Kodel, Korpse, Marek, multizwilling, murian, nemx, Olethros, Olrak, Ostinato, rammstein888, randumbum, rimfrost, ripper33, robertho777, russ777, SaintVitus, satanist666, sergsazan, Shadechaser, SilentNidhogg, VALERY, varlam4, vasiljev_sergej, Waldemar666, ZA670, Авел,
May 3 2021, 00:52:52 Voin Grim - An Eldest Throne Of Profane Fortress [ep] (2021)


*Artist: Voin Grim
*Album: An Eldest Throne Of Profane Fortress [ep]
*Year: 2021
*Genre: Atmospheric Black Metal
*Country: Ukraine
*Format: mp3@CBR320kbps
*Size: 50MB

Tracklist:
1. An Eldest Throne of Profane Fortress 11:09
2. Materialized in Stone 05:14
3. Hoarfrost Under a Starry Path 05:11
******************************
Total playing time: 21:34

Metal Archives




[more=Technical info]
Input File: Voin Grim - An Eldest Throne Of Profane Fortress.mp3
Channels : 2
Sample Rate : 44100
Precision : 16-bit
Duration : 00:11:09.69 = 29533197 samples = 50226.5 CDDA sectors
File Size : 26.8M
Bit Rate : 320k
Sample Encoding: MPEG audio (layer I, II or III)
Comments :
Title=An Eldest Throne of Profane Fortress
Artist=Voin Grim
Album=An Eldest Throne of Profane Fortress
Tracknumber=1
Year=2021
Genre=Atmospheric Black Metal

[/more]

Register
(17) infiltrator, kim666, kimkayoung, Korpse, Olethros, randumbum, robertho777, satanist666, sergsazan, SilentNidhogg, Slavas, terron, VALERY, varlam4, vasiljev_sergej, Waldemar666, zargonath,
May 2 2021, 20:42:52 Ouija - Selenophile Impia [ep] (2021)


*Artist: Ouija
*Album: Selenophile Impia [ep]
*Year: 2021
*Genre: Black Metal
*Country: Spain
*Format: mp3@CBR320kbps
*Size: 44MB

Tracklist:
1. Selenophile Impia 07:07
2. Kerberos... Like Hell Dogs 04:21
3. Therianthropic Involution 07:36
******************************
Total playing time: 19:04

Metal Archives




[more=Technical info]
Input File: Ouija - Therianthropic Involution.mp3
Channels : 2
Sample Rate : 48000
Precision : 16-bit
Duration : 00:07:36.85 = 21928704 samples ~ 34263.6 CDDA sectors
File Size : 18.3M
Bit Rate : 320k
Sample Encoding: MPEG audio (layer I, II or III)
Comments :
Title=Therianthropic Involution
Artist=Ouija
Album=Selenophile Impia
Tracknumber=3
Year=2021
Genre=Black Metal

[/more]

Register
(14) Anarchead, dcatagua, IncendiaryMight, infiltrator, kimkayoung, Korpse, Lux, Marek, Olethros, Pinhead666, satanist666, thenecromancer, varlam4, vasiljev_sergej,
May 2 2021, 17:02:09 Camponero - From An Ancient Epoch (2021)


*Artist: Camponero
*Album: From An Ancient Epoch
*Year: 2021
*Genre: Raw/Atmospheric Black Metal
*Country: Italy
*Format: mp3@CBR320kbps
*Size: 98MB

Tracklist:
1. At the Gates of the Middle Ages 03:00
2. Fight for Living 02:40
3. The Castle of the Wood Fairy Tale 00:51
4. The Knight's Sword 04:20
5. Mystic Landscapes 01:32
6. Ancient Conquests 01:32
7. Peace Illusion 03:09
8. ...in the Name of Vocation 07:29
9. The Solitude Path and the Storm 05:29
10. Chant of the Forest 00:48
11. The Last Sunset on the Summit 05:28
12. From an Ancient Epoch (That Will Never Come Back Again) 01:55
******************************
Total playing time: 38:13

Metal Archives


[more=Technical info]
Input File: Camponero - .in the Name of Vocation.mp3
Channels : 2
Sample Rate : 44100
Precision : 16-bit
Duration : 00:07:30.01 = 19845441 samples = 33750.8 CDDA sectors
File Size : 18.0M
Bit Rate : 320k
Sample Encoding: MPEG audio (layer I, II or III)
Comments :
Title=...in the Name of Vocation
Artist=Camponero
Album=From an Ancient Epoch
Tracknumber=8
Year=2021
Genre=Black Metal

[/more]

Register
(17) ALBIGON, AlexSmith, infiltrator, kim666, Korpse, Olethros, randumbum, robertho777, Rover, satanist666, SilentNidhogg, supremo, thenecromancer, VALERY, varlam4, vasiljev_sergej, Waldemar666,
May 2 2021, 01:45:25 Phlegein - Labyrinth Of Wonder [ep] (2021)


*Artist: Phlegein
*Album: Labyrinth Of Wonder [ep]
*Year: 2021
*Genre: Black Metal
*Country: Finland
*Format: mp3@CBR320kbps
*Size: 46MB

Tracklist:
1. Syvyyksissä 03:04
2. Labyrinth of Wonder 03:45
3. Saviour 04:03
4. March for Doom of Humanity 03:58
5. Tribe Profane 05:04
******************************
Total playing time: 19:54

Website

Metal Archives

[more=Technical info]
Input File: Phlegein - Syvyyksissä.mp3
Channels : 2
Sample Rate : 48000
Precision : 16-bit
Duration : 00:03:04.64 = 8862720 samples ~ 13848 CDDA sectors
File Size : 7.39M
Bit Rate : 320k
Sample Encoding: MPEG audio (layer I, II or III)
Comments :
Title=Syvyyksissä
Artist=Phlegein
Album=Labyrinth of Wonder
Tracknumber=1
Year=2021
Genre=Black Metal

[/more]

Register
(22) andivi, Antichrist, Boozer, Bzth, Cyrci, El_Chibo, IncendiaryMight, infiltrator, judaz, kim666, Lucju, Marek, Mortuusinfernus, Okultista, Olethros, Ostinato, rimfrost, satanist666, smes, VALERY, varlam4, vasiljev_sergej,
May 2 2021, 01:28:22 Estve - Egyenes Labirintus (2021)


*Artist: Estve
*Album: Egyenes Labirintus
*Year: 2021
*Genre: Black Metal
*Country: Hungary
*Format: mp3@CBR320kbps
*Size: 68MB

Tracklist:
1. A homályból 04:16
2. Venomous Manifestation 06:52
3. Maelstrom of Vengeance 04:34
4. The Torchbearer 03:52
5. Harvesting My Grief 04:28
6. Ascending Downfall 04:28
******************************
Total playing time: 28:30

Metal Archives



[more=Technical info]
Input File: Estve - A homályból.mp3
Channels : 2
Sample Rate : 44100
Precision : 16-bit
Duration : 00:04:16.20 = 11298288 samples = 19214.8 CDDA sectors
File Size : 10.2M
Bit Rate : 320k
Sample Encoding: MPEG audio (layer I, II or III)
Comments :
Title=A homályból
Artist=Estve
Album=Egyenes labirintus
Tracknumber=1
Year=2021
Genre=Black Metal

[/more]

Register
(23) AlexSmith, atavist, GorAtheist, grimoir, IncendiaryMight, infiltrator, kim666, kimkayoung, multizwilling, nemx, nsk2008, Olethros, Olguard, Ostinato, rammstein888, robertho777, Rover, satanist666, SilentNidhogg, VALERY, varlam4, vasiljev_sergej, Vidder242,

12 Pages V   1 2 3 > » 
- Lo-Fi Version Support form
Copyrights and abuse reports form
Time is now: 15th May 2021 - 16:11:00