Welcome Guest ( Log In | Register )

История благодарностей участнику Cramloth ::: Спасибо сказали: 5746 раз(а)
Дата поста: В теме: За сообщение: Спасибо сказали:
Jul 10 2021, 23:32:17 Pâlemort - Tour Du Nord (2021)


*Artist: Pâlemort
*Album: Tour Du Nord
*Year: 2021
*Genre: Black Metal
*Country: Canada
*Format: mp3@CBR320kbps
*Size: 78MB

Tracklist:
1. Prologue 02:09
2. Rupture 04:34
3. Rex Judaeorum 06:10
4. Puissance profane 04:19
5. Laurentides II 03:57
6. Chevauchant l'immensité 05:41
7. Coprinopsis Psychromorbida 06:20
******************************
Total playing time: 33:10

Metal Archives


[more=Technical info]
Input File: Pâlemort -1 Prologue.mp3
Channels : 2
Sample Rate : 48000
Precision : 16-bit
Duration : 00:02:09.20 = 6201600 samples ~ 9690 CDDA sectors
File Size : 5.17M
Bit Rate : 320k
Sample Encoding: MPEG audio (layer I, II or III)
Comments :
Title=Prologue
Artist=Pâlemort
Album=Tour du Nord
Tracknumber=1
Year=2021
Genre=Black Metal

[/more]

Register
(20) acerbus, AlexSmith, bOOLty, caro, EvilPiet, igore2911, Ildjarn, kim666, morve, Olethros, rammmirez, robertho777, SilentNidhogg, Storky, supremo, Taakeferd, VALERY, varlam4, vasiljev_sergej, wreak,
Jul 8 2021, 19:42:19 Genuflexión - Padre De Todos Los Abismos (2021)


*Artist: Genuflexión
*Album: Padre De Todos Los Abismos
*Year: 2021
*Genre: Black Metal
*Country: Argentina
*Format: mp3@CBR320kbps
*Size: 95MB

Tracklist:
1. El dios del deseo cautivo 06:13
2. Padre de todos los abismos 06:10
3. La infame magia del desierto 06:22
4. Protector del nombre de la deidad sin rostro 06:12
5. Creer en no creer 06:07
6. Dioses creados sobre cimientos de muerte 04:58
7. Iniciación y escepticismo 05:11
******************************
Total playing time: 41:13

Metal Archives




[more=Technical info]
Input File: Genuflexión -1 El dios del deseo cautivo.mp3
Channels : 2
Sample Rate : 48000
Precision : 16-bit
Duration : 00:06:13.16 = 17911632 samples ~ 27986.9 CDDA sectors
File Size : 14.9M
Bit Rate : 320k
Sample Encoding: MPEG audio (layer I, II or III)
Comments :
Title=El dios del deseo cautivo
Artist=Genuflexión
Album=Padre de todos los abismos
Tracknumber=1
Year=2021
Genre=Black Metal

[/more]

Register
(29) acerbus, AlexSmith, alikkon, Boozer, caro, cist, dermarsoran, El_Chibo, ent404, Hexer, HviteGuden, Ildjarn, judaz, kim666, multizwilling, nemx, nsk2008, Olethros, Ostinato, SilentNidhogg, smysl, STN, supremo, Tino, toly1917, tormoz, VALERY, vasiljev_sergej, Авел,
Jun 24 2021, 21:31:30 Irae - Dangerovz Magick Zpells From The Mesziah Of Death [ep] (2021)


*Artist: Irae
*Album: Dangerovz Magick Zpells From The Mesziah Of Death [ep]
*Year: 2021
*Genre: Black Metal
*Country: Portugal
*Format: mp3@CBR320kbps
*Size: 75MB

Tracklist:
1. Part I 05:19
2. Part II 10:38
3. Part III 05:55
4. Part IV 10:24
******************************
Total playing time: 32:16

Metal Archives




[more=Technical info]
Input File: Irae - Part I.mp3
Channels : 2
Sample Rate : 48000
Precision : 16-bit
Duration : 00:05:19.21 = 15321984 samples ~ 23940.6 CDDA sectors
File Size : 12.8M
Bit Rate : 320k
Sample Encoding: MPEG audio (layer I, II or III)
Comments :
Title=Part I
Artist=Irae
Album=Dangerovz Magick Zpells From The Mesziah Of Death
Tracknumber=1
Year=2021
Genre=Raw Black Metal

[/more]

Register
(18) Alexis The Best, caro, Chasm, igore2911, kim666, NachtWulf, nemx, Olethros, Pinhead666, Reverend, robertho777, smysl, thenecromancer, the_cleanser, VALERY, vasiljev_sergej, Vidder242, Wail,
Jun 23 2021, 00:34:30 Sendero Inexorable - Chilwe (2020)


*Artist: Sendero Inexorable
*Album: Chilwe
*Year: 2020
*Genre: Black Metal
*Country: Chile
*Format: mp3@CBR320kbps
*Size: 88MB

Tracklist:
1. Intro (Curi Yampi) 01:52
2. La luz mística de alén 04:26
3. Pay Leghchín Ivi Tura Vauman 04:35
4. Negra y profana 05:43
5. Sargeist 06:38
6. Las penumbras del sur 05:36
7. El triste zorzal 07:01
8. Outro (Chilwe) 02:13
******************************
Total playing time: 38:04


Metal Archives


[more=Technical info]
Input File: Sendero Inexorable -2 La Luz Mística de Alén.mp3
Channels : 2
Sample Rate : 48000
Precision : 16-bit
Duration : 00:04:27.01 = 12816384 samples ~ 20025.6 CDDA sectors
File Size : 10.7M
Bit Rate : 320k
Sample Encoding: MPEG audio (layer I, II or III)
Comments :
Title=La luz mística de alén
Artist=Sendero Inexorable
Album=Chilwe
Tracknumber=2
Year=2020
Genre=Black Metal

[/more]

Register
(20) AlexSmith, caro, ctulhudagon, dan22, Ildjarn, infiltrator, kim666, korovakaska, Olethros, rickzammuto, Rover, sacrut, SilentNidhogg, smysl, supremo, VALERY, varlam4, vasiljev_sergej, Wail, wreak,
Jun 18 2021, 00:19:48 Beyond Man - Beyond Man (2021)


*Artist: Beyond Man
*Album: Beyond Man
*Year: 2021
*Genre: Black Metal
*Country: Norway
*Format: mp3@CBR320kbps
*Size: 76MB

Tracklist:
1. Intro 01:26
2. Helel Ben Sahar 05:46
3. Art Beyond Man 06:06
4. World Without End 06:25
5. Ave Usera 06:08
6. The World Encircler 07:18
******************************
Total playing time: 33:09



Instagram
Metal Archives

[more=Technical info]
Input File: Beyond Man -2 Helel Ben Sahar .mp3
Channels : 2
Sample Rate : 48000
Precision : 16-bit
Duration : 00:05:46.16 = 16615632 samples ~ 25961.9 CDDA sectors
File Size : 13.8M
Bit Rate : 320k
Sample Encoding: MPEG audio (layer I, II or III)
Comments :
Title=Helel Ben Sahar
Artist=Beyond Man
Album=Beyond Man
Tracknumber=2
Year=2021
Genre=Black Metal

[/more]

Register
(47) AlexSmith, alikkon, andivi, Antichrist, blackness, Boozer, caro, craP_cillA, dermarsoran, El_Chibo, ent404, Hell_Is_Here, Hexer, Ildjarn, infiltrator, judaz, kim666, kryptor, madera, Marek, Messian, milosdjor, Mortuusinfernus, nadin85, nemx, obituarydark, oldvarg, Olethros, Ostinato, robertho777, Rover, SaintVitus, satanist666, SilentNidhogg, soulskinner681, supremo, Taakeferd, thenecromancer, Tino, VALERY, varlam4, vasiljev_sergej, Vidder242, Wail, wreak, yuratroll, ZamanFu,
Jun 17 2021, 23:43:18 Kudlaakh - Demo Mmxxi [demo] (2021)


*Artist: Kudlaakh
*Album: Demo Mmxxi [demo]
*Year: 2021
*Genre: Raw Black Metal
*Country: United States
*Format: mp3@CBR320kbps
*Size: 38MB

Tracklist:
1. Intro 02:19
2. The Corpse Is Wandering Again 03:44
3. Returning Spines of Torment 04:14
4. The Glowing Face of Unbeknownst Cruelty (Reclaiming the Flesh) 04:42
5. Epilogue 01:30
******************************
Total playing time: 16:29

Metal Archives


[more=Technical info]
Input File: Kudlaakh -1 Intro .mp3
Channels : 2
Sample Rate : 48000
Precision : 16-bit
Duration : 00:02:19.18 = 6680832 samples ~ 10438.8 CDDA sectors
File Size : 5.57M
Bit Rate : 320k
Sample Encoding: MPEG audio (layer I, II or III)
Comments :
Title=Intro
Artist=Kudlaakh
Album=Demo MMXXI
Tracknumber=1
Year=2021
Genre=Raw Black Metal

[/more]

Register
(8) Alexis The Best, herkusmontas, Ildjarn, nemx, obituarydark, Olethros, vasiljev_sergej, Wail,
Jun 16 2021, 23:53:34 Goatblood - Supreme Triumph Of Evil (2021)


*Artist: Goatblood
*Album: Supreme Triumph Of Evil
*Year: 2021
*Genre: Black Metal
*Country: Australia
*Format: mp3@CBR320kbps
*Size: 54MB

Tracklist:
1. Intro 01:50
2. Deathmarch 05:06
3. Invokation of the Serpents Flame 06:17
4. Dominion Within the Black Forest (reprise) 03:30
5. Supreme Triumph of Evil 04:14
6. Outro 02:44
******************************
Total playing time: 23:41


Metal Archives

[more=Technical info]
Input File: Goatblood -1 Intro.mp3
Channels : 2
Sample Rate : 48000
Precision : 16-bit
Duration : 00:01:48.18 = 5192448 samples ~ 8113.2 CDDA sectors
File Size : 4.33M
Bit Rate : 320k
Sample Encoding: MPEG audio (layer I, II or III)
Comments :
Title=Intro
Artist=Goatblood
Album=Supreme Triumph of Evil
Tracknumber=1
Year=2021
Genre=Black Metal

[/more]

Register
(37) Alexis The Best, AlexSmith, alikkon, Antichrist, ChaosArcana, craP_cillA, DeathDragon, gena, heinz88, Hell_Is_Here, Hexer, Ildjarn, infiltrator, kim666, lobosolitario, lunaraurora, Morra, MortSathynr, nemx, Olethros, Pinhead666, raaf, Reverend, robertho777, Rover, SilentNidhogg, stub888, supremo, Taakeferd, toly1917, VALERY, varlam4, vasiljev_sergej, Vidder242, Wail, wreak, WX419,
Jun 11 2021, 23:42:17 Inner Abyss - In The Name Of Ruin [demo] (2021)


*Artist: Inner Abyss
*Album: In The Name Of Ruin [demo]
*Year: 2021
*Genre: Raw Black Metal
*Country: Unknown
*Format: mp3@CBR320kbps
*Size: 36MB

Tracklist:
1. Chasmic Egolence 04:45
2. Lost 06:04
3. In the Name of Ruin 04:45
******************************
Total playing time: 15:34


Metal Archives

[more=Extended info]Perverse Homage ‎– 078[/more]

[more=Technical info]
Input File: Inner Abyss -1 Chasmic Egolence.mp3
Channels : 2
Sample Rate : 48000
Precision : 16-bit
Duration : 00:04:45.20 = 13689600 samples ~ 21390 CDDA sectors
File Size : 11.4M
Bit Rate : 320k
Sample Encoding: MPEG audio (layer I, II or III)
Comments :
Title=Chasmic Egolence
Artist=Inner Abyss
Album=In the Name of Ruin
Tracknumber=1
Year=2021
Genre=Raw Black Metal

[/more]

Register
(16) dermarsoran, herkusmontas, infiltrator, kim666, nemx, Olethros, Ostinato, SilentNidhogg, smysl, Taakeferd, uk82grind, VALERY, varlam4, vasiljev_sergej, Wail, wreak,
Jun 10 2021, 15:39:10 Crucifixion Bell - Eternal Grip Of The Nocturnal Empire (2021)


*Artist: Crucifixion Bell
*Album: Eternal Grip Of The Nocturnal Empire
*Year: 2021
*Genre: Raw Black Metal
*Country: United States
*Format: mp3@CBR320kbps
*Size: 67MB

Tracklist:
1. Awakening Spell of the Nameless 01:54
2. Eternal Grip of the Nocturnal Empire I: Scent of the Blood Altar 05:02
3. Eternal Grip of the Nocturnal Empire II: Prehistoric Nightmare 03:31
4. Eclipsed Moon of the Eternal Feast 02:23
5. Awaiting the Welkin Dawn 07:31
6. Fields of Everlasting Night 02:58
7. Algol in Flames 05:32
******************************
Total playing time: 28:51




[more=Extended info]Cassette out 6/11/21 by Crown & Throne.
Artwork by Sam Thomas (@set33).
All music by Crucifixion Bell, MMXXI.[/more]

[more=Technical info]
Input File: Crucifixion Bell -1 Awakening Spell of the Nameless.mp3
Channels : 2
Sample Rate : 48000
Precision : 16-bit
Duration : 00:01:54.63 = 5502384 samples ~ 8597.48 CDDA sectors
File Size : 4.59M
Bit Rate : 320k
Sample Encoding: MPEG audio (layer I, II or III)
Comments :
Title=Awakening Spell of the Nameless
Artist=Crucifixion Bell
Album=Eternal Grip of the Nocturnal Empire
Tracknumber=1
Year=2021
Genre=Raw Black Metal

[/more]

Register
(29) Alexis The Best, AlexSmith, Boozer, Bzth, caro, DeathDragon, ent404, grimoir, infiltrator, kim666, Morra, murian, nemx, Olethros, rimfrost, rominow, Rover, satanist666, SilentNidhogg, smysl, stub888, supremo, Taakeferd, thenecromancer, VALERY, varlam4, vasiljev_sergej, Wail, wreak,
Jun 10 2021, 00:18:54 Ostots & Gaua - Ostots/Gaua [split] (2021)


*Artist: Ostots & Gaua
*Album: Ostots/Gaua [split]
*Year: 2021
*Genre: Black Metal | Black Metal
*Country: Spain | Spain
*Format: mp3@CBR320kbps
*Size: 62MB

Tracklist:
Ostots
1. Lainoak Estaltzen Duena 05:07
2. Hilda Jaio 07:28

Gaua
3. The Longing 03:09
4. Shallow Weltanschauung 05:08
5. I'll be Your Tears 05:56
******************************
Total playing time: 26:48


Metal Archives

[more=Technical info]
Input File: 1 Ostots - Lainoak Estaltzen Duena.mp3
Channels : 2
Sample Rate : 48000
Precision : 16-bit
Duration : 00:05:07.18 = 14744784 samples ~ 23038.7 CDDA sectors
File Size : 12.3M
Bit Rate : 320k
Sample Encoding: MPEG audio (layer I, II or III)
Comments :
Title=Lainoak Estaltzen Duena
Artist=Ostots
Album=Ostots / Gaua
Tracknumber=1
Year=2021
Genre=Black Metal

[/more]

Register
(28) acerbus, alikkon, Boozer, ent404, gena, Hell_Is_Here, Hexer, Ildjarn, infiltrator, kim666, Lanceatum, little_raven, mondblut, Morra, murian, nemx, Ostinato, Qliphoth, Reverend, satanist666, SilentNidhogg, squall8fr, stub888, VALERY, varlam4, vasiljev_sergej, Wail, wreak,
Jun 3 2021, 21:39:30 Surmaus - Stiletto Of Terror [ep] (2021)


*Artist: Surmaus
*Album: Stiletto Of Terror [ep]
*Year: 2021
*Genre: Black Metal
*Country: Finland
*Format: mp3@CBR320kbps
*Size: 38MB

Tracklist:
1. Vapahtajanmurha 04:29
2. Stiletto of Terror 03:40
3. To Smite... 03:51
4. Käsi sydämellä 04:20
******************************
Total playing time: 16:20

Metal Archives



[more=Technical info]
Input File: Surmaus - 1 Vapahtajanmurha.mp3
Channels : 2
Sample Rate : 48000
Precision : 16-bit
Duration : 00:04:29.22 = 12922368 samples ~ 20191.2 CDDA sectors
File Size : 10.8M
Bit Rate : 320k
Sample Encoding: MPEG audio (layer I, II or III)
Comments :
Title=Vapahtajanmurha
Artist=Surmaus
Album=Stiletto of Terror
Tracknumber=1
Year=2021
Genre=Black Metal

[/more]

Register
(7) kim666, Olethros, satanist666, varlam4, vasiljev_sergej, Vitald, Wail,
Jun 3 2021, 17:40:43 Ärid - Xiii - The Putrefying Rest [demo] (2021)


*Artist: Ärid
*Album: Xiii - The Putrefying Rest [demo]
*Year: 2021
*Genre: Raw Black Metal
*Country: United States
*Format: mp3@CBR320kbps
*Size: 44MB

Tracklist:
1. Intelligence Bestowed Into That Which Lies Inanimate and Barren... 06:34
2. Mine, The Gangrenous Hand of Wrest 07:33
3. Decaying Trail of Ominous Augurs 04:45
******************************
Total playing time: 18:52




[more=Extended info]Lost recordings, 2018.[/more]

[more=Technical info]
Input File: Ärid - 1 Intelligence Bestowed Into That Which Lies Inanimate and Barren.mp3
Channels : 2
Sample Rate : 44100
Precision : 16-bit
Duration : 00:06:34.18 = 17383470 samples = 29563.7 CDDA sectors
File Size : 15.8M
Bit Rate : 320k
Sample Encoding: MPEG audio (layer I, II or III)
Comments :
Title=Intelligence Bestowed Into That Which Lies Inanimate and Barren...
Artist=Ärid
Album=XIII - The Putrefying Rest
Tracknumber=1
Year=2021
Genre=Raw Black Metal

[/more]

Register
(15) Alexis The Best, caro, Hell_Is_Here, infiltrator, kim666, nemx, Olethros, satanist666, SilentNidhogg, stub888, VALERY, varlam4, vasiljev_sergej, Wail, wreak,
Jun 2 2021, 19:41:35 Likferd - Watchtowers Of Anticosmos (2021)


*Artist: Likferd
*Album: Watchtowers Of Anticosmos
*Year: 2021
*Genre: Black Metal
*Country: Russian Federation
*Format: mp3@CBR320kbps
*Size: 98MB

Tracklist:
1. Hymn of the Tower 01:48
2. Ancient Pagan Blasphemy 06:06
3. Watchtowers of Anticosmos 04:58
4. Flames Deep in the Night 05:42
5. Halls of Ice 05:18
6. Night Monument 06:44
7. Death to Odin 06:28
8. I Sing My Songs With the Wolves 05:12
******************************
Total playing time: 42:16


Metal Archives


[more=Technical info]
Input File: Likferd - 1 Hymn of the Tower.mp3
Channels : 2
Sample Rate : 44100
Precision : 16-bit
Duration : 00:01:48.20 = 4771664 samples = 8115.07 CDDA sectors
File Size : 4.33M
Bit Rate : 320k
Sample Encoding: MPEG audio (layer I, II or III)
Comments :
Title=Hymn of the Tower
Artist=Likferd
Album=Watchtowers of Anticosmos
Tracknumber=1
Year=2021
Genre=Black Metal

[/more]

Register
(34) AlexSmith, alikkon, Antiscum, Boozer, Bregon, Bzth, caro, dermarsoran, Haunting, Hell_Is_Here, Ildjarn, infiltrator, judaz, kim666, Marek, Moonshtook, Occultas, Olethros, Qliphoth, ripper33, robertho777, Rover, satanist666, sethurius, SilentNidhogg, SSWolf88, supremo, Taakeferd, VALERY, varlam4, vasiljev_sergej, Wail, Waldemar666, wreak,
Jun 2 2021, 19:26:07 Tundra Obscura - Demo I [demo] (2021)


*Artist: Tundra Obscura
*Album: Demo I [demo]
*Year: 2021
*Genre: Raw Black Metal
*Country: Portugal
*Format: mp3@CBR320kbps
*Size: 64MB

Tracklist:
1. As Trevas da Noite 05:45
2. Pelos Trilhos Longínquos 07:30
3. Caminhos Eternos pelo Inverno Profundo 04:37
4. O retorno ancestral através dos dolmens erguidos (Ressuscitei da terra) 09:52
******************************
Total playing time: 27:44

Metal Archives


[more=Technical info]
Input File: Tundra Obscura - 1 As Trevas da Noite.mp3
Channels : 2
Sample Rate : 48000
Precision : 16-bit
Duration : 00:05:45.27 = 16573056 samples ~ 25895.4 CDDA sectors
File Size : 13.8M
Bit Rate : 320k
Sample Encoding: MPEG audio (layer I, II or III)
Comments :
Title=As Trevas da Noite
Artist=Tundra Obscura
Album=Demo I
Tracknumber=1
Year=2021
Genre=Raw Black Metal

[/more]

Register
(10) Ildjarn, kim666, Olethros, satanist666, stub888, thenecromancer, varlam4, vasiljev_sergej, Wail, Waldemar666,
Jun 2 2021, 19:06:12 Werwolf - Blutgericht [ep] (2021)


*Artist: Werwolf
*Album: Blutgericht [ep]
*Year: 2021
*Genre: Black Metal
*Country: Germany
*Format: mp3@CBR320kbps
*Size: 47MB

Tracklist:
1. Schwarzes Blut 05:34
2. Raserei 04:20
3. Blutgericht 03:25
4. Spiegelschein 03:49
5. Kontemplation 02:58
******************************
Total playing time: 20:06

Metal Archives



[more=Technical info]
Input File: Werwolf - 3 Blutgericht.mp3
Channels : 2
Sample Rate : 48000
Precision : 16-bit
Duration : 00:03:25.25 = 9852240 samples ~ 15394.1 CDDA sectors
File Size : 8.21M
Bit Rate : 320k
Sample Encoding: MPEG audio (layer I, II or III)
Comments :
Title=Blutgericht
Artist=Werwolf
Album=Blutgericht
Tracknumber=3
Year=2021
Genre=Black Metal

[/more]

Register
(18) azar, caro, craP_cillA, kim666, Marek, Moonshtook, murian, NSGM, robertho777, satanist666, stub888, Taakeferd, THROWER666, VALERY, varlam4, vasiljev_sergej, Vitald, Wail,
May 31 2021, 22:13:15 Drakon Ho Megas - Drakon Ho Megas (2021)


*Artist: Drakon Ho Megas
*Album: Drakon Ho Megas
*Year: 2021
*Genre: Black Metal
*Country: Greece
*Format: mp3@CBR320kbps
*Size: 78MB

Tracklist:
1. ΓΕΝΕΣΙΣ 01:53
2. ΑΠΟ ΚΑΤΑΒΟΛΗΣ ΧΑΟΣ 05:04
3. ΛΙΛΙΘ (H μήτρα του σκότους) 05:00
4. ΛΕΒΙΑΘΑΝ 05:18
5. Kain 05:50
6. ΔΡΑΚΩΝ Ο ΜΕΓΑΣ 07:26
7. ΒΑΒΥΛΩΝ (Η μεγάλη πόρνη) 03:13
******************************
Total playing time: 33:44




Metal Archives

[more=Technical info]
Input File: Drakon Ho Megas -1 Genesis - ΓΕΝΕΣΙΣ.mp3
Channels : 2
Sample Rate : 48000
Precision : 16-bit
Duration : 00:01:50.22 = 5290368 samples ~ 8266.2 CDDA sectors
File Size : 4.41M
Bit Rate : 320k
Sample Encoding: MPEG audio (layer I, II or III)
Comments :
Title=Genesis / ΓΕΝΕΣΙΣ
Artist=Drakon Ho Megas
Album=Drakon Ho Megas
Tracknumber=1
Year=2021
Genre=Black Metal

[/more]

Register
(25) Bregon, caro, ctulhudagon, DarkHorde, dermarsoran, El_Chibo, Hell_Is_Here, Ildjarn, infiltrator, kim666, Marek, nemx, Olethros, robertho777, Rover, satanist666, SilentNidhogg, supremo, Taakeferd, undeadlich, VALERY, varlam4, vasiljev_sergej, Wail, wreak,
May 27 2021, 15:46:34 Krigstjørn - Liv, Død Og Mellemvejen [demo] (2021)


*Artist: Krigstjørn
*Album: Liv, Død Og Mellemvejen [demo]
*Year: 2021
*Genre: Black Metal
*Country: Denmark
*Format: mp3@CBR320kbps
*Size: 77MB

Tracklist:
1. Bevokset I Arme og Ben 04:18
2. Liv, Død og Mellemvejen 04:26
3. Livets løfte 06:14
4. Ben for ben 03:05
5. Dødens løfte 05:44
6. Møllesang 09:37
******************************
Total playing time: 33:24

Metal Archives


[more=Technical info]
Input File: Krigstjørn - 1 Bevokset I Arme Og Ben.mp3
Channels : 2
Sample Rate : 48000
Precision : 16-bit
Duration : 00:04:17.57 = 12363600 samples ~ 19318.1 CDDA sectors
File Size : 10.3M
Bit Rate : 320k
Sample Encoding: MPEG audio (layer I, II or III)
Comments :
Title=Bevokset I Arme og Ben
Artist=Krigstjørn
Album=Liv, Død og Mellemvejen
Tracknumber=1
Year=2021
Genre=Black Metal

[/more]

Register
(10) Alexis The Best, HMHamster, kim666, Kuratsu, Olethros, satanist666, Sjelekval, thenecromancer, vasiljev_sergej, Vitald,
May 26 2021, 15:32:39 Simorgh - Shokooh​-​e Mehr Va Atash (2021)


*Artist: Simorgh
*Album: Shokooh​-​e Mehr Va Atash
*Year: 2021
*Genre: Raw/Atmospheric Black Metal
*Country: Unknown
*Format: mp3@CBR320kbps
*Size: 74MB

Tracklist:
1. Shokooh-e Mehr Va Atash 29:25
******************************
Total playing time: 29:25




[more=Technical info]
Input File: SIMORGH - SIMORGH - Shokooh-e Mehr Va Atash - 01 Shokooh-e Mehr Va Atash.mp3
Channels : 2
Sample Rate : 44100
Precision : 16-bit
Duration : 00:29:25.19 = 77844923 samples = 132389 CDDA sectors
File Size : 70.9M
Bit Rate : 321k
Sample Encoding: MPEG audio (layer I, II or III)
Comments :
Title=Shokooh-e Mehr Va Atash
Artist=SIMORGH
Album=SIMORGH - Shokooh-e Mehr Va Atash
Tracknumber=1
Year=2021

[/more]

Register
(15) AlexSmith, blacky66, kim666, NachtWulf, Olethros, rammmirez, robertho777, satanist666, supremo, Taakeferd, VALERY, varlam4, vasiljev_sergej, Wail, wreak,
May 26 2021, 01:39:38 Gouffre - 1. Grim Spirit [demo] (2019)


*Artist: Gouffre
*Album: 1. Grim Spirit [demo]
*Year: 2019
*Genre: Raw Black Metal
*Country: Belgium
*Format: mp3@CBR320kbps
*Size: 32MB

Tracklist:
1. Intro 01:04
2. Demon Path 04:36
3. Throne Made of Skulls 03:23
4. Ooirim 04:06
******************************
Total playing time: 13:09

Metal Archives


[more=Technical info]
Input File: Gouffre -1 Intro .mp3
Channels : 2
Sample Rate : 48000
Precision : 16-bit
Duration : 00:01:05.41 = 3139536 samples ~ 4905.52 CDDA sectors
File Size : 2.62M
Bit Rate : 320k
Sample Encoding: MPEG audio (layer I, II or III)
Comments :
Title=Intro
Artist=Gouffre
Album=1. Grim Spirit
Tracknumber=1
Year=2019
Genre=Raw Black Metal

[/more]

Register
(10) Alexis The Best, Ildjarn, infiltrator, kim666, obituarydark, Olethros, satanist666, varlam4, vasiljev_sergej, Wail,
May 26 2021, 01:12:20 Hinthial - Raśna [demo] (2021)


*Artist: Hinthial
*Album: Raśna [demo]
*Year: 2021
*Genre: Black Metal
*Country: Italy
*Format: mp3@CBR320kbps
*Size: 32MB

Tracklist:
1. Raśna Sval 07:07
2. Fanum Voltumna 06:49
******************************
Total playing time: 13:56





[more=Technical info]
Input File: Hinthial -1 Raśna Sval .mp3
Channels : 2
Sample Rate : 48000
Precision : 16-bit
Duration : 00:07:07.26 = 20508288 samples ~ 32044.2 CDDA sectors
File Size : 17.1M
Bit Rate : 320k
Sample Encoding: MPEG audio (layer I, II or III)
Comments :
Title=Raśna Sval
Artist=Hinthial
Album=Raśna
Tracknumber=1
Year=2021
Genre=Black Metal

[/more]

Register
(12) Ildjarn, infiltrator, kim666, nemx, obituarydark, Olethros, rammmirez, satanist666, thenecromancer, varlam4, vasiljev_sergej, Wail,
May 26 2021, 00:58:22 Nigrum Pluviam - Eternal Fall Into The Abyss (2021)


*Artist: Nigrum Pluviam
*Album: Eternal Fall Into The Abyss
*Year: 2021
*Genre: Raw Black Metal
*Country: France
*Format: mp3@CBR320kbps
*Size: 97MB

Tracklist:
1. The Whisper of the Black Rain 02:03
2. A Catharsis for the Wretched Carrying the Divine Cross 06:23
3. The Reflection of Your Agony in the Vulture's Eyes 07:11
4. Devotion to Absolute Evil 03:12
5. Passage 02:40
6. In the Suffocating Mist 07:35
7. Shadows and Lights 06:18
8. From the Earth to the Abyss Through Suffering 06:36
******************************
Total playing time: 41:58

Metal Archives


[more=Extended info]Nigrum Pluviam is Kraëh Määtruum
Part of Garde Noire colective[/more]

[more=Technical info]
Input File: Nigrum Pluviam -1 The Whisper of the Black Rain.mp3
Channels : 2
Sample Rate : 48000
Precision : 16-bit
Duration : 00:02:03.22 = 5914800 samples ~ 9241.88 CDDA sectors
File Size : 4.93M
Bit Rate : 320k
Sample Encoding: MPEG audio (layer I, II or III)
Comments :
Title=The Whisper of the Black Rain
Artist=Nigrum Pluviam
Album=Eternal Fall into the Abyss
Tracknumber=1
Year=2021
Genre=Raw Black Metal

[/more]

Register
(13) AlexSmith, Constantinus I, infiltrator, judaz, kim666, nemx, obituarydark, Occultas, Olethros, satanist666, varlam4, vasiljev_sergej, Wail,
May 25 2021, 18:16:14 Funeral Crown - Funeral Crown (2021)


*Artist: Funeral Crown
*Album: Funeral Crown
*Year: 2021
*Genre: Raw Black Metal/Dark Ambient/Dungeon Synth
*Country: Russian Federation
*Format: mp3@CBR320kbps
*Size: 128MB

Tracklist:
1. Intro 03:10
2. Crimson moon coronation 07:32
3. Falling into the abyss of sinful deeds 10:08
4. A feast of worms during the black death 07:40
5. Craving for ugliness 07:50
6. Posthumously canonized martyr 08:45
7. Glommy forest 07:11
8. Outro 03:33
******************************
Total playing time: 55:49




[more=Extended info]Released at: Jems Label.
Jems Label - 157.

Limited Edition Digipak CD: 100 copies.

This group involves musicians from one man projects:
Vampyric Spell,
Einsamkeit,
Cultustepean,
Extreme Kindness,
Athame.[/more]

[more=Technical info]
Input File: Funeral Crown -2 Crimson moon coronation.mp3
Channels : 2
Sample Rate : 44100
Precision : 16-bit
Duration : 00:07:32.57 = 19958337 samples = 33942.8 CDDA sectors
File Size : 18.1M
Bit Rate : 320k
Sample Encoding: MPEG audio (layer I, II or III)
Comments :
Title=Crimson moon coronation
Artist=Funeral Crown
Album=Funeral Crown
Tracknumber=2
Year=2021
Genre=Raw Black Metal

[/more]

Register
(18) AlexSmith, Bregon, Daale, deadterror, heinz88, infiltrator, kim666, obituarydark, Olethros, robertho777, SilentNidhogg, stormhatt, supremo, Taakeferd, varlam4, vasiljev_sergej, Wail, wreak,
May 23 2021, 01:25:25 Nächtlich - Bewitched Under Hollow Nightskies [demo] (2021)


*Artist: Nächtlich
*Album: Bewitched Under Hollow Nightskies [demo]
*Year: 2021
*Genre: Raw Black Metal
*Country: Canada
*Format: mp3@CBR320kbps
*Size: 64MB

Tracklist:
1. Hexed Candle Sodomy 08:35
2. Soaring Beyond Nightskies 04:32
3. The Zenith of All Curses Uttered 04:52
4. Toiling into Endless Graves 03:59
5. Bewitched Under the Hollow Eye 05:44
******************************
Total playing time: 27:42

Metal Archives



[more=Technical info]
Input File: Nächtlich -1 Hexed Candle Sodomy.mp3
Channels : 2
Sample Rate : 48000
Precision : 16-bit
Duration : 00:08:36.15 = 24775344 samples ~ 38711.5 CDDA sectors
File Size : 20.6M
Bit Rate : 320k
Sample Encoding: MPEG audio (layer I, II or III)
Comments :
Title=Hexed Candle Sodomy
Artist=Nächtlich
Album=Bewitched Under Hollow Nightskies
Tracknumber=1
Year=2021
Genre=Raw Black Metal

[/more]

Register
(9) Alexis The Best, Ildjarn, kim666, nemx, Olethros, stub888, varlam4, vasiljev_sergej, Wail,
May 22 2021, 01:38:43 Wallachian Necromoon - Impaling The Laws Of God (2021)


*Artist: Wallachian Necromoon
*Album: Impaling The Laws Of God
*Year: 2021
*Genre: Black Metal
*Country: United States
*Format: mp3@CBR320kbps
*Size: 92MB

Tracklist:
1. Blood of Târgoviste 2:17
2. Invoking the Carpathian Blood Moon 6:45
3. Swords of the Storm 7:24
4. Dawn of Eternal Darkness 6:28
5. Screams from the Citadel 5:27
6. Lampir's Creed 4:49
7. Impaling the Laws of God 6:48
******************************
Total playing time: 39:58

Metal Archives



[more=Technical info]
Input File: Wallachian Necromoon -3 Swords of the Storm.mp3
Channels : 2
Sample Rate : 48000
Precision : 16-bit
Duration : 00:07:24.37 = 21329712 samples ~ 33327.7 CDDA sectors
File Size : 17.8M
Bit Rate : 320k
Sample Encoding: MPEG audio (layer I, II or III)
Comments :
Title=Swords of the Storm
Artist=Wallachian Necromoon
Album=Impaling the Laws of God
Tracknumber=3
Year=2021
Genre=Black Metal

[/more]

Register
(14) AlexSmith, craP_cillA, Ildjarn, judaz, kim666, Marek, Olethros, sagratan, satanist666, stormhatt, thenecromancer, varlam4, vasiljev_sergej, Wail,
May 22 2021, 01:09:58 Blutschwur & Mäleficentt - Ancestral Might [split] (2021)


*Artist: Blutschwur & Mäleficentt
*Album: Ancestral Might [split]
*Year: 2021
*Genre: Raw Black Metal | Raw Black Metal
*Country: United States | United States
*Format: mp3@CBR320kbps
*Size: 25MB

Tracklist:
Blutschwur
1. Crown of Nails 03:43
2. Elder Blood 02:02

Mäleficentt
3. Tzitizimime (The Skeletal Star Spirits) 05:07
******************************
Total playing time: 10:52

Metal Archives



[more=Technical info]
Input File: 1 Blutschwur - Crown of Nails.mp3
Channels : 2
Sample Rate : 48000
Precision : 16-bit
Duration : 00:03:43.06 = 10707024 samples ~ 16729.7 CDDA sectors
File Size : 8.92M
Bit Rate : 320k
Sample Encoding: MPEG audio (layer I, II or III)
Comments :
Title=Crown of Nails
Artist=Blutschwur
Album=Ancestral Might
Tracknumber=1
Year=2021
Genre=Raw Black Metal

[/more]

Register
(18) caro, grimoir, Ildjarn, infiltrator, kim666, Marek, nemx, satanist666, SilentNidhogg, supremo, S_tarot, Taakeferd, thewindbelow23, VALERY, varlam4, vasiljev_sergej, Wail, wreak,

14 Pages V   1 2 3 > » 
- Lo-Fi Version Support form
Copyrights and abuse reports form
Time is now: 3rd August 2021 - 13:12:56