Welcome Guest ( Log In | Register )

История благодарностей участнику Cramloth ::: Спасибо сказали: 5496 раз(а)
Дата поста: В теме: За сообщение: Спасибо сказали:
Oct 7 2020, 01:46:46 Odvas - The Haunting Turmoil Of The Stormcorner Soul (2020)


*Artist: Odvas
*Album: The Haunting Turmoil Of The Stormcorner Soul
*Year: 2020
*Genre: Drone/Dark Ambient
*Country: Hungary
*Format: mp3@CBR320kbps
*Size: 61MB

Tracklist:
I Kargatronas Odvas 15:10
II Embrace of Wounded Grey Foliage 6:17
III Rising of The Stormcorner 7:59
******************************
Total playing time: 29:26


Discogs

[more=Extended info]26 minutes of radical black ambient with ritual industrial elements.
Limited to 50 hand numbered copies.[/more]

[more=Technical info]
Input File: Odvas - 1 Kargatronas Odvas.mp3
Channels : 2
Sample Rate : 44100
Precision : 16-bit
Duration : 00:14:07.19 = 37361123 samples = 63539.3 CDDA sectors
File Size : 33.9M
Bit Rate : 320k
Sample Encoding: MPEG audio (layer I, II or III)

[/more]

Register
(1) wilveryn,
Oct 6 2020, 23:18:03 Ynkleudherhenavogyon - Arvor Mysteri (2020)


*Artist: Ynkleudherhenavogyon
*Album: Arvor Mysteri
*Year: 2020
*Genre: Raw Black Metal
*Country: United Kingdom
*Format: mp3@CBR320kbps
*Size: 84MB

Tracklist:
1. Dalleth Nevyon Mordonnow 07:22
2. Gwythiek Skentoleth 05:47
3. Krefter Yn-kerghyn Fenten Keynresyow 14:29
4. Arvor Mysteri 09:13
5. Efanvos en ow Enev 06:41
******************************
Total playing time: 43:32

Metal Archives


[more=Extended info][youtube]2WzB5FDRyyk[/youtube][/more]

[more=Technical info]
Input File: Pagan Funeral - 1 The Eternal Travel of a Forgotten Path (Intro) .mp3
Channels : 2
Sample Rate : 44100
Precision : 16-bit
Duration : 00:01:27.07 = 3839655 samples = 6530.03 CDDA sectors
File Size : 3.48M
Bit Rate : 320k
Sample Encoding: MPEG audio (layer I, II or III)

[/more]

Register
(3) Bzth, satanist666, varlam4,
Oct 6 2020, 22:51:48 Pagan Funeral - Nam In Aeternum (2016)


*Artist: Pagan Funeral
*Album: Nam In Aeternum
*Year: 2016
*Genre: Pagan Black Metal
*Country: Chile
*Format: mp3@CBR320kbps
*Size: 84MB

Tracklist:
1. The Eternal Travel of a Forgotten Path (Intro) 01:26
2. From Pagan Land 05:28
3. Spectral Wisdom of Time 05:07
4. Winds of the Unknown (Interlude I) 01:08
5. Hammerblood 06:08
6. The Silence of Forgotten Retrospective 04:51
7. The Blind Embrace of the Dead 04:28
8. Visions of Desolation 01:06
9. Endless Funeral 06:52
******************************
Total playing time: 36:34

Metal Archives


[more=Extended info][youtube]2WzB5FDRyyk[/youtube][/more]

[more=Technical info]
Input File: Pagan Funeral - 1 The Eternal Travel of a Forgotten Path (Intro) .mp3
Channels : 2
Sample Rate : 44100
Precision : 16-bit
Duration : 00:01:27.07 = 3839655 samples = 6530.03 CDDA sectors
File Size : 3.48M
Bit Rate : 320k
Sample Encoding: MPEG audio (layer I, II or III)

[/more]

Register
(17) 1968_janeart, AlexSmith, Ildjarn, infiltrator, killingod, kim666, legion01, metala, Olethros, Qliphoth, Rosen, Rudolfo_Metal, thenecromancer, varlam4, vasiljev_sergej, Wail, Сварог Барг,
Oct 6 2020, 21:47:23 Cimetière - Extinction (2020)


*Artist: Cimetière
*Album: Extinction
*Year: 2020
*Genre: Black Metal
*Country: Canada
*Format: mp3@CBR320kbps
*Size: 69MB

Tracklist:
I - Aveuglés 3:22
II - Vengeance 2:57
III - Sinistre Destinée 5:17
IV - Fléau Universel 3:21
V - Livrés aux Charognards 2:56
VI - Disciples du Néant 2:23
VII - Nous Serons Victorieux 2:59
VIII - Extinction 7;19
******************************
Total playing time: 23:15

Metal Archives


[more=Extended info][youtube]eeVNN-dYwn0[/youtube][/more]

[more=Technical info]
Input File: Cimetière - 1 Aveuglés.mp3
Channels : 2
Sample Rate : 44100
Precision : 16-bit
Duration : 00:03:22.06 = 8910846 samples = 15154.5 CDDA sectors
File Size : 8.08M
Bit Rate : 320k
Sample Encoding: MPEG audio (layer I, II or III)

[/more]

Register
(6) Alexis The Best, kim666, Rudolfo_Metal, satanist666, thenecromancer, Wail,
Oct 4 2020, 01:07:46 Mors Atra Crucis - Demo Ii [demo] (2020)


*Artist: Mors Atra Crucis
*Album: Demo Ii [demo]
*Year: 2020
*Genre: Raw Black Metal
*Country: International
*Format: mp3@CBR320kbps
*Size: 47MB

Tracklist:
1. Demons from Upper Thrones 03:15
2. Holocaust 03:34
3. Unearthly Shadow 04:45
4. Occult Battle 02:33
5. Leper's Legacy 04:06
6. Plague III 02:10
******************************
Total playing time: 20:23

Metal Archives


[more=Extended info]Anglo-Portuguese Black Metal duo featuring members of White Medal and Satanize.
[youtube]P45FWMVFMYU[/youtube][/more]

[more=Technical info]
Input File: Mors Atra Crucis - 1 Demons From Upper Thrones.mp3
Channels : 2
Sample Rate : 44100
Precision : 16-bit
Duration : 00:03:15.27 = 8611319 samples = 14645.1 CDDA sectors
File Size : 7.81M
Bit Rate : 320k
Sample Encoding: MPEG audio (layer I, II or III)

[/more]

Register
(17) Forcerecon1, heinz88, Hell_Is_Here, Ildjarn, infiltrator, kim666, Olethros, randumbum, Rosen, satanist666, SilentNidhogg, VALERY, varlam4, vasiljev_sergej, Velmi, Wail, wreak,
Oct 2 2020, 21:55:48 Candelabrum & Sulphuric Night - Death Slumbers Amidst The Ruins [split] (2020)
vbr 320
Register
(9) 1968_janeart, infiltrator, nemx, Occultas, satanist666, Tyrone, varlam4, vasiljev_sergej, Wail,
Oct 2 2020, 01:39:05 Verdunkeln - Verdunkeln (2005)
320VBR
Register
(2) elsunga, Wail,
Oct 2 2020, 01:18:33 Eremitic Trance - Untitled [demo] (2020)


*Artist: Eremitic Trance
*Album: Untitled [demo]
*Year: 2020
*Genre: Raw Black Metal
*Country: Unknown
*Format: mp3@CBR320kbps
*Size: 29MB

Tracklist:
A Untitled
B Untitled
******************************
Total playing time: 12:32

Metal Archives

[more=Extended info][youtube]EsxH8ro4sJw[/youtube][/more]

[more=Technical info]
Input File: Eremitic Trance - Untitled I.mp3
Channels : 2
Sample Rate : 44100
Precision : 16-bit
Duration : 00:06:01.96 = 15962348 samples = 27146.9 CDDA sectors
File Size : 14.5M
Bit Rate : 320k
Sample Encoding: MPEG audio (layer I, II or III)

[/more]

Register
(9) dermarsoran, infiltrator, kim666, Olethros, Rosen, Rudolfo_Metal, stub888, vasiljev_sergej, Wail,
Oct 2 2020, 00:08:56 Candelabrum & Sulphuric Night - Death Slumbers Amidst The Ruins [split] (2020)


*Artist: Candelabrum & Sulphuric Night
*Album: Death Slumbers Amidst The Ruins [split]
*Year: 2020
*Genre: Atmospheric Black Metal | Raw Black Metal
*Country: Portugal | Bosnia and Herzegovina
*Format: mp3@VBR128kbps
*Size: 28MB

Tracklist:
Candelabrum
1. The Labyrinth of Mist (Into the Oracle) 10:10
Sulphuric Night
2. To the Cobwebs of Non-existence (Death Awaits) 10:40
******************************
Total playing time: 20:50

Metal Archives

[more=Extended info][youtube]XhJbOHFIq2A[/youtube][/more]

[more=Technical info]
Input File: Sulphuric_Night_To_The_Cobwebs_Of_Non_Existence_Death_Awaits.mp3
Channels : 2
Sample Rate : 44100
Precision : 16-bit
Duration : 00:20:38.39 = 54612955 samples = 92879.2 CDDA sectors
File Size : 19.8M
Bit Rate : 128k
Sample Encoding: MPEG audio (layer I, II or III)

[/more]

Register
(16) 1968_janeart, Alexis The Best, Boozer, Chasm, Ildjarn, INDARKNESS, infiltrator, kim666, Lanceatum, murian, nemx, Occultas, Rosen, satanist666, varlam4, Wail,
Oct 1 2020, 23:27:44 Emanations - Omiero (2020)


*Artist: Emanations
*Album: Omiero
*Year: 2020
*Genre: Black Metal
*Country: Chile
*Format: mp3@CBR320kbps
*Size: 66MB

Tracklist:
1. Semita Ignis Spinosa 07:23
2. Nodis Iter 07:27
3. Qayin Coronatus, Scriptumst! 08:08
4. Sancte Qalmana 06:00
******************************
Total playing time: 28:58

[more=Extended info]
[youtube]FfV-3hrUYMk[/youtube][/more]

[more=Technical info]
Input File: Emanations - Nodis Iter.mp3
Channels : 2
Sample Rate : 44100
Precision : 16-bit
Duration : 00:07:28.06 = 19759402 samples = 33604.4 CDDA sectors
File Size : 17.9M
Bit Rate : 320k
Sample Encoding: MPEG audio (layer I, II or III)

[/more]

Register
(17) AlexSmith, Chasm, Cyrci, ent404, infiltrator, kim666, korovakaska, Korpse, multizwilling, Occultas, Olethros, Rosen, satanist666, Septikos Mortel, vasiljev_sergej, Wail, WOLAND,
Oct 1 2020, 01:57:11 Grole - Grole [demo] (2020)


*Artist: Grole
*Album: Grole [demo]
*Year: 2020
*Genre: Raw Black Metal
*Country: Canada
*Format: mp3@CBR320kbps
*Size: 58MB

Tracklist:
1 Contempt 4:35
2 My Path 4:00
3 The Suffocating Smell 3:14
4 Devils Hour 4:20
5 Anomie 3:10
6 Foul Crapulence 4:01
7 Outport 2:11
******************************
Total playing time: 25:31

[more=Extended info][youtube]vm_CEHx_HA4[/youtube][/more]

[more=Technical info]
Input File: Grole - Contempt.mp3
Channels : 2
Sample Rate : 44100
Precision : 16-bit
Duration : 00:04:35.18 = 12135306 samples = 20638.3 CDDA sectors
File Size : 11.0M
Bit Rate : 320k
Sample Encoding: MPEG audio (layer I, II or III)
Comment : 'Tracknumber=1'

[/more]

Register
(16) Bzth, Fulijine, grimoir, heinz88, infiltrator, kim666, Olethros, rammmirez, Rosen, Rudolfo_Metal, satanist666, stub888, thenecromancer, varlam4, vasiljev_sergej, Wail,
Oct 1 2020, 01:08:34 Wyvern - Ijsenheer [demo] (2020)


*Artist: Wyvern
*Album: Ijsenheer [demo]
*Year: 2020
*Genre: Raw Black Metal/Dungeon Synth
*Country: Netherlands
*Format: mp3@CBR320kbps
*Size: 44MB

Tracklist:
1. Dwalend in een ijzig land 01:05
2. De tand des tijds 05:24
3. Vuur en ijs 06:24
4. De reus van de zwarte berg 01:05
5. Een bevroren graf 04:52
6. Langs mist en hemel 02:01
******************************
Total playing time: 20:51

[more=Extended info][youtube]RHrFF8i6qGM[/youtube][/more]

[more=Technical info]
Input File: Wyvern - Dwalend in een ijzig land.mp3
Channels : 2
Sample Rate : 44100
Precision : 16-bit
Duration : 00:01:02.17 = 2741697 samples = 4662.75 CDDA sectors
File Size : 2.49M
Bit Rate : 320k
Sample Encoding: MPEG audio (layer I, II or III)
Comment : 'Tracknumber=1'

[/more]

Register
(16) Alexis The Best, Bzth, grimoir, Ildjarn, infiltrator, kim666, Olethros, rammmirez, Rosen, Rudolfo_Metal, satanist666, sethurius, stub888, varlam4, vasiljev_sergej, Vraithee,
Oct 1 2020, 00:49:55 Setnakht - Setnakht [demo] (2020)


*Artist: Setnakht
*Album: Setnakht [demo]
*Year: 2020
*Genre: Black Metal
*Country: Netherlands
*Format: mp3@CBR320kbps
*Size: 59MB

Tracklist:
1. Intro 03:06
2. Filth in the Sepulcher 04:28
3. Moonlit Necromantic Ritual 04:12
4. Morning Star 03:45
5. Black Goat Skull 03:53
6. Satan My Master (Bathory cover) 02:32
7. Temple of Gomorrah 02:56
8. Outro 01:03
******************************
Total playing time: 25:55

[more=Extended info]
[youtube]g7UCTGS9oBw[/youtube][/more]

[more=Technical info]
Input File: Setnakht - Intro.mp3
Channels : 2
Sample Rate : 44100
Precision : 16-bit
Duration : 00:03:06.18 = 8210362 samples = 13963.2 CDDA sectors
File Size : 7.45M
Bit Rate : 320k
Sample Encoding: MPEG audio (layer I, II or III)
Comment : 'Tracknumber=1'

[/more]

Register
(20) 1968_janeart, Bzth, caro, Hell_Is_Here, infiltrator, kim666, multizwilling, Olethros, randumbum, robertho777, Rosen, satanist666, SilentNidhogg, stub888, thenecromancer, VALERY, varlam4, vasiljev_sergej, Wail, wreak,
Oct 1 2020, 00:25:02 Black Metamorphosis - Black Metamorphosis [demo] (2020)


*Artist: Black Metamorphosis
*Album: Black Metamorphosis [demo]
*Year: 2020
*Genre: Raw Black Metal
*Country: United States
*Format: mp3@CBR320kbps
*Size: 55MB

Tracklist:
I Introduction 2:09
II A Memory Of That Final Night 5:03
III The Eternal Dance Of Mourning & Death 4:53
IV Myriad Of Dark Forms & Shadow 6:38
V Thou Riseth At Night & Dawn 5:23
******************************
Total playing time: 24:06

[more=Extended info][youtube]FOhhjgUjXOg[/youtube][/more]

[more=Technical info]
Input File: Black Metamorphosis - Myriad Of Dark Forms & Shadow.mp3
Channels : 2
Sample Rate : 44100
Precision : 16-bit
Duration : 00:06:38.06 = 17554446 samples = 29854.5 CDDA sectors
File Size : 15.9M
Bit Rate : 320k
Sample Encoding: MPEG audio (layer I, II or III)

[/more]

Register
(1) satanist666,
Sep 28 2020, 22:10:14 Forbidden Tomb - The Prospector (2020)


*Artist: Forbidden Tomb
*Album: The Prospector
*Year: 2020
*Genre: Raw Black Metal/Dungeon Synth
*Country: Indonesia
*Format: mp3@CBR320kbps
*Size: 59MB

Tracklist:
1.Into The Crypt 02:00
2.Crypt I 02:21
3.Crypt II 03:45
4.Crypt III 04:55
5.Old Spirit 00:44
6.Crypt IV 05:38
7.Crypt V 04:48
8.. 01:18
******************************
Total playing time: 25:29

[more=Extended info]
[youtube]_n7zeFcdqD8[/youtube][/more]

[more=Technical info]
Input File: Forbidden Tomb - The Prospector - 08 ..mp3
Channels : 2
Sample Rate : 44100
Precision : 16-bit
Duration : 00:01:18.14 = 3445798 samples = 5860.2 CDDA sectors
File Size : 3.24M
Bit Rate : 332k
Sample Encoding: MPEG audio (layer I, II or III)
Comments :
Title=.
Artist=Forbidden Tomb
Album=The Prospector
Tracknumber=8
Year=2020

[/more]

Register
(11) AlexSmith, infiltrator, kim666, Necromag, Occultas, Olethros, Rosen, satanist666, varlam4, vasiljev_sergej, Wail,
Sep 28 2020, 02:12:23 Wandering Anduin - Wandering Anduin [demo] (2020)


*Artist: Wandering Anduin
*Album: Wandering Anduin [demo]
*Year: 2020
*Genre: Raw Black Metal/Dungeon Synth
*Country: Canada
*Format: mp3@CBR128kbps
*Size: 15MB

Tracklist:
1.Forward March 02:23
2.Banner Of The Eye 04:23
3.Plain Of Gorgoroth 02:22
4.Elvenkings Halls 02:01
5.Ride Through Ruin 01:24
6.Black Numenorean Honor 02:43
7.Inextricable Loss 01:52
******************************
Total playing time: 17:08

[more=Extended info]
[youtube]vwuiYx-ZGx4[/youtube][/more]

[more=Technical info]
Input File: Wandering Anduin - Banner Of The Eye.mp3
Channels : 1
Sample Rate : 44100
Precision : 16-bit
Duration : 00:04:23.47 = 11618983 samples = 19760.2 CDDA sectors
File Size : 4.22M
Bit Rate : 128k
Sample Encoding: MPEG audio (layer I, II or III)
Comments :
Title=Banner Of The Eye
Artist=Wandering Anduin

[/more]

Register
(11) 1968_janeart, heinz88, infiltrator, kim666, nemx, Olethros, Rosen, Rudolfo_Metal, satanist666, varlam4, vasiljev_sergej,
Sep 27 2020, 23:56:35 Whore Blood - Marans Rike [demo] (2019)


*Artist: Whore Blood
*Album: Marans Rike [demo]
*Year: 2019
*Genre: Raw Black Metal
*Country: Sweden
*Format: mp3@CBR128kbps
*Size: 26MB

Tracklist:
1. Marans Rike 14:14
2. Farsot 13:47
******************************
Total playing time: 28:01

[more=Extended info][youtube]s5Xb8YgPWOQ[/youtube]
[/more]

[more=Technical info]
Input File: Whore Blood -Farsot.mp3
Channels : 2
Sample Rate : 44100
Precision : 16-bit
Duration : 00:13:47.57 = 36495705 samples = 62067.5 CDDA sectors
File Size : 13.2M
Bit Rate : 128k
Sample Encoding: MPEG audio (layer I, II or III)

[/more]

Register
(14) 1968_janeart, Alexis The Best, Chasm, heinz88, infiltrator, kim666, Olethros, Rosen, satanist666, Sjelekval, Tyrone, varlam4, vasiljev_sergej, Wail,
Sep 27 2020, 21:17:06 Herxsebet - Altar Mortcavernus De Mare [demo] (2014)


*Artist: Herxsebet
*Album: Altar Mortcavernus De Mare [demo]
*Year: 2014
*Genre: Raw Black Metal
*Country: Mexico
*Format: mp3@CBR320kbps
*Size: 27MB

Tracklist:
1 Altar Mortcavernus De Terra 02:34
2 Grimoire dem cutis, Duxit in Porta 02:12
3 Larvae, Ventus Magis Eurus, Alcohol, Vermibus Et Caves 07:27
4 Mars de Ordas Vampiriques 02:57
******************************
Total playing time: 15:10

[more=Extended info][youtube]4uJtRJJkUGY[/youtube][/more]

[more=Technical info]
Input File: Herxsebet - Altar Mortcavernus De Terra.mp3
Channels : 2
Sample Rate : 44100
Precision : 16-bit
Duration : 00:02:34.21 = 6800617 samples = 11565.7 CDDA sectors
File Size : 6.17M
Bit Rate : 320k
Sample Encoding: MPEG audio (layer I, II or III)

[/more]

Register
(9) 1968_janeart, infiltrator, kim666, Olethros, Rosen, satanist666, varlam4, vasiljev_sergej, Wail,
Sep 27 2020, 16:37:03 Obskuritatem & Nidernes - Somber Winter Evocations [collaboration] (2020)


*Artist: Obskuritatem & Nidernes
*Album: Somber Winter Evocations [collaboration]
*Year: 2020
*Genre: Dark Ambient | Dark Ambient
*Country: Bosnia and Herzegovina | Portugal
*Format: mp3@CBR320kbps
*Size: 62MB

Tracklist:
1. Untitled 15:36
2. Untitled 12:30
******************************
Total playing time: 28:06

[more=Technical info]
Input File: Somber Winter Evocations - Untitled 2.mp3
Channels : 2
Sample Rate : 44100
Precision : 16-bit
Duration : 00:12:11.26 = 32248566 samples = 54844.5 CDDA sectors
File Size : 29.2M
Bit Rate : 320k
Sample Encoding: MPEG audio (layer I, II or III)
Comments :
Title=Untitled
Artist=Obskuritatem / Nidernes
Album=Somber Winter Evocations
Tracknumber=2
Year=2020

[/more]

Register
(16) Alexis The Best, Boozer, ent404, Fallen Soul, grimoir, Hell_Is_Here, infiltrator, kim666, LazarShadow, noxspiritus, Occultas, Olethros, stub888, thenecromancer, Wail, Zahrim,
Sep 24 2020, 22:03:36 Torpefied Bloodlust - Demo Viii-Mmxx [demo] (2020)


*Artist: Torpefied Bloodlust
*Album: Demo Viii-Mmxx [demo]
*Year: 2020
*Genre: Raw Black Metal
*Country: Unknown
*Format: mp3@CBR320kbps
*Size: 35MB

Tracklist:
01. The Forces Within 00:00
02. With the Lifeless, I Lay 02:41
03. From Torture Nightly Risen 04:59
04. Darkness Unperceivable 06:56
******************************
Total playing time: 14:36

[more=Extended info][youtube]Ft1upI5a-js[/youtube][/more]

[more=Technical info]
Input File: 01. The Forces Within.mp3
Channels : 2
Sample Rate : 44100
Precision : 16-bit
Duration : 00:03:31.63 = 9332663 samples = 15871.9 CDDA sectors
File Size : 8.46M
Bit Rate : 320k
Sample Encoding: MPEG audio (layer I, II or III)
Comments :
Title=The Forces Within
Artist=Torpefied Bloodlust
Album=Demo VIII-MMXX
Tracknumber=1
Year=2020

[/more]

Register
(13) 1968_janeart, craP_cillA, infiltrator, kim666, Olethros, Rosen, satanist666, SilentNidhogg, stub888, VALERY, varlam4, vasiljev_sergej, wreak,
Sep 24 2020, 00:24:33 Darkatgzebruth - Kaos Rites Ov 9 Angled Darkness [demo] (2017)


*Artist: Darkatgzebruth
*Album: Kaos Rites Ov 9 Angled Darkness [demo]
*Year: 2017
*Genre: Raw Black Metal/Dark Ambient
*Country: Portugal
*Format: mp3@CBR320kbps
*Size: 103MB

Tracklist:
1 Baco Lidera Um Terror Esquecido 3:06
2 Rituais Em Devaneios Arcaicos 5:29
3 Lidagon Talha A Pedra Negra Dos Desejos Soberanos 3:59
4 Noctdarkat 7:51
5 Tremendos Olhos Do Falso Profeta O Seu Olhar Foi Cristalizado Pelo Dragão Do Sangue 2:40
6 Toxic Summer Dark God Rites 12:21
7 The Ways Of Wyrd And The Truths 4:03
8 Dark Desires 3:23
9 Starless Cosmos 2:16
******************************
Total playing time: 45:08

[more=Extended info][youtube]https://youtu.be/1m3Tp-LfMN4[/youtube][/more]

[more=Technical info]
Input File: Darkatgzebruth - Kaos Rites Ov 9 Angled Darkness - 5 Tremendos Olhos do Falso Profeta o Seu Olhar foi Cristalizado P.mp3
Channels : 2
Sample Rate : 44100
Precision : 16-bit
Duration : 00:02:40.14 = 7062130 samples = 12010.4 CDDA sectors
File Size : 6.41M
Bit Rate : 320k
Sample Encoding: MPEG audio (layer I, II or III)

[/more]

Register
(17) 1968_janeart, Alexis The Best, Hell_Is_Here, INDARKNESS, infiltrator, kim666, Olethros, randumbum, Rosen, satanist666, SilentNidhogg, stub888, thenecromancer, varlam4, vasiljev_sergej, Wail, wreak,
Sep 23 2020, 03:09:25 Ginnungagap - Glaciar Throne of Emptiness (3) Alexis The Best, BlackSmog, thenecromancer,
Sep 23 2020, 01:22:50 Ginnungagap - Glaciar Throne Of Emptiness [ep] (2019)


*Artist: Ginnungagap
*Album: Glaciar Throne Of Emptiness [ep]
*Year: 2019
*Genre: Raw Black Metal
*Country: Portugal
*Format: mp3@CBR320kbps
*Size: 30MB

Tracklist:
1 Glaciar Throne 6:53
2 Primordial Void of Emptiness 6:09
******************************
Total playing time: 13:02

[more=Extended info][youtube]OeyVT-vOwwE[/youtube][/more]

[more=Technical info]
Input File: Ginnungagap - Glaciar Throne.mp3
Channels : 2
Sample Rate : 48000
Precision : 16-bit
Duration : 00:06:53.52 = 19848960 samples ~ 31014 CDDA sectors
File Size : 16.5M
Bit Rate : 320k
Sample Encoding: MPEG audio (layer I, II or III)

[/more]

Register
(25) 1968_janeart, Alexis The Best, arrheboe, BlackSmog, blacky66, Bzth, Daale, grimoir, Hell_Is_Here, ITNOR, kim666, Maximvs, Olethros, randumbum, Rosen, Rudolfo_Metal, satanist666, SilentNidhogg, Storky, stub888, thenecromancer, varlam4, vasiljev_sergej, Wail, wreak,
Sep 21 2020, 02:43:43 Corvus Drakul - Voando Nas Asas Negras De Sathanas [demo] (2015)


*Artist: Corvus Drakul
*Album: Voando Nas Asas Negras De Sathanas [demo]
*Year: 2015
*Genre: Raw Black Metal/Dark Ambient
*Country: Portugal
*Format: mp3@CBR320kbps
*Size: 46MB

Tracklist:
1. Untitled 02:13
2. Untitled 17:46
******************************
Total playing time: 19:59

[more=Extended info][youtube]xJc9NisP09Q[/youtube][/more]

[more=Technical info]
Input File: Corvus Drakul - I.mp3
Channels : 2
Sample Rate : 44100
Precision : 16-bit
Duration : 00:02:13.00 = 5865124 samples = 9974.7 CDDA sectors
File Size : 5.32M
Bit Rate : 320k
Sample Encoding: MPEG audio (layer I, II or III)
Comments :
Title=Untitled I
Artist=Corvus Drakul
Album=Voando nas Asas Negras de Sathanas
Tracknumber=1

[/more]

Register
(20) 1968_janeart, Alexis The Best, ChaosArcana, dermarsoran, Hell_Is_Here, kim666, Olethros, randumbum, robertho777, Rosen, Rudolfo_Metal, satanist666, SilentNidhogg, smysl, stub888, thenecromancer, varlam4, vasiljev_sergej, Wail, wreak,
Aug 23 2020, 06:16:10 Mons Veneris - O Seu Trono Nos Nossos Ossos [demo] (2012)


*Artist: Mons Veneris
*Album: O Seu Trono Nos Nossos Ossos [demo]
*Year: 2012
*Genre: Raw Black Metal/Dark Ambient
*Country: Portugal
*Format: mp3@CBR128kbps
*Size: 17MB

Tracklist:
1. Invocatio Satanae 01:35
2. O Seu Trono nos nossos Ossos 06:38
3. Canto Crepúscular da Floresta Maligna 10:14
******************************
Total playing time: 18:27

[more=Technical info]
Input File: Mons Veneris - 1 Invocatio Satanae.mp3
Channels : 2
Sample Rate : 44100
Precision : 16-bit
Duration : 00:01:35.41 = 4207493 samples = 7155.6 CDDA sectors
File Size : 1.53M
Bit Rate : 128k
Sample Encoding: MPEG audio (layer I, II or III)

[/more]

Register
(12) Alexis The Best, ChaosArcana, FUDEDOR, infiltrator, kim666, Olethros, Rosen, satanist666, Styx, thenecromancer, varlam4, Wail,

13 Pages V  « < 10 11 12 13 >
- Lo-Fi Version Support form
Copyrights and abuse reports form
Time is now: 19th June 2021 - 10:46:57