Welcome Guest ( Log In | Register )

История благодарностей участнику Cramloth ::: Спасибо сказали: 5496 раз(а)
Дата поста: В теме: За сообщение: Спасибо сказали:
May 3 2021, 00:52:52 Voin Grim - An Eldest Throne Of Profane Fortress [ep] (2021)


*Artist: Voin Grim
*Album: An Eldest Throne Of Profane Fortress [ep]
*Year: 2021
*Genre: Atmospheric Black Metal
*Country: Ukraine
*Format: mp3@CBR320kbps
*Size: 50MB

Tracklist:
1. An Eldest Throne of Profane Fortress 11:09
2. Materialized in Stone 05:14
3. Hoarfrost Under a Starry Path 05:11
******************************
Total playing time: 21:34

Metal Archives




[more=Technical info]
Input File: Voin Grim - An Eldest Throne Of Profane Fortress.mp3
Channels : 2
Sample Rate : 44100
Precision : 16-bit
Duration : 00:11:09.69 = 29533197 samples = 50226.5 CDDA sectors
File Size : 26.8M
Bit Rate : 320k
Sample Encoding: MPEG audio (layer I, II or III)
Comments :
Title=An Eldest Throne of Profane Fortress
Artist=Voin Grim
Album=An Eldest Throne of Profane Fortress
Tracknumber=1
Year=2021
Genre=Atmospheric Black Metal

[/more]

Register
(18) infiltrator, kim666, kimkayoung, Korpse, Olethros, randumbum, robertho777, satanist666, sergsazan, SilentNidhogg, Slavas, terron, VALERY, varlam4, vasiljev_sergej, Waldemar666, wreak, zargonath,
May 2 2021, 20:42:52 Ouija - Selenophile Impia [ep] (2021)


*Artist: Ouija
*Album: Selenophile Impia [ep]
*Year: 2021
*Genre: Black Metal
*Country: Spain
*Format: mp3@CBR320kbps
*Size: 44MB

Tracklist:
1. Selenophile Impia 07:07
2. Kerberos... Like Hell Dogs 04:21
3. Therianthropic Involution 07:36
******************************
Total playing time: 19:04

Metal Archives




[more=Technical info]
Input File: Ouija - Therianthropic Involution.mp3
Channels : 2
Sample Rate : 48000
Precision : 16-bit
Duration : 00:07:36.85 = 21928704 samples ~ 34263.6 CDDA sectors
File Size : 18.3M
Bit Rate : 320k
Sample Encoding: MPEG audio (layer I, II or III)
Comments :
Title=Therianthropic Involution
Artist=Ouija
Album=Selenophile Impia
Tracknumber=3
Year=2021
Genre=Black Metal

[/more]

Register
(14) Anarchead, dcatagua, IncendiaryMight, infiltrator, kimkayoung, Korpse, Lux, Marek, Olethros, Pinhead666, satanist666, thenecromancer, varlam4, vasiljev_sergej,
May 2 2021, 17:02:09 Camponero - From An Ancient Epoch (2021)


*Artist: Camponero
*Album: From An Ancient Epoch
*Year: 2021
*Genre: Raw/Atmospheric Black Metal
*Country: Italy
*Format: mp3@CBR320kbps
*Size: 98MB

Tracklist:
1. At the Gates of the Middle Ages 03:00
2. Fight for Living 02:40
3. The Castle of the Wood Fairy Tale 00:51
4. The Knight's Sword 04:20
5. Mystic Landscapes 01:32
6. Ancient Conquests 01:32
7. Peace Illusion 03:09
8. ...in the Name of Vocation 07:29
9. The Solitude Path and the Storm 05:29
10. Chant of the Forest 00:48
11. The Last Sunset on the Summit 05:28
12. From an Ancient Epoch (That Will Never Come Back Again) 01:55
******************************
Total playing time: 38:13

Metal Archives


[more=Technical info]
Input File: Camponero - .in the Name of Vocation.mp3
Channels : 2
Sample Rate : 44100
Precision : 16-bit
Duration : 00:07:30.01 = 19845441 samples = 33750.8 CDDA sectors
File Size : 18.0M
Bit Rate : 320k
Sample Encoding: MPEG audio (layer I, II or III)
Comments :
Title=...in the Name of Vocation
Artist=Camponero
Album=From an Ancient Epoch
Tracknumber=8
Year=2021
Genre=Black Metal

[/more]

Register
(22) ALBIGON, AlexSmith, Ildjarn, infiltrator, judaz, kim666, Korpse, nemx, Olethros, randumbum, robertho777, Rover, satanist666, SilentNidhogg, Storky, supremo, thenecromancer, VALERY, varlam4, vasiljev_sergej, Waldemar666, wreak,
May 2 2021, 01:45:25 Phlegein - Labyrinth Of Wonder [ep] (2021)


*Artist: Phlegein
*Album: Labyrinth Of Wonder [ep]
*Year: 2021
*Genre: Black Metal
*Country: Finland
*Format: mp3@CBR320kbps
*Size: 46MB

Tracklist:
1. Syvyyksissä 03:04
2. Labyrinth of Wonder 03:45
3. Saviour 04:03
4. March for Doom of Humanity 03:58
5. Tribe Profane 05:04
******************************
Total playing time: 19:54

Website

Metal Archives

[more=Technical info]
Input File: Phlegein - Syvyyksissä.mp3
Channels : 2
Sample Rate : 48000
Precision : 16-bit
Duration : 00:03:04.64 = 8862720 samples ~ 13848 CDDA sectors
File Size : 7.39M
Bit Rate : 320k
Sample Encoding: MPEG audio (layer I, II or III)
Comments :
Title=Syvyyksissä
Artist=Phlegein
Album=Labyrinth of Wonder
Tracknumber=1
Year=2021
Genre=Black Metal

[/more]

Register
(22) andivi, Antichrist, Boozer, Bzth, Cyrci, El_Chibo, IncendiaryMight, infiltrator, judaz, kim666, Lucju, Marek, Mortuusinfernus, Okultista, Olethros, Ostinato, rimfrost, satanist666, smes, VALERY, varlam4, vasiljev_sergej,
May 2 2021, 01:28:22 Estve - Egyenes Labirintus (2021)


*Artist: Estve
*Album: Egyenes Labirintus
*Year: 2021
*Genre: Black Metal
*Country: Hungary
*Format: mp3@CBR320kbps
*Size: 68MB

Tracklist:
1. A homályból 04:16
2. Venomous Manifestation 06:52
3. Maelstrom of Vengeance 04:34
4. The Torchbearer 03:52
5. Harvesting My Grief 04:28
6. Ascending Downfall 04:28
******************************
Total playing time: 28:30

Metal Archives



[more=Technical info]
Input File: Estve - A homályból.mp3
Channels : 2
Sample Rate : 44100
Precision : 16-bit
Duration : 00:04:16.20 = 11298288 samples = 19214.8 CDDA sectors
File Size : 10.2M
Bit Rate : 320k
Sample Encoding: MPEG audio (layer I, II or III)
Comments :
Title=A homályból
Artist=Estve
Album=Egyenes labirintus
Tracknumber=1
Year=2021
Genre=Black Metal

[/more]

Register
(27) AlexSmith, atavist, GorAtheist, grimoir, Hell_Is_Here, Ildjarn, IncendiaryMight, infiltrator, kim666, kimkayoung, MMMMM, multizwilling, nemx, nsk2008, Olethros, Olguard, Ostinato, rammstein888, robertho777, Rover, satanist666, SilentNidhogg, VALERY, varlam4, vasiljev_sergej, Vidder242, wreak,
Apr 30 2021, 22:35:40 Ossements - Ossements (2021)


*Artist: Ossements
*Album: Ossements
*Year: 2021
*Genre: Black Metal/Dark Ambient
*Country: Canada
*Format: mp3@CBR320kbps
*Size: 80MB

Tracklist:
1. Ossements V 17:35
2. Ossements VI 16:46
******************************
Total playing time: 34:21


Metal Archives


[more=Technical info]
Input File: Ossements - Ossements V.mp3
Channels : 2
Sample Rate : 44100
Precision : 16-bit
Duration : 00:17:36.09 = 46573349 samples = 79206.4 CDDA sectors
File Size : 42.2M
Bit Rate : 320k
Sample Encoding: MPEG audio (layer I, II or III)
Comments :
Title=Ossements V
Artist=Ossements
Album=Ossements
Tracknumber=1
Year=2021
Genre=Black Metal

[/more]

Register
(13) AlexSmith, antonyamanov00, Azumin1234, infiltrator, kim666, nemx, Occultas, Olethros, robertho777, SilentNidhogg, undeadlich, varlam4, vasiljev_sergej,
Apr 29 2021, 18:16:22 Sylvan - Nótt [demo] (2021)


*Artist: Sylvan
*Album: Nótt [demo]
*Year: 2021
*Genre: Black Metal/Dark Ambient
*Country: United States
*Format: mp3@CBR320kbps
*Size: 39MB

Tracklist:
1. Abysm 09:36
2. Nótt 06:43
******************************
Total playing time: 16:19




[more=Technical info]
Input File: Sylvan - Abysm.mp3
Channels : 1
Sample Rate : 44100
Precision : 16-bit
Duration : 00:09:36.27 = 25413331 samples = 43220 CDDA sectors
File Size : 23.0M
Bit Rate : 320k
Sample Encoding: MPEG audio (layer I, II or III)
Comments :
Title=Abysm
Artist=Sylvan
Album=Nótt
Tracknumber=1
Year=2021
Genre=Black Metal

[/more]

Register
(7) Hell_Is_Here, infiltrator, kim666, Olethros, robertho777, varlam4, wreak,
Apr 28 2021, 18:43:29 Ifrinn - Caledonian Black Magick [ep] (2021)


*Artist: Ifrinn
*Album: Caledonian Black Magick [ep]
*Year: 2021
*Genre: Black Metal
*Country: United Kingdom
*Format: mp3@CBR320kbps
*Size: 57MB

Tracklist:
1. Caledonian Black Magick 08:39
2. Silent Seas of Sorcery 07:56
3. Stellar Zephyrs 07:55
******************************
Total playing time: 24:30



Metal Archives

[more=Technical info]
Input File: Ifrinn - Stellar Zephyrs.mp3
Channels : 2
Sample Rate : 48000
Precision : 16-bit
Duration : 00:07:55.16 = 22807680 samples ~ 35637 CDDA sectors
File Size : 19.0M
Bit Rate : 320k
Sample Encoding: MPEG audio (layer I, II or III)
Comments :
Title=Stellar Zephyrs
Artist=Ifrinn
Album=Caledonian Black Magick
Tracknumber=3
Year=2021
Genre=Black Metal

[/more]

Register
(17) andivi, Antichrist, caro, ctulhudagon, infiltrator, kim666, Marek, nemx, Olethros, rimfrost, robertho777, sagratan, SilentNidhogg, stub888, VALERY, varlam4, vasiljev_sergej,
Apr 27 2021, 23:28:10 Inferno - Paradeigma (Phosphenes Of Aphotic Eternity) (2021)


*Artist: Inferno
*Album: Paradeigma (Phosphenes Of Aphotic Eternity)
*Year: 2021
*Genre: Black Metal
*Country: Czech Republic
*Format: mp3@CBR320kbps
*Size: 83MB

Tracklist:
1. Decaying Virtualities Yearn for Asymptopia 01:01
2. The Wailing Horizon 05:43
3. Descent into Hell of the Future 07:56
4. Phosphenes 04:46
5. Ekstasis of the Continuum 07:46
6. Stars Within and Stars Without Projected into the Matrix of Time 08:36
******************************
Total playing time: 35:48

Metal Archives




[more=Extended info]The album is influenced by the books "The Cosmos as Self-Creation" from Czech writer Michal Ajvaz, "Time Reborn" by the physicist Lee Smolin and "The Red Book" by Carl Jung.[/more]

[more=Technical info]
Input File: Inferno - Ekstasis of the Continuum.mp3
Channels : 2
Sample Rate : 48000
Precision : 16-bit
Duration : 00:07:46.18 = 22376784 samples ~ 34963.7 CDDA sectors
File Size : 18.6M
Bit Rate : 320k
Sample Encoding: MPEG audio (layer I, II or III)
Comments :
Title=Ekstasis of the Continuum
Artist=Inferno
Album=Paradeigma (Phosphenes of Aphotic Eternity)
Tracknumber=5
Year=2021
Genre=Black Metal

[/more]

Register
(49) AlexSmith, Antichrist, atavist, boby9052, Boozer, caro, cesar, Chasm, CletusVII, craP_cillA, DarkHorde, Darkwood, El_Chibo, gena, Hell_Is_Here, Hipgnosis, Ildjarn, infiltrator, jelly_kt, kim666, kimkayoung, madera, Marek, Metalass, metalfanatic666, MMMMM, nadin85, Narasimha, nemx, Okultista, Purestenchkvlt, robertho777, Rover, Scorpi, SilentNidhogg, smes, SyncestrA, the_cleanser, undeadlich, VALERY, varlam4, vasiljev_sergej, Waldemar666, wreak, yuratroll, ZamanFu, Zoloft, Варяг, дивин,
Apr 27 2021, 15:44:54 Genune - Inert & Unerring (2021)


*Artist: Genune
*Album: Inert & Unerring
*Year: 2021
*Genre: Atmospheric Black Metal
*Country: Romania
*Format: mp3@CBR320kbps
*Size: 77MB

Tracklist:
1. Unworthy Sons & Daughters 10:11
2. To Drown Within Yourself 09:43
3. The Pyres of Autumn 03:28
4. Eastern European Discontent 10:05
******************************
Total playing time: 33:27


Metal Archives


[more=Technical info]
Input File: Genune - Unworthy Sons & Daughters.mp3
Channels : 2
Sample Rate : 44100
Precision : 16-bit
Duration : 00:10:11.80 = 26980204 samples = 45884.7 CDDA sectors
File Size : 24.5M
Bit Rate : 320k
Sample Encoding: MPEG audio (layer I, II or III)
Comments :
Title=Unworthy Sons & Daughters
Artist=Genune
Album=Inert & Unerring
Tracknumber=1
Year=2021
Genre=Atmospheric Black Metal

[/more]

Register
(21) AlexSmith, infernallord, infiltrator, judaz, kim666, kimkayoung, Kodel, Lukittaz, nemx, Ostinato, randumbum, robertho777, Rover, sergsazan, Shadechaser, SilentNidhogg, VALERY, varlam4, vasiljev_sergej, wreak, yuratroll,
Apr 24 2021, 23:57:48 Paisaunt - Primitiue Blak Metal [ep] (2021)


*Artist: Paisaunt
*Album: Primitiue Blak Metal [ep]
*Year: 2021
*Genre: Atmospheric Black Metal
*Country: Finland
*Format: mp3@CBR320kbps
*Size: 39MB

Tracklist:
1. Nigh Is Time 03:24
2. Wynter Wakeneth Al My Care 05:43
3. Mon mai longe liues wene 05:42
4. Выхожу один я на дорогу 01:28
******************************
Total playing time: 16:17

Metal Archives



[more=Technical info]
Input File: Paisaunt - Wynter Wakeneth Al My Care.mp3
Channels : 2
Sample Rate : 48000
Precision : 16-bit
Duration : 00:05:43.19 = 16472880 samples ~ 25738.9 CDDA sectors
File Size : 13.7M
Bit Rate : 320k
Sample Encoding: MPEG audio (layer I, II or III)
Comments :
Title=Wynter Wakeneth Al My Care
Artist=Paisaunt
Album=Primitiue Blak Metal
Tracknumber=2
Year=2021
Genre=Atmospheric Black Metal

[/more]

Register
(31) Anarchead, Boozer, Bulldozzzzzzer, Bzth, craP_cillA, ent404, gav-gafi, gena, infiltrator, kim666, kimkayoung, krotovich, lordbathor, Marek, nemx, Okultista, Olethros, Qliphoth, randumbum, rimfrost, robertho777, satanist666, sergsazan, Shadechaser, SilentNidhogg, stub888, VALERY, varlam4, vasiljev_sergej, Veksha, wreak,
Apr 24 2021, 01:21:07 Austral Kult - Nullius In Verba [ep] (2021)


*Artist: Austral Kult
*Album: Nullius In Verba [ep]
*Year: 2021
*Genre: Black Metal
*Country: Colombia
*Format: mp3@CBR320kbps
*Size: 58MB

Tracklist:
1. The Seal of Solomon 05:17
2. To the Deepest Void 06:36
3. Son of Chaos 06:08
4. Nullius in Verba 07:12
******************************
Total playing time: 25:13

Metal Archives



[more=Technical info]
Input File: Austral Kult - Nullius in Verba.mp3
Channels : 2
Sample Rate : 48000
Precision : 16-bit
Duration : 00:07:11.74 = 20723712 samples ~ 32380.8 CDDA sectors
File Size : 17.3M
Bit Rate : 320k
Sample Encoding: MPEG audio (layer I, II or III)
Comments :
Title=Nullius in Verba
Artist=Austral Kult
Album=Nullius in Verba
Tracknumber=4
Year=2021
Genre=Black Metal

[/more]

Register
(13) ctulhudagon, dermarsoran, infiltrator, kim666, Olethros, Razorbladeswaltz, RENыч, satanist666, SilentNidhogg, VALERY, varlam4, vasiljev_sergej, wreak,
Apr 24 2021, 00:55:22 Arna - Dragged To A Lunar Grave (2021)


*Artist: Arna
*Album: Dragged To A Lunar Grave
*Year: 2021
*Genre: Black Metal
*Country: Spain
*Format: mp3@CBR320kbps
*Size: 67MB

Tracklist:
1. Gallows Tree 08:05
2. Moonknife 06:46
3. Dolmen 06:55
4. Aunra 07:08
******************************
Total playing time: 28:54

Metal Archives

Instagram


[more=Technical info]
Input File: ARNA - Gallows Tree.mp3
Channels : 2
Sample Rate : 44100
Precision : 16-bit
Duration : 00:08:05.75 = 21421487 samples = 36431.1 CDDA sectors
File Size : 19.4M
Bit Rate : 320k
Sample Encoding: MPEG audio (layer I, II or III)
Comments :
Title=Gallows Tree
Artist=ARNA
Album=Dragged to a Lunar Grave
Tracknumber=1
Year=2021
Genre=Black Metal

[/more]

Register
(30) AlexSmith, atavist, AwaitingDawn, craP_cillA, cryptal, ctulhudagon, Ildjarn, infiltrator, kim666, Marek, nemx, Olethros, RENыч, rimfrost, robertho777, rominow, sacrut, SadistikSlayer, satanist666, SilentNidhogg, smes, smysl, stub888, system36, toly1917, VALERY, varlam4, vasiljev_sergej, Waldemar666, wreak,
Apr 23 2021, 18:24:41 Amargura - L'astre Mort [demo] (2021)


*Artist: Amargura
*Album: L'astre Mort [demo]
*Year: 2021
*Genre: Raw Black Metal/Dark Ambient
*Country: International
*Format: mp3@CBR320kbps
*Size: 42MB

Tracklist:
1. Lunaire I 02:39
2. Béni soit le sang pur qui fume vers ta gloire ! 03:54
3. Lunaire II 02:40
4. L'astre mort 03:49
5. Lunaire III 01:23
6. Mantos de Angustia 03:34
******************************
Total playing time: 17:59


Preview 2
Metal Archives

[more=Extended info]Debut demo from this Portuguese/French project. Sinister raw Black Metal/Ambient filled with anguish and ominous disgust.[/more]

[more=Technical info]
Input File: Amargura - Lunaire I.mp3
Channels : 2
Sample Rate : 48000
Precision : 16-bit
Duration : 00:02:39.15 = 7639296 samples ~ 11936.4 CDDA sectors
File Size : 6.37M
Bit Rate : 320k
Sample Encoding: MPEG audio (layer I, II or III)
Comments :
Title=Lunaire I
Artist=Amargura
Album=L'astre mort
Tracknumber=1
Year=2021
Genre=Raw Black Metal

[/more]

Register
(23) Azumin1234, craP_cillA, CRUNCH, dermarsoran, ent404, gena, Hell_Is_Here, Ildjarn, infiltrator, kim666, Lunaris, murian, nemx, Olethros, Ostinato, SilentNidhogg, smysl, stub888, thenecromancer, varlam4, vasiljev_sergej, Waldemar666, wreak,
Apr 22 2021, 15:44:27 Eerified Catacomb & Icon Of Curse - Eerified Catacomb/Icon Of Curse [split] (2021)


*Artist: Eerified Catacomb & Icon Of Curse
*Album: Eerified Catacomb/Icon Of Curse [split]
*Year: 2021
*Genre: Raw Black Metal | Raw Black/Doom Metal/Noise/Experimental
*Country: Canada | Unknown
*Format: mp3@CBR320kbps
*Size: 65MB

Tracklist:
Eerified Catacomb:
1. Foul Spiritual Leeching 03:50
2. His Box of Skulls 05:41
3. Torture and Transcendent Glory 04:33

Icon of Curse:
4. Under Scorpius 05:56
5. True Shepherd of Anu 03:09
6. Forever Bound in Tartarus 04:58
******************************
Total playing time: 28:07

Metal Archives


[more=Technical info]
Input File: Eerified Catacomb - His Box of Skulls.mp3
Channels : 2
Sample Rate : 44100
Precision : 16-bit
Duration : 00:05:41.36 = 15054020 samples = 25602.1 CDDA sectors
File Size : 13.7M
Bit Rate : 320k
Sample Encoding: MPEG audio (layer I, II or III)
Comments :
Title=His Box of Skulls
Artist=Icon of Curse
Album=Eerified Catacomb / Icon of Curse
Tracknumber=2
Year=2021
Genre=Raw Black Metal

[/more]

Register
(10) caro, Hell_Is_Here, infiltrator, SilentNidhogg, VALERY, varlam4, vasiljev_sergej, Wail, Waldemar666, wreak,
Apr 21 2021, 20:10:14 Turin Horse - Apotheosis [ep] (2021)


*Artist: Turin Horse
*Album: Apotheosis [ep]
*Year: 2021
*Genre: Black/Doom/Sludge Metal
*Country: Germany
*Format: mp3@CBR320kbps
*Size: 48MB

Tracklist:
1. Prologue 01:00
2. The Earth Is Corrupt 05:18
3. Interlude 02:31
4. The Loneliness of the Good 04:01
5. Intermezzo 01:43
6. We Are the Gods Now 03:48
7. Epilogue 02:02
******************************
Total playing time: 20:23



Metal Archives

Instagram

[more=Technical info]
Input File: Turin Horse - The Earth Is Corrupt.mp3
Channels : 2
Sample Rate : 44100
Precision : 16-bit
Duration : 00:05:18.22 = 14033282 samples = 23866.1 CDDA sectors
File Size : 12.7M
Bit Rate : 320k
Sample Encoding: MPEG audio (layer I, II or III)
Comments :
Title=The Earth Is Corrupt
Artist=Turin Horse
Album=Apotheosis
Tracknumber=2
Year=2021
Genre=Black Metal

[/more]

Register
(11) caro, HMHamster, infiltrator, marilin, Olethros, stumpheavyrock, VALERY, varlam4, vasiljev_sergej, Vitald, wreak,
Apr 21 2021, 19:08:06 Lóstregos - Onde Calan Os Corazóns, Ruxen As Pedras (2021)


*Artist: Lóstregos
*Album: Onde Calan Os Corazóns, Ruxen As Pedras
*Year: 2021
*Genre: Pagan Black Metal
*Country: Spain
*Format: mp3@CBR320kbps
*Size: 104MB

Tracklist:
1. Deidades da Noite / Ritos de Morte 08:09
2. Lamentos no Medulio 14:53
3. O Meigo das Pedras 08:48
4. Bisbar que Emana do Ventre da Terra 13:42
******************************
Total playing time: 45:32

Metal Archives




[more=Technical info]
Input File: Lóstregos - Lamentos no Medulio.mp3
Channels : 2
Sample Rate : 48000
Precision : 16-bit
Duration : 00:14:31.62 = 41837520 samples ~ 65371.1 CDDA sectors
File Size : 34.9M
Bit Rate : 320k
Sample Encoding: MPEG audio (layer I, II or III)
Comments :
Title=Lamentos no Medulio
Artist=Lóstregos
Album=Onde Calan os Corazóns, Ruxen as Pedras
Tracknumber=2
Year=2021
Genre=Pagan Black Metal

[/more]

Register
(14) Ildjarn, IncendiaryMight, infiltrator, kim666, Marek, Olethros, RUDACHUR, SilentNidhogg, stub888, VALERY, varlam4, vasiljev_sergej, wreak, Сварог Барг,
Apr 20 2021, 18:59:54 Людоед - Death Of The Modern World (2021)


*Artist: Людоед
*Album: Death Of The Modern World
*Year: 2021
*Genre: Black Metal/Crust
*Country: Russian Federation
*Format: mp3@CBR320kbps
*Size: 57MB

Tracklist:
1. Who's Scared By The New Day 03:57
2. Feel The Power 03:01
3. New Sunset 02:03
4. Emptiness 02:05
5. Doom 03:02
6. Power Of Endless Nights 02:42
7. Under The Cold Ground 02:29
8. Alone 02:48
******************************
Total playing time: 22:07


VK
Instagram
Metal Archives


[more=Technical info]
Input File: Людоед - Death Of The Modern World - 01 Who\'s Scared By The New Day.mp3
Channels : 2
Sample Rate : 44100
Precision : 16-bit
Duration : 00:03:57.99 = 10495271 samples = 17849.1 CDDA sectors
File Size : 9.67M
Bit Rate : 325k
Sample Encoding: MPEG audio (layer I, II or III)
Comments :
Title=Who's Scared By The New Day
Artist=ЛЮДОЕД
Album=Death Of The Modern World
Tracknumber=1
Year=2021

[/more]

Register
(18) Aresson, caro, EvgeniusLongus, Golodomor, infiltrator, judaz, Ogneslov, oldvarg, Olethros, Ostinato, pahail, Phlebotomized, randumbum, VALERY, varlam4, vasiljev_sergej, Wail, wreak,
Apr 19 2021, 23:13:18 Svartalfar - Raunacht [ep] (2021)


*Artist: Svartalfar
*Album: Raunacht [ep]
*Year: 2021
*Genre: Black Metal
*Country: Austria
*Format: mp3@CBR320kbps
*Size: 36MB

Tracklist:
1. Raunacht 05:12
2. Peraht 05:45
3. Im Morgengrauen 04:40
******************************
Total playing time: 15:37


Instagram

Metal Archives

[more=Technical info]
Input File: Svartalfar - Im Morgengrauen.mp3
Channels : 2
Sample Rate : 48000
Precision : 16-bit
Duration : 00:04:40.59 = 13468416 samples ~ 21044.4 CDDA sectors
File Size : 11.2M
Bit Rate : 320k
Sample Encoding: MPEG audio (layer I, II or III)
Comments :
Title=Im Morgengrauen
Artist=Svartalfar
Album=Raunacht
Tracknumber=3
Year=2021
Genre=Black Metal

[/more]

Register
(21) Bzth, caro, Ildjarn, infiltrator, judaz, kim666, korovakaska, Marek, nadin85, Olethros, randumbum, Reverend, RunningWild_AT, SilentNidhogg, stub888, undeadlich, VALERY, varlam4, vasiljev_sergej, Wail, wreak,
Apr 17 2021, 18:55:50 Janaza - Quranic Plague (2021)


*Artist: Janaza
*Album: Quranic Plague
*Year: 2021
*Genre: Black Metal
*Country: Unknown
*Format: mp3@CBR320kbps
*Size: 79MB

Tracklist:
1. Shaitan's Hijab 08:19
2. Ashes of Allah 05:22
3. The Desert Lies 02:40
4. The Pages Are Burned 06:31
5. Quranic Plague 05:19
6. When a Virus Has Beaten Allah 05:57
******************************
Total playing time: 34:08



Metal Archives

[more=Technical info]
Input File: Janaza - When a Virus has Beaten Allah.mp3
Channels : 2
Sample Rate : 44100
Precision : 16-bit
Duration : 00:05:57.74 = 15776334 samples = 26830.5 CDDA sectors
File Size : 14.3M
Bit Rate : 320k
Sample Encoding: MPEG audio (layer I, II or III)
Comments :
Title=When a Virus has Beaten Allah
Artist=Janaza
Album=Quranic Plague
Tracknumber=6
Year=2021
Genre=Black Metal

[/more]

Register
(22) AlexSmith, atavist, caro, CheCoola, craP_cillA, dermarsoran, Hell_Is_Here, infiltrator, kim666, kimkayoung, multizwilling, nadin85, Olethros, randumbum, robertho777, SilentNidhogg, VALERY, varlam4, vasiljev_sergej, Wail, wreak, YDV.SVARTVIND,
Apr 17 2021, 01:39:40 Perdizione - Descend Without Fortune [demo] (2021)


*Artist: Perdizione
*Album: Descend Without Fortune [demo]
*Year: 2021
*Genre: Raw Black Metal
*Country: United States
*Format: mp3@CBR320kbps
*Size: 40MB

Tracklist:
1. Concussion of God 04:08
2. The Desolation 04:16
3. Descend Without Fortune 08:30
******************************
Total playing time: 16:54

Metal Archives


[more=Technical info]
Input File: Perdizione - Concussion of God.mp3
Channels : 2
Sample Rate : 48000
Precision : 16-bit
Duration : 00:04:08.24 = 11915472 samples ~ 18617.9 CDDA sectors
File Size : 9.93M
Bit Rate : 320k
Sample Encoding: MPEG audio (layer I, II or III)
Comments :
Title=Concussion of God
Artist=Perdizione
Album=Descend Without Fortune
Tracknumber=1
Year=2021
Genre=Raw Black Metal

[/more]

Register
(11) caro, infiltrator, killingod, kim666, Olethros, randumbum, SilentNidhogg, smysl, VALERY, varlam4, vasiljev_sergej,
Apr 16 2021, 01:55:33 Cryptospital - Scythe Of The Black Death (2021)


*Artist: Cryptospital
*Album: Scythe Of The Black Death
*Year: 2021
*Genre: Atmospheric Black Metal
*Country: Belarus
*Format: mp3@CBR320kbps
*Size: 133MB

Tracklist:
1. Death's Hourglass 09:08
2. Grave in the Fog 08:37
3. Bloody Baptism 08:43
4. Black Crosses 08:34
5. Scythe of the Black Death 03:12
6. Blackness 04:14
7. Symphony of Sorrow 06:52
8. Proelium Glaciale 07:40
******************************
Total playing time: 57:00

Metal Archives



[more=Technical info]
Input File: Cryptospital - Grave in the Fog.mp3
Channels : 2
Sample Rate : 44100
Precision : 16-bit
Duration : 00:08:37.78 = 22833922 samples = 38833.2 CDDA sectors
File Size : 20.7M
Bit Rate : 320k
Sample Encoding: MPEG audio (layer I, II or III)
Comments :
Title=Grave in the Fog
Artist=Cryptospital
Album=Scythe of the Black Death
Tracknumber=2
Year=2021
Genre=Atmospheric Black Metal

[/more]

Register
(41) aleon, AlexSmith, alikkon, avather, caro, cesar, d0zer, djsema4, gav-gafi, igore2911, infiltrator, kim666, kimkayoung, Korpse, mariov, Mencae77, metala, Mortuusinfernus, multizwilling, Necromayhem, nemx, oldvarg, Olethros, Olrak, pahail, rabindranad, randumbum, razor7, robertho777, rominow, sergsazan, Shadechaser, SilentNidhogg, smes, stone88, Storky, tOmV, VALERY, varlam4, vasiljev_sergej, wreak,
Apr 16 2021, 00:56:32 Zavakas - Demo [demo] (2021)


*Artist: Zavakas
*Album: Demo [demo]
*Year: 2021
*Genre: Raw Black Metal
*Country: United States
*Format: mp3@CBR320kbps
*Size: 61MB

Tracklist:
1. Intro 06:08
2. Begotten 03:25
3. Through the Veil 03:22
4. The Lament 03:50
5. Feast of Transgressions 03:46
6. Cold Dead Air 05:32
******************************
Total playing time: 26:03

Metal Archives



[more=Technical info]
Input File: ZavakaS - COLD DEAD AIR.mp3
Channels : 2
Sample Rate : 44100
Precision : 16-bit
Duration : 00:05:33.05 = 14687593 samples = 24978.9 CDDA sectors
File Size : 13.3M
Bit Rate : 320k
Sample Encoding: MPEG audio (layer I, II or III)
Comments :
Title=Cold Dead Air
Artist=Zavakas
Album=Demo
Tracknumber=6
Year=2021
Genre=Raw Black Metal

[/more]

Register
(13) Alexis The Best, caro, infiltrator, kim666, Olethros, rammmirez, randumbum, razor7, SilentNidhogg, VALERY, varlam4, vasiljev_sergej, wreak,
Apr 15 2021, 22:47:33 Bihargam - Blood In The Temple [live] (2021)


*Artist: Bihargam
*Album: Blood In The Temple [live]
*Year: 2021
*Genre: Black Metal
*Country: United States
*Format: mp3@CBR320kbps
*Size: 95MB

Tracklist:
1. Devouring the Light 00:37
2. The Father-Mother 05:25
3. Epiphyte 04:17
4. The Screaming Planet 07:45
5. The Inanimate Son 05:10
6. The Church of Industrial Saints 06:07
7. The Fool 04:33
8. Melmoth 07:27
******************************
Total playing time: 41:21



Metal Archives


[more=Technical info]
Input File: Bihargam - The Screaming Planet.mp3
Channels : 2
Sample Rate : 44100
Precision : 16-bit
Duration : 00:07:45.21 = 20515937 samples = 34891 CDDA sectors
File Size : 18.6M
Bit Rate : 320k
Sample Encoding: MPEG audio (layer I, II or III)
Comments :
Title=The Screaming Planet
Artist=Bihargam
Album=Blood in the Temple
Tracknumber=4
Year=2021
Genre=Black Metal

[/more]

Register
(11) caro, infiltrator, legion01, Olethros, randumbum, sagratan, SilentNidhogg, VALERY, varlam4, vasiljev_sergej, wreak,
Apr 15 2021, 22:11:40 Ombrage - Blood & Prosperity [ep] (2021)


*Artist: Ombrage
*Album: Blood & Prosperity [ep]
*Year: 2021
*Genre: Raw Black Metal
*Country: Canada
*Format: mp3@CBR320kbps
*Size: 63MB

Tracklist:
1. Misanthropic Nature 08:30
2. Sculpted by the Tides 06:11
3. The Vulture Flies Above 07:27
4. Victorious Dead 04:59
******************************
Total playing time: 27:07

Metal Archives



[more=Technical info]
Input File: Ombrage - The Vulture Flies Above.mp3
Channels : 2
Sample Rate : 48000
Precision : 16-bit
Duration : 00:07:27.32 = 21471360 samples ~ 33549 CDDA sectors
File Size : 17.9M
Bit Rate : 320k
Sample Encoding: MPEG audio (layer I, II or III)
Comments :
Title=The Vulture Flies Above
Artist=Ombrage
Album=Blood & Prosperity
Tracknumber=3
Year=2021
Genre=Raw Black Metal

[/more]

Register
(15) Alexis The Best, Ildjarn, infiltrator, kim666, nemx, Olethros, randumbum, robertho777, SilentNidhogg, stub888, VALERY, varlam4, vasiljev_sergej, Vitald, wreak,

13 Pages V  < 1 2 3 4 5 > » 
- Lo-Fi Version Support form
Copyrights and abuse reports form
Time is now: 19th June 2021 - 10:48:21