Welcome Guest ( Log In | Register )

История благодарностей участнику mpavlentiy ::: Спасибо сказали: 97 раз(а)
Дата поста: В теме: За сообщение: Спасибо сказали:
Sep 6 2021, 07:07:51 Apophis - Excess (2021)
Чистейший мелодет старой школы, посему положительная реакция при прослушке)
(1) Storky,
Sep 3 2021, 08:52:52 Wormwood - Arkivet (2021)
Flac (tracks)
Register
(2) boby9052, Demonic,
Jul 24 2021, 04:42:56 Satariel - Phobos And Deimos (2002)
320
Register
(2) Ingvar, wreak,
Jul 16 2021, 07:58:10 Звуки Му - Простые Вещи (1988)
Царствие Небесное Петру Николаевичу
(1) maxmagmas,
Jul 6 2021, 18:49:26 Baerus - Baerus (2020)
320
Register
(1) Wail,
Jul 6 2021, 18:05:24 Shepherds Crook - Mat For Månen (2021)
ЦИТАТА(vosmidesijatye @ Jul 6 2021, 17:40:57) *
Так жанр и так безрыбье полнейшее.

Тут трудно не согласиться, увы... Стагнация стиля

ЦИТАТА(vosmidesijatye @ Jul 6 2021, 17:40:57) *
Eyehategod и Spliffripper

Eyehategod скорее по традиции, Spliffripper - не мое, как и Bongzilla

ЦИТАТА(vosmidesijatye @ Jul 6 2021, 17:40:57) *
Абсолютно нет, ибо вокал - блэкерский

Ну кто же по вокалу стиль определяет. Для меня Blackened Sludge/Doom Metal это Fleshpress, Wolvhammer, где действительно звучат блэковые нотки, как например на Flood Peak из последнего

(1) ent404,
Jul 6 2021, 17:23:12 Shepherds Crook - Mat For Månen (2021)
ЦИТАТА(vosmidesijatye @ Jul 6 2021, 16:31:48) *
Это безусловный топ года в поджанре, кароч.

Это если тока на безрыбье...)
Средний альбомец, который вытягивает последний длинный трек в 2 частях, все остальное забывается сразу после прослушки. Тэг Blackened притянут за уши
Тем не менее Flac (tracks)
Register
(3) denver, Olethros, wreak,
Jul 5 2021, 08:17:56 Optical Sun - Save Our Souls (2021)


*Artist: Optical Sun
*Album: Save Our Souls
*Year: 2021
*Genre: Doom/Stoner Metal
*Country: Poland
*Format: mp3@CBR320kbps
*Size: 96MB

Tracklist:
1. SOS/Save Our Souls 08:02
2. VI 05:39
3. Płonąca Planeta 05:51
4. Lemon Haze 04:20
5. Zaczarowany Las 07:18
6. Kobiety Grzebiące Umarłych 0 08:52
******************************
Total playing time: 40:02



[more=Technical info]
Input File: 01. Sos-Save Our Souls.mp3
Channels : 2
Sample Rate : 44100
Precision : 16-bit
Duration : 00:08:02.09 = 21260169 samples = 36156.8 CDDA sectors
File Size : 19.3M
Bit Rate : 320k
Sample Encoding: MPEG audio (layer I, II or III)
Comments :
Title=Sos/Save Our Souls
Artist=Optical Sun
Album=Save Our Souls
Tracknumber=1
Year=2021
Genre=Металл
Discnumber=1

[/more]

Register
(9) caro, chipsgott, HMHamster, Olethros, TDM, VALERY, Victim of fate, Wail, wreak,
Jul 1 2021, 20:25:02 Die Apokalyptischen Reiter - The Divine Horsemen (2021)
Мне одному что ли понравилось?))) Непохожий альбом на все, что слышал у них ранее, узнаваем тока вокал. Нисколько не фанат их творчества, видимо поэтому и зашло
(2) infiltrator, Алексейглаз,
Jun 15 2021, 13:33:21 Kyng - Trampled Sun (2011)
320
Register
(2) MeinWombat, wreak,
Jun 12 2021, 08:47:23 This Ending - Needles Of Rust (2021)
Flac (tracks)
Register
(1) isvili,
May 12 2021, 04:18:09 Lysjakt - Ethereal Palace (2021)
(1) AHBAnep,
May 1 2021, 04:49:32 Domkraft - Seeds (2021)
Flac (tracks)
Register
(1) wreak,
Apr 30 2021, 07:06:48 Domkraft - Seeds (2021)


*Artist: Domkraft
*Album: Seeds
*Year: 2021
*Genre: Psychedelic Sludge
*Country: Sweden
*Format: mp3@CBR320kbps
*Size: 101MB

Tracklist:
01. Seeds 09:15
02. Perpetuator 08:43
03. Into Orbit 05:12
04. Dawn Of Man 04:44
05. Tremors 05:51
06. Krank Blekhet 01:06
07. Audiodome 09:21
******************************
Total playing time: 44:12



[more=Technical info]
Input File: 04 Dawn Of Man.mp3
Channels : 2
Sample Rate : 44100
Precision : 16-bit
Duration : 00:04:44.99 = 12567971 samples = 21374.1 CDDA sectors
File Size : 11.4M
Bit Rate : 320k
Sample Encoding: MPEG audio (layer I, II or III)
Comments :
Title=Dawn Of Man
Artist=Domkraft
Album=Seeds
Tracknumber=4
Year=2021
Genre=Metal

[/more]

Register
(10) denver, gena, HMHamster, infiltrator, kimkayoung, Olethros, Ostinato, Wail, wreak, ZamanFu,
Mar 30 2021, 07:01:59 God Of Nothing - Vicious Cycle (2021)
Flac (tracks)
Register
(2) Olethros, wreak,
Mar 27 2021, 13:07:40 God Of Nothing - Vicious Cycle (2021)


*Artist: God Of Nothing
*Album: Vicious Cycle
*Year: 2021
*Genre: Downtempo Deathcore
*Country: United States
*Format: mp3@CBR320kbps
*Size: 84MB

Tracklist:
01. 09141 (Intro)
02. Locust
03. End Of The Road
04. Bottom Feeder
05. Sledge
06. Burn
07. No Icon
08. Blackened Heaven
09. Broken
10. Vicious Cycle
******************************
Total playing time: 36:11



[more=Technical info]
Input File: 02. Locust.mp3
Channels : 2
Sample Rate : 44100
Precision : 16-bit
Duration : 00:03:20.22 = 8829526 samples = 15016.2 CDDA sectors
File Size : 8.18M
Bit Rate : 327k
Sample Encoding: MPEG audio (layer I, II or III)
Comments :
Title=Locust
Artist=God Of Nothing/Adam Mercer
Album=Vicious Cycle
Tracknumber=2
Year=2021
Discnumber=1/1

[/more]

Register
(12) Bloodn Lord, caro, gwar, infiltrator, LokoMadriz, Olethros, respect, Sanctus, sludge666, Taakeferd, Vitald, wreak,
Mar 22 2021, 08:34:21 Ulvhedner - Ingen Veg Tilbake (2015)


*Artist: Ulvhedner
*Album: Ingen Veg Tilbake
*Year: 2015
*Genre: Black Metal
*Country: Norway
*Format: mp3@VBR175kbps
*Size: 35MB

Tracklist:
1. Så langt der ute 06:17
2. Ingenting varer evig 05:23
3. Ingen veg tilbake 06:12
4. Remember to die 04:53
5. Daudingarne 04:23
******************************
Total playing time: 27:08

[more=Technical info]
Input File: 02. Ingenting varer evig.mp3
Channels : 2
Sample Rate : 44100
Precision : 16-bit
Duration : 00:05:24.05 = 14290517 samples = 24303.6 CDDA sectors
File Size : 7.24M
Bit Rate : 179k
Sample Encoding: MPEG audio (layer I, II or III)
Comments :
Title=Ingenting varer evig
Artist=Ulvhedner
Album=Ingen Veg Tilbake
Tracknumber=2

[/more]

Register
(9) cancer1974, Ildjarn, infiltrator, kim666, Olethros, rammmirez, Sjelekval, thenecromancer, vasiljev_sergej,
Mar 21 2021, 08:44:24 Deinonychus - Ode To Acts Of Murder, Dystopia And Suicide (2017)
Хороший мрачный альбом, иногда звучащий как дум с блэковым вокалом, иногда как депрессивный блэк. Нашел рип переиздания 20 года с винила, переконвертировал его в обычный флак 16 bit
Register
(1) wreak,
Mar 20 2021, 09:23:32 Fuath - II (2021)
Flac (tracks)
Register
(6) AndreFrancis, Lunaris, mlnt, Occultas, Olethros, rimfrost,
Feb 16 2021, 11:10:41 Wyvern - The Wildfire (1998)
320
Register
(1) stumpheavyrock,
Feb 10 2021, 12:57:28 Midvinter - At The Sight Of The Apocalypse Dragon (1997)
Flac (tracks)
Register
(3) kramer820, Occultas, rickzammuto,
Feb 5 2021, 13:38:33 Inchiuvatu - Miseria (2008)
VBR 116 Mb
Register
(1) thenecromancer,
Jan 25 2021, 04:43:05 Flood Peak - Fixed Ritual [ep] (2021)


*Artist: Flood Peak
*Album: Fixed Ritual [ep]
*Year: 2021
*Genre: Blackened Sludge Metal
*Country: United States
*Format: mp3@CBR320kbps
*Size: 70MB

Tracklist:
01. Urnfield (04:51)
02. Salve Curator (04:19)
03. Feral Wraiths (05:23)
04. Way of the Sea (06:44)
05. Sectarian Hilt (08:57)
******************************
Total playing time: 30:14



[more=Technical info]
Input File: 01. Urnfield.mp3
Channels : 2
Sample Rate : 44100
Precision : 16-bit
Duration : 00:04:50.00 = 12789000 samples = 21750 CDDA sectors
File Size : 11.6M
Bit Rate : 321k
Sample Encoding: MPEG audio (layer I, II or III)
Comments :
Title=Urnfield
Artist=Flood Peak
Album=Fixed Ritual
Tracknumber=1
Year=2021-22-01
Genre=GetMetal.club
Discnumber=1

[/more]

Register
(2) sacredserenity, yuratroll,
Jan 20 2021, 07:25:23 Ockultist - Festering Wounds (2020)
ЦИТАТА(Lom_OFF @ Jan 20 2021, 05:08:33) *
если можно

На ВС можно бесплатно скачать в любом формате. А релиз кстати весьма достойный!
(1) thenecromancer,
Jan 7 2021, 10:19:03 Jack Frost - Mélaina Cholé (2015)
Flac (tracks)
Register
(3) Lucju, nadin85, WillyWonka,

2 Pages V   1 2 >
- Lo-Fi Version Support form
Copyrights and abuse reports form
Time is now: 20th October 2021 - 15:29:27