Welcome Guest ( Log In | Register )

История благодарностей участнику Mencae77 ::: Спасибо сказали: 114 раз(а)
Дата поста: В теме: За сообщение: Спасибо сказали:
Nov 24 2021, 12:43:55 Swarm Of Hatred - The Brotherhood Of Black Blood [ep] (2014)
Occultas have a very good taste but the album rip could have a better quality, thanks anyways dude 9.gif
(1) Occultas,
Nov 23 2021, 17:39:26 Isgherurd Morth - Hellrduk (2021)
QUOTE(Mencae77 @ Nov 22 2021, 11:24:27) *
Reupload? Thanks!

Register

Thanks a lot dude!!!:P
(1) wreak,
Nov 23 2021, 16:49:51 Akoman - Ahriman And The Whore Of Darkness (2012)
FLAC -
Register
(1) wreak,
Nov 20 2021, 12:30:50 Shroud Of Vulture - Valium 1 [demo] (2017)
Register
(1) Occultas,
Nov 19 2021, 17:03:31 Dakhma - Blessings Of Amurdad (2021)
Register

Register
(1) Occultas,
Nov 19 2021, 16:03:12 Shroud Of Vulture - Valium 1 [demo] (2017)


*Artist: Shroud Of Vulture
*Album: Valium 1 [demo]
*Year: 2017
*Genre: Black/Death/Doom
*Country: United States
*Format: mp3@CBR320kbps
*Size: 55MB

Tracklist:
1. Screwdriver 03:46
2. Existence Is Deceit 05:16
3. Concealing Mad Laughter 07:19
4. Isolate and Ruin 07:48
******************************
Total playing time: 24:09

[more=Technical info]
Input File: 01 - Screwdriver.mp3
Channels : 2
Sample Rate : 44100
Precision : 16-bit
Duration : 00:03:46.11 = 9971231 samples = 16957.9 CDDA sectors
File Size : 9.07M
Bit Rate : 321k
Sample Encoding: MPEG audio (layer I, II or III)
Comments :
Title=Screwdriver
Artist=Shroud of Vulture
Album=Valium 1 (Demo)
Tracknumber=01
Year=2017
Genre=Doom / Death / Black Metal
Discnumber=1

[/more]

Register
(1) Occultas,
Nov 19 2021, 11:24:57 Dakhma - Blessings Of Amurdad (2021)
Fuck yeah, another Dakhma album!!!
(1) Occultas,
Nov 17 2021, 12:44:07 Wormphlegm - Tomb Of The Ancient King (2006)
Great doom metal!
(1) Occultas,
Nov 8 2021, 18:06:15 Sulfure - Exorde Du Vide [ep] (2021)
Nice one 20.gif
(2) Occultas, Storky,
Oct 13 2021, 16:46:15 Paysage D'hiver - Geister (2021)
The catch with Paysage D'hiver is that the demos are the real albums, the full lenght albums are demos smile3.gif
(1) Occultas,
Oct 6 2021, 14:54:34 Sørgelig - Slaves Of Tomorrow [ep] (2021)
This is too fucking good, very nice 19.gif
(1) nsk2008,
Sep 28 2021, 15:30:54 Satans Penguins - Bloodlust Of The Warpenguins [demo] (2006)
1488.gif From Metallum :
QUOTE
With a name like Satans Penguins and a song like ‘Mutant Ninja Penguins (from hell)’ its hard to expect much and you certainly don’t get much. The main problem with this album is that the band cannot decide what the hell they want to play and there is little to no structure to most of the songs. I hear some crappy guitar solos and riffs which sometimes sound like 70s rock and roll and shitty growling vocals that sound totally uninspired and on the odd occasion very similar to Dani Filth except a thicker pole is up the ass. And that is one thick pole! There is little to no atmosphere really and the riffing ranges from being to annoying to totally uninspired and boring. The riffs in the first song turn into an almost plucking sound which drives me nuts! I just want to bang my head against the wall continuously until my skull cracks and my brain turns to mush. This is mainly from the drums which continue with this aggravating sound and the guitars often decide to play along with it. Fucking terrible. Occasionally female vocals in a standard gothic fashion comes in out of nowhere and it times sounds fairly decent but other times just plain weak. However it is still the best thing about this album and that is not even saying a whole lot.


Anyway this music sucks. It is not even sucky in a funny way but just plain shit. Avoid like the plague.
(1) Moldavite,
Sep 25 2021, 13:19:05 SATANATH RECORDS
I'm a proud Satanath bandcamp subscriber pray.gif 20.gif
(2) Occultas, satanath,
Sep 25 2021, 12:30:01 Kaatayra - Mata Mato [compilation] (2019)


*Artist: Kaatayra
*Album: Mata Mato [compilation]
*Year: 2019
*Genre: Progressive Folk Black Metal
*Country: Brazil
*Format: flac
*Size: 919MB

Tracklist:
1.Há Mais do que Refúgio em Mar Profundo 10:34
2.Das Serras, Sapiência e Sumidade 11:47
3.Clarividência em Xara 12:26
4.Saudades Florescem 13:43
5.Valhacouto de Lírios 11:23
6.Contra o Delírio Urbano, um Manipanso 11:34
7.Horizonte, Abismo 14:28
8.Fogo! Na Babilônia 13:27
9.Unhas de Bode Ecoam versus o Macaco Nu e sua Agricultura 04:16
10.Chama, Pólvora e Esperança 18:11
11.Preciso me Encontrar (Tributo ao Candeia) 04:00
******************************
Total playing time: 2:05:49

[more=Extended info][/more]

Register
(1) smysl,
Sep 24 2021, 13:44:35 Satanic Torment - Demonic Compendium 2015​-​2017 [compilation] (2018)


*Artist: Satanic Torment
*Album: Demonic Compendium 2015​-​2017 [compilation]
*Year: 2018
*Genre: Black/Death
*Country: Finland
*Format: mp3@CBR320kbps
*Size: 137MB

Tracklist:
1.From the Flames of Hell (Victorious) 08:56
2.Forever 07:59
3.Dark Heart 10:48
4.Through Hell 09:14
5.Hordes of Lucifer 05:09
6.A Vision of Darkness 02:32
7.Midnight Pervertor 03:03
8.Create with Hate 04:24
9.Satan Laughs as You Eternally Rot [Demo Version] 04:00
10.Apocalyptic Visions of the End [Demo Version] 03:54
******************************
Total playing time: 59:59

[more=Extended info]Flac, etc...
[/more]

[more=Technical info]
Input File: Satanic Torment - Demonic Compendium 2015-2017 - 03 Dark Heart.mp3
Channels : 2
Sample Rate : 44100
Precision : 16-bit
Duration : 00:10:48.71 = 28608023 samples = 48653.1 CDDA sectors
File Size : 26.0M
Bit Rate : 321k
Sample Encoding: MPEG audio (layer I, II or III)
Comments :
Title=Dark Heart
Artist=Satanic Torment
Album=Demonic Compendium 2015-2017
Tracknumber=3
Year=2018

[/more]

Register
(1) wreak,
Sep 21 2021, 18:31:52 Thy Dying Light - Thy Dying Light (2020)
Shut your mouth...
Thy Dying Light Rulez!!!
(1) Occultas,
Sep 21 2021, 12:14:02 Spectral Lore - Gnosis [ep] (2015)
Flac -
Register
(2) kanashimi165, wreak,
Sep 17 2021, 13:23:09 Wormwood - Arkivet (2021)
Overrated poser metal...
(1) Storky,
Sep 16 2021, 17:20:46 Inhibitions - La Danse Macabre (2018)
QUOTE
110 mb/320 kbps

Thank you dude! 20.gif
(1) Ingvar,
Sep 15 2021, 13:25:26 Månen Skygge - Drowning In Silent Echoes (2021)
QUOTE
...The Empire FLACs Back...

lol Dude, you're funny, thanks for the flacs!
(2) UlvhedinGrom, witchfinder,
Sep 2 2021, 13:25:27 Profane Souls - Ritual De Blasfêmia (2021)
Fat horrible stinky carnaval womans, I hate this shit...
(1) Storky,
Aug 26 2021, 17:59:55 Nunslaughter - Red Is The Color Of Ripping Death (2021)
QUOTE
очередной YouTube Rip в лоу, ты же прекрасно это знаешь и выдаешь за качество!

гнилой ты тип самара гнилой.


Occultas, my friend, are you sure about it, cause if you are I'm skipping this one till someone else reupload it, thats sad Samaritianin... disappointed with you Samar... 6.gif
(1) Occultas,
Aug 23 2021, 13:41:17 Thy Darkened Shade & Amestigon & Inconcessus Lux Lucis & Shaarimoth - Samaelilith: A Conjunction Of The Fireborn [split] (2021)
Reupload this? Cannot access the link?! Need to download Yandex Disk app and create an account... I did the boring process and it didn't worked for me, need a reupload, please.
(3) Knorkator666, metamfer, VALERY,
Aug 6 2021, 14:04:59 गौतम बुद्ध - गौतम बुद्ध (2021)
Register
(1) Occultas,
Aug 5 2021, 14:19:22 गौतम बुद्ध - गौतम बुद्ध (2021)


*Artist: गौतम बुद्ध
*Album: गौतम बुद्ध
*Year: 2021
*Genre: Black Metal
*Country: India
*Format: flac
*Size: 450MB

Tracklist:
1.भगवान की आज्ञा से 09:42
2.पुण्य समाप्त हो जाने पर 09:27
3.पुण्य फल भोगने के लिए 09:25
4.पाप का फल भोगने के लिए। 09:25
******************************
Total playing time: 37:59

Register
(6) Carcharoth, madera, Occultas, sacrut, thenecromancer, Yorker,

3 Pages V   1 2 3 >
- Lo-Fi Version Support form
Copyrights and abuse reports form
Time is now: 5th December 2021 - 02:46:22