Welcome Guest ( Log In | Register )

История благодарностей участнику ITNOR ::: Спасибо сказали: 623 раз(а)
Дата поста: В теме: За сообщение: Спасибо сказали:
Apr 20 2021, 22:39:30 The Watcher - Your Turn To Die [ep] (2021)


*Artist: The Watcher
*Album: Your Turn To Die [ep]
*Year: 2021
*Genre: Doom/Heavy Metal
*Country: United States
*Format: mp3@CBR320kbps
*Size: 32MB

Tracklist:
1. Your Turn to Die
2. Until It Bleeds
3. Judgement Day
******************************
Total playing time: 13:48



[more=Technical info]
Input File: 01. Your Turn to Die.mp3
Channels : 2
Sample Rate : 44100
Precision : 16-bit
Duration : 00:02:56.94 = 7802922 samples = 13270.3 CDDA sectors
File Size : 7.08M
Bit Rate : 320k
Sample Encoding: MPEG audio (layer I, II or III)

[/more]

Register
(6) after21allD, HMHamster, infiltrator, Olethros, stumpheavyrock, VALERY,
Apr 19 2021, 01:13:19 Rtngjhvh - Rotting Jehovah [demo] (2020)


*Artist: Rtngjhvh
*Album: Rotting Jehovah [demo]
*Year: 2020
*Genre: Black/Death Metal
*Country: United States
*Format: mp3@CBR320kbps
*Size: 56MB

Tracklist:
1. Rotting Jehovah
2. Storms Of Blood
3. Holy Plagues Of Filth
4. Hammer Of Unholy War
5. Necromantic Perversion
6. Pazuzu
7. Slaughter The Pigs Of Christ
******************************
Total playing time: 26:25



[more=Technical info]
Input File: 3. Holy Plagues Of Filth.mp3
Channels : 2
Sample Rate : 44100
Precision : 16-bit
Duration : 00:02:58.35 = 7865103 samples = 13376 CDDA sectors
File Size : 7.13M
Bit Rate : 320k
Sample Encoding: MPEG audio (layer I, II or III)

[/more]

Register
(5) infiltrator, Olethros, unit731, varlam4, vasiljev_sergej,
Apr 17 2021, 04:24:26 Brood In Black - Dclxvi [ep] (2020)


*Artist: Brood In Black
*Album: Dclxvi [ep]
*Year: 2020
*Genre: Black Metal
*Country: United States
*Format: mp3@CBR320kbps
*Size: 52MB

Tracklist:
1. DCLXVI (666)
2. Spawn Of The Devil
3. Bestial Attack
4. Lambsblood
5. Fear The Name Of Moloch
6. AAMON, Prince Of Demons
7. Oath To The Dark Lord
******************************
Total playing time: 26:36



[more=Technical info]
Input File: 2. SPAWN OF THE DEVIL.mp3
Channels : 2
Sample Rate : 44100
Precision : 16-bit
Duration : 00:03:59.45 = 10559789 samples = 17958.8 CDDA sectors
File Size : 9.58M
Bit Rate : 320k
Sample Encoding: MPEG audio (layer I, II or III)

[/more]

Register
(7) Alexis The Best, infiltrator, kim666, Olethros, unit731, varlam4, vasiljev_sergej,
Apr 17 2021, 03:55:24 Arra - Demo I (2020)


*Artist: Arra
*Album: Demo I
*Year: 2020
*Genre: Black Metal
*Country: United States
*Format: mp3@CBR320kbps
*Size: 67MB

Tracklist:
1. Intro: Invocation I
2. Goat Ritual
3. Fullmoon Sacrifice
4. Ancient Ones
5. Occultor
6. Invocation II: Black Chaos Magick
******************************
Total playing time: 29:24



[more=Technical info]
Input File: 2. GOAT RITUAL.mp3
Channels : 2
Sample Rate : 44100
Precision : 16-bit
Duration : 00:05:13.67 = 13832803 samples = 23525.2 CDDA sectors
File Size : 12.5M
Bit Rate : 320k
Sample Encoding: MPEG audio (layer I, II or III)

[/more]

Register
(11) caro, infiltrator, kim666, Olethros, randumbum, sacrut, Sanctus, SilentNidhogg, VALERY, varlam4, vasiljev_sergej,
Apr 7 2021, 16:48:29 Master's Blood - Master's Blood [demo] (2021)


*Artist: Master's Blood
*Album: Master's Blood [demo]
*Year: 2021
*Genre: Death Metal
*Country: Sweden
*Format: mp3@CBR320kbps
*Size: 31MB

Tracklist:
1. Those of Decay
2. Where No Doves Fly
3. With Terror in Their Eyes
4. Nordic Visions
******************************
Total playing time: 14:20



[more=Technical info]
Input File: 2. Where No Doves Fly.mp3
Channels : 2
Sample Rate : 44100
Precision : 16-bit
Duration : 00:04:29.05 = 11865061 samples = 20178.7 CDDA sectors
File Size : 10.8M
Bit Rate : 320k
Sample Encoding: MPEG audio (layer I, II or III)

[/more]

Register
(8) caro, infiltrator, killingod, Olethros, randumbum, stumpheavyrock, Taakeferd, VALERY,
Apr 7 2021, 16:27:24 Baron - Hellspawn [demo] (2021)


*Artist: Baron
*Album: Hellspawn [demo]
*Year: 2021
*Genre: Death Metal
*Country: Finland
*Format: mp3@CBR320kbps
*Size: 42MB

Tracklist:
1. Vacant Stares Into the Soul of Our Conviction
2. Hands of Sin (Swallowed by Fires Beneath)
3. Descent: Burning Stairs of Despair
******************************
Total playing time: 19:05



[more=Technical info]
Input File: 2. Hands of Sin (Swallowed by Fires Beneath).mp3
Channels : 2
Sample Rate : 44100
Precision : 16-bit
Duration : 00:03:51.88 = 10225688 samples = 17390.6 CDDA sectors
File Size : 9.27M
Bit Rate : 320k
Sample Encoding: MPEG audio (layer I, II or III)

[/more]

Register
(5) infiltrator, killingod, Marek, Olethros, varlam4,
Apr 7 2021, 06:19:42 Infeccion - Culto A La Putrefacción [demo] (2021)


*Artist: Infeccion
*Album: Culto A La Putrefacción [demo]
*Year: 2021
*Genre: Death Metal
*Country: Canada
*Format: mp3@CBR320kbps
*Size: 26MB

Tracklist:
1. Intro/Mórbido
2. Peste fetidez
3. Muerte violenta
******************************
Total playing time: 12:49



[more=Technical info]
Input File: 2. Peste Fetidez.mp3
Channels : 2
Sample Rate : 44100
Precision : 16-bit
Duration : 00:04:26.72 = 11762528 samples = 20004.3 CDDA sectors
File Size : 10.7M
Bit Rate : 320k
Sample Encoding: MPEG audio (layer I, II or III)

[/more]

Register
(5) caro, Grogro, infiltrator, Olethros, randumbum,
Apr 7 2021, 05:52:56 Expunged - Promo 2021 [demo] (2021)


*Artist: Expunged
*Album: Promo 2021 [demo]
*Year: 2021
*Genre: Death Metal
*Country: Canada
*Format: mp3@CBR320kbps
*Size: 18MB

Tracklist:
1. Early Tragic End
2. Saviours of Sickness (Demo)
******************************
Total playing time: 8:12



[more=Technical info]
Input File: 1. EARLY TRAGIC END.mp3
Channels : 2
Sample Rate : 44100
Precision : 16-bit
Duration : 00:04:53.50 = 12943394 samples = 22012.6 CDDA sectors
File Size : 11.7M
Bit Rate : 320k
Sample Encoding: MPEG audio (layer I, II or III)

[/more]

Register
(3) infiltrator, killingod, Olethros,
Apr 7 2021, 05:04:04 Harrowed - Mmxxi [demo] (2021)


*Artist: Harrowed
*Album: Mmxxi [demo]
*Year: 2021
*Genre: Death Metal
*Country: Sweden
*Format: mp3@CBR320kbps
*Size: 26MB

Tracklist:
1. Poison Death
2. Reap the Storm
******************************
Total playing time: 11:48



[more=Technical info]
Input File: 1. Poison Death.mp3
Channels : 2
Sample Rate : 44100
Precision : 16-bit
Duration : 00:06:03.33 = 16022897 samples = 27249.8 CDDA sectors
File Size : 14.5M
Bit Rate : 320k
Sample Encoding: MPEG audio (layer I, II or III)

[/more]

Register
(3) infiltrator, Olethros, stumpheavyrock,
Apr 7 2021, 04:38:25 Fusilated - Preso En El Holocausto [demo] (2020)


*Artist: Fusilated
*Album: Preso En El Holocausto [demo]
*Year: 2020
*Genre: Black/Thrash Metal
*Country: Chile
*Format: mp3@CBR320kbps
*Size: 16MB

Tracklist:
1. Inconsecuencia
2. Preso en el holocausto
******************************
Total playing time: 8:16



[more=Technical info]
Input File: 1. Inconsecuencia.mp3
Channels : 2
Sample Rate : 44100
Precision : 16-bit
Duration : 00:02:02.08 = 5383552 samples = 9155.7 CDDA sectors
File Size : 4.88M
Bit Rate : 320k
Sample Encoding: MPEG audio (layer I, II or III)

[/more]

Register
(5) infiltrator, korovakaska, Olethros, stumpheavyrock, vasiljev_sergej,
Apr 7 2021, 04:15:56 Forgotten Cult - Rehearsal Mmxviii [demo] (2018)


*Artist: Forgotten Cult
*Album: Rehearsal Mmxviii [demo]
*Year: 2018
*Genre: Death Metal
*Country: Chile
*Format: mp3@CBR320kbps
*Size: 32MB

Tracklist:
1. Ghost of Hades
2. Mutilate...Annihilate!!!
3. Deceiver Grave
******************************
Total playing time: 15:27



[more=Technical info]
Input File: 1. Ghost Of Hades.mp3
Channels : 2
Sample Rate : 44100
Precision : 16-bit
Duration : 00:04:32.84 = 12032112 samples = 20462.8 CDDA sectors
File Size : 10.9M
Bit Rate : 320k
Sample Encoding: MPEG audio (layer I, II or III)

[/more]

Register
(2) infiltrator, Olethros,
Apr 7 2021, 03:56:42 Blasphemaniac - The Call Of The Black Goat [demo] (2021)


*Artist: Blasphemaniac
*Album: The Call Of The Black Goat [demo]
*Year: 2021
*Genre: Black/Thrash/Speed Metal
*Country: Brazil
*Format: mp3@CBR320kbps
*Size: 39MB

Tracklist:
1. Blasphemaniac
2. Lust Possession
3. Postmortem Alcoholic Desecration
4. Satanic Witchcraft
5. The Call of the Black Goat
6. Black Viper (Vectom cover)
******************************
Total playing time: 17:42



[more=Technical info]
Input File: 6. Black Viper (Vectom cover).mp3
Channels : 2
Sample Rate : 44100
Precision : 16-bit
Duration : 00:03:21.78 = 8898498 samples = 15133.5 CDDA sectors
File Size : 8.07M
Bit Rate : 320k
Sample Encoding: MPEG audio (layer I, II or III)

[/more]

Register
(5) infiltrator, metala, Olethros, stumpheavyrock, vasiljev_sergej,
Apr 7 2021, 03:36:56 Ossuário - The Cult Of Damnation [demo] (2015)


*Artist: Ossuário
*Album: The Cult Of Damnation [demo]
*Year: 2015
*Genre: Black/Speed Metal
*Country: Brazil
*Format: mp3@CBR320kbps
*Size: 12MB

Tracklist:
1. Total Damnation
2. The Cult Is Raw
******************************
Total playing time: 6:19



[more=Technical info]
Input File: 1. Total Damnation.mp3
Channels : 2
Sample Rate : 44100
Precision : 16-bit
Duration : 00:03:05.04 = 8160044 samples = 13877.6 CDDA sectors
File Size : 7.40M
Bit Rate : 320k
Sample Encoding: MPEG audio (layer I, II or III)

[/more]

Register
(5) infiltrator, Olethros, stumpheavyrock, varlam4, vasiljev_sergej,
Apr 7 2021, 02:58:04 Internal Infestation - Demo [demo] (2021)


*Artist: Internal Infestation
*Album: Demo [demo]
*Year: 2021
*Genre: Death/Thrash Metal
*Country: Canada
*Format: mp3@CBR320kbps
*Size: 22MB

Tracklist:
1. Morbid Perversity
2. Aurora Gorealis
3. Chainsaw Bloodlust
******************************
Total playing time: 10:19



[more=Technical info]
Input File: 2. Aurora Gorealis.mp3
Channels : 2
Sample Rate : 44100
Precision : 16-bit
Duration : 00:03:21.13 = 8869701 samples = 15084.5 CDDA sectors
File Size : 8.04M
Bit Rate : 320k
Sample Encoding: MPEG audio (layer I, II or III)

[/more]

Register
(7) GorAtheist, infiltrator, Marek, metala, Olethros, stumpheavyrock, wgs73,
Apr 7 2021, 01:01:42 Strigoi - Strigoi [ep] (2018)


*Artist: Strigoi
*Album: Strigoi [ep]
*Year: 2018
*Genre: Death/Thrash/Black Metal
*Country: Chile
*Format: mp3@CBR320kbps
*Size: 33MB

Tracklist:
1. Introduction (Voivode's Path)
2. Spectral Chimes
3. Sepulchral Earth's Fumes
4. Volcanic Miasma
******************************
Total playing time: 15:57



[more=Technical info]
Input File: 2. Spectral Chimes.mp3
Channels : 2
Sample Rate : 44100
Precision : 16-bit
Duration : 00:04:38.27 = 12271751 samples = 20870.3 CDDA sectors
File Size : 11.1M
Bit Rate : 320k
Sample Encoding: MPEG audio (layer I, II or III)

[/more]

Register
(9) boby9052, infiltrator, killingod, Olethros, scorpionmk, sergsazan, stumpheavyrock, vasiljev_sergej, wgs73,
Apr 7 2021, 00:46:41 Morbid Cruelty - Demo I [demo] (2019)


*Artist: Morbid Cruelty
*Album: Demo I [demo]
*Year: 2019
*Genre: Death/Thrash Metal
*Country: Chile
*Format: mp3@CBR320kbps
*Size: 30MB

Tracklist:
1. Horrid Death
2. Red Ripper
3. Abysmal Terror
******************************
Total playing time: 4:38



[more=Technical info]
Input File: 1. Horrid Death.mp3
Channels : 2
Sample Rate : 44100
Precision : 16-bit
Duration : 00:04:38.09 = 12263681 samples = 20856.6 CDDA sectors
File Size : 11.1M
Bit Rate : 320k
Sample Encoding: MPEG audio (layer I, II or III)

[/more]

Register
(7) infiltrator, killingod, Olethros, scorpionmk, stumpheavyrock, Wail, wgs73,
Apr 6 2021, 23:47:39 Sněť - Demo [demo] (2019)


*Artist: Sněť
*Album: Demo [demo]
*Year: 2019
*Genre: Death Metal
*Country: Czech Republic
*Format: mp3@CBR320kbps
*Size: 13MB

Tracklist:
1. Intoxikace
2. Obří kat
******************************
Total playing time: 6:09



[more=Technical info]
Input File: 1. Intoxikace.mp3
Channels : 2
Sample Rate : 44100
Precision : 16-bit
Duration : 00:02:40.51 = 7078271 samples = 12037.9 CDDA sectors
File Size : 6.42M
Bit Rate : 320k
Sample Encoding: MPEG audio (layer I, II or III)

[/more]

Register
(12) caro, grimoir, infiltrator, killingod, Marek, Olethros, randumbum, scorpionmk, Taakeferd, VALERY, varlam4, Waldemar666,
Apr 6 2021, 23:41:24 Phantasmagore - Abominations... [demo] (2019)


*Artist: Phantasmagore
*Album: Abominations... [demo]
*Year: 2019
*Genre: Death Metal
*Country: Chile
*Format: mp3@CBR320kbps
*Size: 35MB

Tracklist:
1. Master Crusher
2. Assimilation of the Intruder Cell
3. BloodFreak (Necrophagia cover)
******************************
Total playing time: 16:44



[more=Technical info]
Input File: 1. Master Crusher.mp3
Channels : 2
Sample Rate : 44100
Precision : 16-bit
Duration : 00:05:57.56 = 15768264 samples = 26816.8 CDDA sectors
File Size : 14.3M
Bit Rate : 320k
Sample Encoding: MPEG audio (layer I, II or III)

[/more]

Register
(4) infiltrator, killingod, Olethros, scorpionmk,
Apr 6 2021, 23:31:35 Gatling - De Vermis Mysteriis [demo] (2021)


*Artist: Gatling
*Album: De Vermis Mysteriis [demo]
*Year: 2021
*Genre: Death/Black/Thrash Metal
*Country: Peru
*Format: mp3@CBR320kbps
*Size: 32MB

Tracklist:
1. Kharisiri Attack
2. Coven Of The Worms
3. Sabbatical Devil Worship & Darkness and Evil (rehearsal version)
******************************
Total playing time: 14:00



[more=Technical info]
Input File: Gatling - De Vermis Mysteriis - 01 Kharisiri Attack.mp3
Channels : 2
Sample Rate : 44100
Precision : 16-bit
Duration : 00:04:09.64 = 11009080 samples = 18722.9 CDDA sectors
File Size : 10.1M
Bit Rate : 324k
Sample Encoding: MPEG audio (layer I, II or III)
Comments :
Title=Kharisiri Attack
Artist=Gatling
Album=De Vermis Mysteriis
Year=2021

[/more]

Register
(10) infiltrator, LokoMadriz, Olethros, randumbum, scorpionmk, stumpheavyrock, Taakeferd, VALERY, varlam4, wgs73,
Apr 6 2021, 23:22:06 Cadaveric Cult - Spiritual Migration [demo] (2021)


*Artist: Cadaveric Cult
*Album: Spiritual Migration [demo]
*Year: 2021
*Genre: Death/Doom Metal
*Country: Chile
*Format: mp3@CBR320kbps
*Size: 25MB

Tracklist:
1. Transhumation
2. Descent
3. Reincarnation Transmigration
******************************
Total playing time: 10:57



[more=Technical info]
Input File: 1. Transhumation.mp3
Channels : 2
Sample Rate : 44100
Precision : 16-bit
Duration : 00:03:20.97 = 8862821 samples = 15072.8 CDDA sectors
File Size : 8.04M
Bit Rate : 320k
Sample Encoding: MPEG audio (layer I, II or III)

[/more]

Register
(14) Doooomed, gena, infiltrator, killingod, korovakaska, LokoMadriz, marilin, Olethros, Pinhead666, randumbum, sergsazan, stumpheavyrock, Taakeferd, VALERY,
Apr 5 2021, 02:17:49 Ixtlahuac - Teyacanilitztli Nahualli [demo] (2019)


*Artist: Ixtlahuac
*Album: Teyacanilitztli Nahualli [demo]
*Year: 2019
*Genre: Black Metal
*Country: International
*Format: mp3@CBR320kbps
*Size: 62MB

Tracklist:
1. Huehuecoyotl
2. Ixlthaucán de los brujos
3. Guía místico: Xoloitzcuintle
4. Nahuallotl (Magia) negra
5. Ritual de fuego nuevo
6. Xolotl: 4 puntos cardinales (Outro)
7. Rito ceremonial en la zona negativa (Engendro Malévolo cover)
8. Coatlicue nunca muere
******************************
Total playing time: 31:27



[more=Technical info]
Input File: 5. Ritual de Fuego Nuevo.mp3
Channels : 2
Sample Rate : 44100
Precision : 16-bit
Duration : 00:05:09.52 = 13649612 samples = 23213.6 CDDA sectors
File Size : 12.4M
Bit Rate : 320k
Sample Encoding: MPEG audio (layer I, II or III)

[/more]

Register
(6) infiltrator, kim666, Olethros, titorrante, varlam4, vasiljev_sergej,
Apr 5 2021, 01:55:25 Satanchist - Drtièi Kacíøských Pohlaví [demo] (1992)
Remastered 2012. LP (2013) Hexencave Productions.

89.2 MB

mp3@CBR320kbps

Register


(4) Evilded, Mucupurulence, Necrodictator, titorrante,
Apr 1 2021, 07:18:34 Venefices - Succubacy [demo] (2020)
Venefices “Succubacy” Demo 2020
24.3 MB
mp3@CBR320kbps

Register
(2) Occultas, wtk.412,
Apr 1 2021, 07:02:36 Apochryphal Revelation - Abyssic Cries From The Netherworld [demo] (2015)


*Artist: Apochryphal Revelation
*Album: Abyssic Cries From The Netherworld [demo]
*Year: 2015
*Genre: Black/Death Metal
*Country: United States
*Format: mp3@CBR320kbps
*Size: 51MB

Tracklist:
1. Inverted Genesis
2. Father, Son, Holy Spirit
3. Apochryphal Revelation
4. Invocation of Samael
5. Prayer to Flauros
6. Sorceror's Oath
7. The Final Saint Befouled
8. Outro
******************************
Total playing time: 25:55



[more=Technical info]
Input File: 3. Apochryphal Revelation.mp3
Channels : 2
Sample Rate : 44100
Precision : 16-bit
Duration : 00:03:17.60 = 8714204 samples = 14820.1 CDDA sectors
File Size : 7.90M
Bit Rate : 320k
Sample Encoding: MPEG audio (layer I, II or III)

[/more]

Register
(6) infiltrator, killingod, Olethros, titorrante, varlam4, vasiljev_sergej,
Apr 1 2021, 06:46:30 Apochryphal Revelation - Rehearsal 12-29-13 Set 2 [demo] (2013)


*Artist: Apochryphal Revelation
*Album: Rehearsal 12-29-13 Set 2 [demo]
*Year: 2013
*Genre: Black/Death Metal
*Country: United States
*Format: mp3@CBR320kbps
*Size: 44MB

Tracklist:
1. Intro
2. Father Son Holy Spirit
3. Sermon On The Mount
4. Graveyard Torment
5. Burning Descent
6. Ancient Terror
******************************
Total playing time: 19:20



[more=Technical info]
Input File: Apochryphal Revelation - Father Son Holy Spirit.mp3
Channels : 2
Sample Rate : 44100
Precision : 16-bit
Duration : 00:01:59.39 = 5265055 samples = 8954.18 CDDA sectors
File Size : 4.78M
Bit Rate : 320k
Sample Encoding: MPEG audio (layer I, II or III)
Comments :
Title=Father Son Holy Spirit
Artist=Apochryphal Revelation
Album=Rehearsal 12-29-13 Set 2
Tracknumber=2
Year=2013

[/more]

Register
(9) caro, dermarsoran, infiltrator, Olethros, randumbum, Taakeferd, VALERY, varlam4, vasiljev_sergej,

4 Pages V   1 2 3 > » 
- Lo-Fi Version Support form
Copyrights and abuse reports form
Time is now: 14th May 2021 - 11:59:08