Welcome Guest ( Log In | Register )

История благодарностей участнику BFMer ::: Спасибо сказали: 20 раз(а)
Дата поста: В теме: За сообщение: Спасибо сказали:
May 13 2022, 18:05:17 Demonochtets - Demo 2 [demo] (2022)


*Artist: Demonochtets
*Album: Demo 2 [demo]
*Year: 2022
*Genre: Dungeon Synth/Raw Black Metal
*Country: Moldova
*Format: mp3@CBR320kbps
*Size: 32MB

Tracklist:
1. Untitled III 01:27
2. Untitled IV 02:37
3. Untitled V 03:02
4. Untitled VI 04:02
5. Into Infinite Obscurity (Dissection cover) 00:55
******************************
Total playing time: 12:03



[more=Technical info]
Input File: 03 - Untitled V.mp3
Channels : 2
Sample Rate : 44100
Precision : 16-bit
Duration : 00:03:03.08 = 8073652 samples = 13730.7 CDDA sectors
File Size : 7.57M
Bit Rate : 331k
Sample Encoding: MPEG audio (layer I, II or III)
Comments :
Title=Untitled V
Artist=Demonochtets
Album=Demo II
Tracknumber=3
Year=2022

[/more]

Register
(8) artscald, caro, nemx, Olethros, robertho777, stormhatt, varlam4, wreak,
Sep 26 2020, 12:00:22 Demonochtets - Demo I [demo] (2020)


*Artist: Demonochtets
*Album: Demo I [demo]
*Year: 2020
*Genre: Dungeon Synth/Raw Black Metal
*Country: Moldova
*Format: mp3@CBR320kbps
*Size: 18MB

Tracklist:
01 Untitled I
02 Untitled II
03 葬式 (Manierisme cover)
04 Requiem (Alwaar cover)
******************************
Total playing time: 7:33

[more=Technical info]
Input File: Demonochtets - Demo I - 01 Untitled I.mp3
Channels : 2
Sample Rate : 44100
Precision : 16-bit
Duration : 00:02:36.93 = 6920437 samples = 11769.5 CDDA sectors
File Size : 6.46M
Bit Rate : 330k
Sample Encoding: MPEG audio (layer I, II or III)
Comments :
Title=Untitled I
Artist=Demonochtets
Album=Demo I
Tracknumber=1
Year=2020

[/more]

Register
(12) infiltrator, nemx, Olethros, randumbum, Razorbladeswaltz, Rosen, stormhatt, VALERY, varlam4, vasiljev_sergej, Wail, wreak,

- Lo-Fi Version Support form
Copyrights and abuse reports form
Time is now: 3rd July 2022 - 17:52:25