Welcome Guest ( Log In | Register )

История благодарностей участнику wolfskaiser ::: Спасибо сказали: 11458 раз(а)
Дата поста: В теме: За сообщение: Спасибо сказали:
Jul 22 2021, 17:58:20 Epoch Of Chirality - Nucleosynthesis (2021)


*Artist: Epoch Of Chirality
*Album: Nucleosynthesis
*Year: 2021
*Genre: Progressive Metal
*Country: United Kingdom
*Format: mp3@CBR320kbps
*Size: 125MB

Tracklist:
01. Dawn Of Chirality
02. Undercity Rising
03. Caravan To The Midnight Mountain
04. Boreal
05. Pyramid Cybergod
06. Maiden Voyage
07. The Abyssal Fleet
08. Labyrinth
09. Paradox
******************************
Total playing time: 49:57



[more=Technical info]
Input File: 02. Undercity Rising.mp3
Channels : 2
Sample Rate : 44100
Precision : 16-bit
Duration : 00:03:25.36 = 9056508 samples = 15402.2 CDDA sectors
File Size : 8.28M
Bit Rate : 323k
Sample Encoding: MPEG audio (layer I, II or III)
Comments :
Title=Undercity Rising
Artist=Epoch Of Chirality
Album=Nucleosynthesis
Tracknumber=02/09
Year=2021-07-23
Genre=Metal
Discnumber=1

[/more]

Register
(4) infiltrator, metala, Olethros, Rover,
Jul 22 2021, 17:47:45 Craven Idol - Forked Tongues (2021)


*Artist: Craven Idol
*Album: Forked Tongues
*Year: 2021
*Genre: Black/Thrash Metal
*Country: United Kingdom
*Format: mp3@CBR320kbps
*Size: 103MB

Tracklist:
01. Venomous Rites 04:14
02. The Wrath Of Typhon 03:54
03. Iron Age Of Devastation 03:58
04. Even The Demons 05:25
05. Forked Tongues 05:20
06. Deify The Stormgod 09:22
07. The Gods Have Left Us For Dead 09:06
******************************
Total playing time: 41:19




[more=Technical info]
Input File: 02. The Wrath Of Typhon.mp3
Channels : 2
Sample Rate : 44100
Precision : 16-bit
Duration : 00:03:54.86 = 10357194 samples = 17614.3 CDDA sectors
File Size : 9.51M
Bit Rate : 324k
Sample Encoding: MPEG audio (layer I, II or III)
Comments :
Title=The Wrath Of Typhon
Artist=Craven Idol
Album=Forked Tongues
Tracknumber=02/07
Year=2021
Genre=Metal

[/more]

Register
(9) andreikun, infiltrator, madera, metala, Olethros, sergsazan, sludge666, WX419, Варяг,
Jul 20 2021, 23:55:50 Panzerwar - Abhorrent Antediluvian Blessings (2021)


*Artist: Panzerwar
*Album: Abhorrent Antediluvian Blessings
*Year: 2021
*Genre: Black Metal
*Country: Canada
*Format: mp3@CBR320kbps
*Size: 117MB

Tracklist:
01. True To The Voices Of Old
02. Land Of The Forlorn
03. The Axe Of Boniface
04. Sempiternal Gates Of Freedom
05. In Search Of A Lost Memory Pt. II
06. The Sign Of Blackened Wings
07. Flames Of The Lost Pyre
08. A Pagan Dance Under The Pale Moon
09. Foul Blessings Of The Dead
10. Barbarity Not Suited For This Age
******************************
Total playing time: 46:25



[more=Technical info]
Input File: 02. Land Of The Forlorn.mp3
Channels : 2
Sample Rate : 44100
Precision : 16-bit
Duration : 00:04:53.19 = 12929723 samples = 21989.3 CDDA sectors
File Size : 11.8M
Bit Rate : 323k
Sample Encoding: MPEG audio (layer I, II or III)
Comments :
Title=Land Of The Forlorn
Artist=Panzerwar
Album=Abhorrent Antediluvian Blessings
Tracknumber=02/10
Year=2021-07-21
Genre=Metal
Discnumber=1

[/more]

Register
(24) AlexSmith, alikkon, caro, cist, Fater_Hu, gena, Goryssimo, grimoir, infiltrator, judaz, kim666, Moonshtook, multizwilling, Olethros, Reverend, robertho777, sagratan, stub888, supremo, VALERY, vasiljev_sergej, Velmi, Vitald, wgs73,
Jul 18 2021, 11:28:53 Fell Harvest - Pale Light In A Dying World (2021)


*Artist: Fell Harvest
*Album: Pale Light In A Dying World
*Year: 2021
*Genre: Doom Metal
*Country: United States
*Format: mp3@CBR320kbps
*Size: 105MB

Tracklist:
01. Titanicide 04:36
02. Pale Light In A Dying World 08:23
03. The Lark At Morning 07:10
04. The Wind That Shakes The Barley 04:32
05. Thy Barren Fields 06:40
06. The Ghosts Of Scapa Flow 09:08
******************************
Total playing time: 40:29



[more=Technical info]
Input File: 02. Pale Light In A Dyhing World.mp3
Channels : 2
Sample Rate : 44100
Precision : 16-bit
Duration : 00:08:23.70 = 22213082 samples = 37777.4 CDDA sectors
File Size : 20.2M
Bit Rate : 321k
Sample Encoding: MPEG audio (layer I, II or III)
Comments :
Title=Pale Light In A Dyhing World
Artist=Fell Harvest
Album=Pale Light In A Dying World
Tracknumber=02/06
Year=2021-07-16
Genre=Metal
Discnumber=1

[/more]

Register
(9) andreikun, caro, infiltrator, Marek, metala, Olethros, sergsazan, supremo, VALERY,
Jul 15 2021, 16:38:03 Storm Unleashed - Death Addiction (2021)


*Artist: Storm Unleashed
*Album: Death Addiction
*Year: 2021
*Genre: Melodic Death Metal
*Country: Germany
*Format: mp3@CBR320kbps
*Size: 94MB

Tracklist:
01. Downwards
02. Drowning
03. Cry Of A Dying World
04. Winternight
05. Storm Unleashed
06. Sacrement Of Fire
07. Lockdown
08. Defeat And Death Addiction
******************************
Total playing time: 37:22




[more=Technical info]
Input File: 02. Drowning.mp3
Channels : 2
Sample Rate : 44100
Precision : 16-bit
Duration : 00:04:10.58 = 11050710 samples = 18793.7 CDDA sectors
File Size : 10.1M
Bit Rate : 322k
Sample Encoding: MPEG audio (layer I, II or III)
Comments :
Title=Drowning
Artist=Storm Unleashed
Album=Death Addicton
Tracknumber=2
Year=2021-07-16
Genre=Metal
Discnumber=1

[/more]

Register
(17) bOOLty, caro, chipsgott, djsema4, gwynnbleid, infiltrator, ironyserg, Marek, Olethros, sergsazan, supremo, Taakeferd, TeamatSE, VALERY, wanderer73, zhol, Сварог Барг,
Jul 15 2021, 12:02:42 Demiaura - The Ascendant (2021)


*Artist: Demiaura
*Album: The Ascendant
*Year: 2021
*Genre: Progressive Metal
*Country: United States
*Format: mp3@CBR320kbps
*Size: 162MB

Tracklist:
01. Pleiadian
02. Heavy Skies
03. Between Two Fires
04. Through The Ages
05. The Dreaming
06. Antikythera
07. Escaping The Event Horizon
08. Shining Through
09. Perfidy
10. Equinox
******************************
Total playing time: 1:02:17



[more=Technical info]
Input File: 02 - Heavy Skies .mp3
Channels : 2
Sample Rate : 44100
Precision : 16-bit
Duration : 00:06:42.36 = 17744076 samples = 30177 CDDA sectors
File Size : 16.4M
Bit Rate : 327k
Sample Encoding: MPEG audio (layer I, II or III)
Comments :
Title=Heavy Skies
Artist=DemiAura
Album=The Ascendant
Tracknumber=2
Year=2021

[/more]

Register
(11) after21allD, bOOLty, caro, Herrant, HMHamster, infiltrator, infozahist, Marek, metala, Olethros, Rover,
Jul 15 2021, 11:57:08 Calliophis - Liquid Darkness (2021)


*Artist: Calliophis
*Album: Liquid Darkness
*Year: 2021
*Genre: Death/Doom Metal
*Country: Germany
*Format: mp3@CBR320kbps
*Size: 151MB

Tracklist:
01. Liquid Darkness 10:27
02. Krakonoš 09:06
03. Rajōmon 09:19
04. Munk (Warm Heart) 10:35
05. The Art Of Shudder 08:37
06. Fratricide 14:07
******************************
Total playing time: 1:02:11



[more=Technical info]
Input File: 02 - Krakonos.mp3
Channels : 2
Sample Rate : 44100
Precision : 16-bit
Duration : 00:09:06.02 = 24079394 samples = 40951.4 CDDA sectors
File Size : 21.9M
Bit Rate : 321k
Sample Encoding: MPEG audio (layer I, II or III)
Comments :
Title=Krakonos
Artist=Calliophis
Album=Liquid Darkness
Tracknumber=2
Year=2021-07-16
Genre=Metal
Discnumber=1

[/more]

Register
(32) AHBAnep, Andr, andreikun, bOOLty, caro, chipsgott, dark1988, HMHamster, infiltrator, infozahist, kluval, lacrimoza, Marek, metala, Old Vyaine, Olethros, RUDACHUR, Sabbathian, sadmannn, sergsazan, Shadechaser, sludge666, smes, stumpheavyrock, supremo, Taakeferd, TeamatSE, Tino, VALERY, vyacheslav, WillyWonka, Козлотролль,
Jul 15 2021, 11:52:33 Spiral Grave - Legacy Of The Anointed (2021)


*Artist: Spiral Grave
*Album: Legacy Of The Anointed
*Year: 2021
*Genre: Doom Metal
*Country: United States
*Format: mp3@CBR320kbps
*Size: 117MB

Tracklist:
01. Nightmare On May Eve (Dunwich Pt. 1)
02. Modern Day Golden Calf
03. Out Of My Head
04. Nothing
05. Your Enemy's Enemy
06. Walking Talking Dead Man
07. Tanglefoot
08. Abgrund
******************************
Total playing time: 45:07




[more=Technical info]
Input File: 02 - Modern Day Golden Calf .mp3
Channels : 2
Sample Rate : 44100
Precision : 16-bit
Duration : 00:06:14.62 = 16520566 samples = 28096.2 CDDA sectors
File Size : 15.3M
Bit Rate : 327k
Sample Encoding: MPEG audio (layer I, II or III)
Comments :
Title=Modern Day Golden Calf
Artist=Spiral Grave
Album=Legacy of the Anointed
Tracknumber=2
Year=2021

[/more]

Register
(19) andreikun, bOOLty, caro, chipsgott, HMHamster, infiltrator, infozahist, Marek, marilin, metala, Olethros, russ777, Sabbathian, sergsazan, Spork, stumpheavyrock, supremo, VALERY, Козлотролль,
Jul 15 2021, 11:48:13 Marta Gabriel - Metal Queens (2021)


*Artist: Marta Gabriel
*Album: Metal Queens
*Year: 2021
*Genre: Heavy Metal
*Country: Poland
*Format: mp3@CBR320kbps
*Size: 122MB

Tracklist:
01. Max Overload (Acid)
02. Metal Queen (Lee Aaron)
03. Call Of The Wild (Blacklace)
04. Light In The Dark (Chastain)
05. Rebel Ladies (Zed Yago)
06. My Angel (Rock Goddess)
07. Count Your Blessings (Malteze)
08. Goin' Wild (Wendy O' Williams)
09. Bad Attitude (Hellion)
10. Reencarnacion (Santa)
11. Mr Gold (Warlock)
******************************
Total playing time: 47:23



[more=Technical info]
Input File: 02 - Metal Queen .mp3
Channels : 2
Sample Rate : 44100
Precision : 16-bit
Duration : 00:04:27.27 = 11786739 samples = 20045.5 CDDA sectors
File Size : 11.0M
Bit Rate : 330k
Sample Encoding: MPEG audio (layer I, II or III)
Comments :
Title=Metal Queen
Artist=MARTA GABRIEL
Album=Metal Queens
Tracknumber=2
Year=2021

[/more]

Register
(18) atavist, caro, chipsgott, Darkness, fsc97, gwar, Herrant, HMHamster, infiltrator, Marek, Olethros, Olrak, poeira, Rover, Taakeferd, vir2al, wgs73, Сварог Барг,
Jul 15 2021, 11:43:34 Vouna - Atropos (2021)


*Artist: Vouna
*Album: Atropos
*Year: 2021
*Genre: Atmospheric Black/Doom Metal
*Country: United States
*Format: mp3@CBR320kbps
*Size: 141MB

Tracklist:
01. Highest Mountain 09:13
02. Vanish 15:33
03. What Once Was Reprise 02:43
04. Grey Sky 04:07
05. What Once Was 15:11
******************************
Total playing time: 46:47



[more=Technical info]
Input File: 02 - Vanish .mp3
Channels : 2
Sample Rate : 44100
Precision : 16-bit
Duration : 00:15:34.03 = 41190855 samples = 70052.5 CDDA sectors
File Size : 37.7M
Bit Rate : 323k
Sample Encoding: MPEG audio (layer I, II or III)
Comments :
Title=Vanish
Artist=Vouna
Album=Atropos
Tracknumber=2
Year=2021

[/more]

Register
(23) aleon, AlexSmith, Black Cat, bOOLty, caro, chefo, gotherion, HMHamster, infiltrator, infozahist, murian, Olethros, rammmirez, robertho777, sergsazan, serialmessiah, Shadechaser, skidnik, smes, supremo, Taakeferd, VALERY, vasiljev_sergej,
Jul 15 2021, 11:37:15 Vandor - On A Moonlit Night (2021)


*Artist: Vandor
*Album: On A Moonlit Night
*Year: 2021
*Genre: Power Metal
*Country: Sweden
*Format: mp3@CBR320kbps
*Size: 130MB

Tracklist:
01. ... Darkness Looms
02. Mountains Of Avagale
03. River Of Life
04. Endless Sea
05. Future To Behold
06. Fate Of Eltoria
07. The Sword To End All Wars
08. On A Moonlit Night
09. Enter Twilight (Bonus Track)
******************************
Total playing time: 53:27



[more=Technical info]
Input File: 02 - Mountains of Avagale .mp3
Channels : 2
Sample Rate : 44100
Precision : 16-bit
Duration : 00:06:04.19 = 16060911 samples = 27314.5 CDDA sectors
File Size : 14.7M
Bit Rate : 324k
Sample Encoding: MPEG audio (layer I, II or III)
Comments :
Title=Mountains of Avagale
Artist=Vandor
Album=On a Moonlit Night
Tracknumber=2
Year=2021

[/more]

Register
(19) ace73pq, boby9052, bOOLty, caro, fsc97, gwar, gwynnbleid, Herrant, HMHamster, infiltrator, Marek, metalwoman, Olethros, Rover, smes, Taakeferd, vir2al, zhol, Сварог Барг,
Jul 15 2021, 11:32:57 Crescent - Carving The Fires Of Akhet (2021)


*Artist: Crescent
*Album: Carving The Fires Of Akhet
*Year: 2021
*Genre: Blackened Death Metal
*Country: Egypt
*Format: mp3@CBR320kbps
*Size: 122MB

Tracklist:
01. The Fires Of Akhet 08:30
02. Moot Set Waas 05:31
03. Serpent Of Avaris 07:18
04. Neb-Pehti-Ra 05:57
05. Imprecations Upon Thy Flame 06:49
06. Drowned In Theban Blood 05:11
07. Crimson Descension 01:56
08. As Nu Enshrines Death 06:46
******************************
Total playing time: 47:58



[more=Technical info]
Input File: 02 - Moot Set Waas .mp3
Channels : 2
Sample Rate : 44100
Precision : 16-bit
Duration : 00:05:31.70 = 14627750 samples = 24877.1 CDDA sectors
File Size : 13.5M
Bit Rate : 325k
Sample Encoding: MPEG audio (layer I, II or III)
Comments :
Title=Moot Set Waas
Artist=Crescent
Album=Carving the Fires of Akhet
Tracknumber=2
Year=2021

[/more]

Register
(27) ALEXSATHANAS, Black Cat, bOOLty, caro, El_Chibo, fallen, grimoir, infiltrator, infozahist, K-61082, lary_veel, madera, nat, Nerevar, noel666, older68, Olethros, robertho777, SaintVitus, Shadechaser, supremo, Taakeferd, VALERY, vyacheslav, wanderer73, Луч, Сварог Барг,
Jul 15 2021, 11:28:47 Wizardthrone - Hypercube Necrodimensions (2021)


*Artist: Wizardthrone
*Album: Hypercube Necrodimensions
*Year: 2021
*Genre: Melodic Black/Death Metal
*Country: United States
*Format: mp3@CBR320kbps
*Size: 116MB

Tracklist:
01. Black Hole Quantum Thermodynamics 03:06
02. Frozen Winds Of Thyraxia 05:33
03. Incantation Of The Red Order 05:03
04. Forbidden Equations Deep Within The Epimethean Wasteland 04:57
05. The Coalescence Of Nine Stars In The System Once Known As Markarian-231 04:30
06. Of Tesseractual Gateways And The Grand Duplicity Of Xhul 05:29
07. Hypercube Necrodimensions 02:53
08. Beyond The Wizardthrone (Cryptopharmalogical Revelations Of The Riemann Zeta Function) 13:12
******************************
Total playing time: 44:43




[more=Technical info]
Input File: 02 - Frozen Winds of Thyraxia .mp3
Channels : 2
Sample Rate : 44100
Precision : 16-bit
Duration : 00:05:32.69 = 14671497 samples = 24951.5 CDDA sectors
File Size : 13.6M
Bit Rate : 327k
Sample Encoding: MPEG audio (layer I, II or III)
Comments :
Title=Frozen Winds of Thyraxia
Artist=Wizardthrone
Album=Hypercube Necrodimensions
Tracknumber=2
Year=2021

[/more]

Register
(30) ALBIGON, AlexSmith, bOOLty, caro, chipsgott, coresh, Druidir, gmadjara, gwynnbleid, Herrant, infiltrator, infozahist, kimkayoung, Luminous, Marek, Metalass, Old Vyaine, Olethros, sabbracadabra, sadmannn, serjred, Shadechaser, smes, supremo, Taakeferd, Tino, VALERY, Victim of fate, zhol, Сварог Барг,
Jul 15 2021, 11:24:59 Space Chaser - Give Us Life (2021)


*Artist: Space Chaser
*Album: Give Us Life
*Year: 2021
*Genre: Thrash Metal
*Country: Germany
*Format: mp3@CBR320kbps
*Size: 105MB

Tracklist:
01. Remnants Of Technology 03:50
02. Juggernaut 03:52
03. Cryoshock 04:31
04. A.O.A. 02:49
05. The Immortals 03:43
06. Signals 03:21
07. Burn Them All 04:01
08. Give Us Life 04:14
09. Antidote To Order 03:10
10. Dark Descent 06:02
******************************
Total playing time: 39:33



[more=Technical info]
Input File: 02 - Juggernaut .mp3
Channels : 2
Sample Rate : 44100
Precision : 16-bit
Duration : 00:03:52.87 = 10269479 samples = 17465.1 CDDA sectors
File Size : 9.58M
Bit Rate : 329k
Sample Encoding: MPEG audio (layer I, II or III)
Comments :
Title=Juggernaut
Artist=Space Chaser
Album=Give Us Life
Tracknumber=2
Year=2021

[/more]

Register
(30) andreikun, Appie_Thrasher, aviacademy, boby9052, bOOLty, BugEyes, caro, chipsgott, DarkHorde, Darkness, Diflock, gwar, HMHamster, infiltrator, Marek, metala, metalboll, Olethros, piwimetal, Sabbathian, sadmannn, smes, smysl, supremo, TeamatSE, Tino, toly1917, troll_swamp, wgs73, WX419,
Jul 15 2021, 11:19:36 Cognitive - Malevolent Thoughts Of A Hastened Extinction (2021)


*Artist: Cognitive
*Album: Malevolent Thoughts Of A Hastened Extinction
*Year: 2021
*Genre: Technical Death Metal
*Country: United States
*Format: mp3@CBR320kbps
*Size: 100MB

Tracklist:
01. Eniac 04:47
02. The Maw 03:19
03. Arterial Red 03:41
04. From The Depths 03:40
05. Oroborous 02:56
06. To Feed The Worms 04:04
07. Malevolent Thoughts 03:57
08. Tearing Tendon From Bone 03:46
09. Destitute 05:47
10. Of A Hastened Extinction 03:28
******************************
Total playing time: 39:25



[more=Technical info]
Input File: 02 - The Maw .mp3
Channels : 2
Sample Rate : 44100
Precision : 16-bit
Duration : 00:03:18.75 = 8764875 samples = 14906.2 CDDA sectors
File Size : 8.19M
Bit Rate : 330k
Sample Encoding: MPEG audio (layer I, II or III)
Comments :
Title=The Maw
Artist=Cognitive
Album=Malevolent Thoughts of a Hastened Extinction
Tracknumber=2
Year=2021

[/more]

Register
(18) Bitchkiller, bOOLty, caro, chipsgott, infernallord, infiltrator, kimkayoung, lary_veel, Marek, metala, Metalass, noel666, Olethros, supremo, Taakeferd, Tino, VALERY, vyacheslav,
Jul 15 2021, 11:14:56 Powerwolf - Call Of The Wild (2021)


*Artist: Powerwolf
*Album: Call Of The Wild
*Year: 2021
*Genre: Power Metal
*Country: Germany
*Format: mp3@CBR320kbps
*Size: 308MB

Tracklist:
CD1
01. Faster Than The Flame
02. Beast Of Gevaudan
03. Dancing With The Dead
04. Varcolac
05. Alive Or Undead
06. Blood For Blood (Faoladh)
07. Glaubenskraft
08. Call Of The Wild
09. Sermon Of Swords
10. Undress To Confess
11. Reverent Of Rats

CD2
12. Sanctified With Dynamite [feat. Ralf Scheepers]
13. Demons Are A Girl's Best Friend [feat. Alissa White-Gluz]
14. Nightside Of Siberia [feat. Johan Hegg]
15. Where The Wild Wolves Have Gone [feat. Doro Pesch]
16. Fist By Fist (Sacralize Or Strike) [feat. Matthew Kiichi Heafy]
17. Killers With The Cross [feat. Bjorn Strid]
18. Kiss Of The Cobra King [feat. Chris Harms]
19. We Drink Your Blood [feat. Johannes Eckerstrom]
20. Resurrection By Erection [feat. Christopher Bowes]
21. Saturday Satan [feat. Jari Maenpaa]

CD3
22. Faster Than The Flame (Orchestral Version)
23. Beast Of Gevaudan (Orchestral Version)
24. Dancing With The Dead (Orchestral Version)
25. Varcolac (Orchestral Version)
26. Alive Or Undead (Orchestral Version)
27. Blood For Blood (Faoladh) (Orchestral Version)
28. Glaubenskraft (Orchestral Version)
29. Call Of The Wild (Orchestral Version)
30. Sermon Of Swords (Orchestral Version)
31. Undress To Confess (Orchestral Version)
32. Reverent Of Rats (Orchestral Version)
******************************
Total playing time: 2:01:58




[more=Technical info]
Input File: 02 - Beast of Gévaudan.mp3
Channels : 2
Sample Rate : 44100
Precision : 16-bit
Duration : 00:03:31.97 = 9347965 samples = 15897.9 CDDA sectors
File Size : 8.55M
Bit Rate : 323k
Sample Encoding: MPEG audio (layer I, II or III)
Comments :
Title=Beast of Gévaudan
Artist=Powerwolf
Album=Call of the Wild (Deluxe Version)
Tracknumber=2
Year=2021-07-16
Genre=Metal
Discnumber=1

[/more]

Register
(63) ace73pq, akym, Appie_Thrasher, Aresson, Black Cat, Brutal, caro, cesar, Diflock, djsema4, Druidir, fsc97, grobator, gwar, gwynnbleid, hate_eternal, Herrant, HMHamster, Ice Gnoll, infiltrator, ironyserg, JD666Hellion, Kasper969, kimkayoung, legion01, LEGION69, Luminous, Marek, matiasvoltaje, mikerx, MеtalHead, nemx, noel666, Old Vyaine, Olethros, Olguard, Phlebotomized, rabindranad, rammmirez, Rhoads, Rover, sabbracadabra, sadmannn, SaintVitus, savatage13, Shadechaser, skinnyboo, Slam91, smes, StoneTemple, supremo, Taakeferd, talismanFS, Unscarted, valegga, VALERY, vir2al, Vranakrik, WX419, yuratroll, zerger, zhol, Сварог Барг,
Jul 15 2021, 06:59:01 Amalekim - Hvhi (2021)


*Artist: Amalekim
*Album: Hvhi
*Year: 2021
*Genre: Black Metal
*Country: Italy
*Format: mp3@CBR320kbps
*Size: 117MB

Tracklist:
01. Wejście
02. In The Name Of The Adversary
03. Point Of No Return
04. Azi Dahaka
05. Breathing Death
06. From The Darkness Of The Eternal Abyss
07. Ashab Al'nar
08. Evolution Thru Fire
09. Qlippoth
10. Azothoz
11. Sama Atar
******************************
Total playing time: 44:03



[more=Technical info]
Input File: 02. In the Name of the Adversary.mp3
Channels : 2
Sample Rate : 44100
Precision : 16-bit
Duration : 00:05:19.39 = 14085231 samples = 23954.5 CDDA sectors
File Size : 13.1M
Bit Rate : 327k
Sample Encoding: MPEG audio (layer I, II or III)
Comments :
Title=In the Name of the Adversary
Artist=Amalekim
Album=HVHI
Tracknumber=02/11
Year=2021

[/more]

Register
(23) AlexSmith, Bitchkiller, bOOLty, caro, cesar, demonosz, El_Chibo, Ildjarn, infiltrator, kim666, Korpse, Lucju, Marek, Olethros, robertho777, supremo, Taakeferd, TeamatSE, Tino, VALERY, varlam4, vasiljev_sergej, vov7609,
Jul 14 2021, 16:22:51 Mortyfear - My Dystopia (2021)


*Artist: Mortyfear
*Album: My Dystopia
*Year: 2021
*Genre: Melodic Death/Thrash Metal
*Country: Finland
*Format: mp3@CBR320kbps
*Size: 101MB

Tracklist:
01. Circus Called Life
02. Jester's Downfall
03. Black Noise
04. Plastic World
05. Spoiled
06. Misfortunate Phoenix
07. Delete
08. Dark Waters
******************************
Total playing time: 39:30




[more=Technical info]
Input File: 02. Jester\'s Downfall.mp3
Channels : 2
Sample Rate : 44100
Precision : 16-bit
Duration : 00:04:45.41 = 12586405 samples = 21405.5 CDDA sectors
File Size : 11.5M
Bit Rate : 322k
Sample Encoding: MPEG audio (layer I, II or III)
Comments :
Title=Jester's Downfall
Artist=Mortyfear
Album=My Dystopia
Tracknumber=02/08
Year=2021-07-15
Genre=Metal
Discnumber=1

[/more]

Register
(16) AHBAnep, angeldeacero, boby9052, bOOLty, caro, chipsgott, gwynnbleid, infiltrator, Marek, metala, Old Vyaine, oldvarg, Olethros, sergsazan, supremo, TeamatSE,
Jul 14 2021, 16:20:08 Mask Of Satan - Underneath The Mire (2021)


*Artist: Mask Of Satan
*Album: Underneath The Mire
*Year: 2021
*Genre: Death Metal
*Country: Finland
*Format: mp3@CBR320kbps
*Size: 95MB

Tracklist:
01. Ritualistic Incantation
02. Bloodmountain
03. Languish
04. Moonless Night (October 31st)
05. Bloodpact
06. Corpsewitch
07. Abyssal Servant
08. Underneath The Mire
09. The Black Goat
******************************
Total playing time: 36:20




[more=Technical info]
Input File: 04. Moonless Night (October 31st).mp3
Channels : 2
Sample Rate : 44100
Precision : 16-bit
Duration : 00:03:19.54 = 8799582 samples = 14965.3 CDDA sectors
File Size : 8.07M
Bit Rate : 324k
Sample Encoding: MPEG audio (layer I, II or III)
Comments :
Title=Moonless Night (October 31St)
Artist=Mask Of Satan
Album=Underneath The Mire
Tracknumber=04/09
Year=2021-07-15
Genre=Metal
Discnumber=1

[/more]

Register
(16) andreikun, bOOLty, caro, cesar, chipsgott, El_Chibo, infiltrator, jollo, Marek, Olethros, Sabbathian, supremo, tim47, Tino, VALERY, vyacheslav,
Jul 13 2021, 17:02:48 Beyond Man - Beyond Man (2021)
320 с флака

Register


FLAC

Register
(5) cancer1974, Lux, Occultas, SlimBZ, zekliek,
Jul 10 2021, 19:11:36 At The Gates - The Nightmare Of Being (2021)
At The Gates - The Nightmare Of Being (Limited Edition) (2CD) (2021) [320, lame 3.93]

CD1
01. Spectre Of Extinction
02. The Paradox
03. The Nightmare Of Being
04. Garden Of Cyrus
05. Touched By The White Hands Of Death
06. The Fall Into Time
07. Cult Of Salvation
08. The Abstract Enthroned
09. Cosmic Pessimism
10. Eternal Winter Of Reason

CD2
01. Red (Live At Roadburn)
02. The Scar (Live At Roadburn)
03. Koyaanisqatsi (Live At Roadburn)
04. The Burning Darkness (Live At Roadburn)
05. Daggers Of Black Haze (Live In Stockholm)
06. Death And The Labyrinth (Live In San Francisco)
07. A Stare Bound In Stone (Live In In San Francisco)
08. Heroes And Tombs (Live In San Francisco)
09. The Night Eternal (Live In San Francisco)

Register


FLAC

Register

(3) Hell_Is_Here, Oldskulthrasher, varlam4,
Jul 10 2021, 11:12:01 Harvest The Murdered - Cursing The End Of An Age (2021)


*Artist: Harvest The Murdered
*Album: Cursing The End Of An Age
*Year: 2021
*Genre: Death Metal
*Country: United States
*Format: mp3@CBR320kbps
*Size: 100MB

Tracklist:
01. Dirt Worshipper
02. Tales Of Woe
03. Left At The Light
04. Virulent Serum
05. To The Pain
06. Siege Of The Warmind
07. Rise Of The New Gods
08. Extinction Of Normalcy
09. Eleanor Rigby
******************************
Total playing time: 41:03




[more=Technical info]
Input File: 02. Tales Of Woe.mp3
Channels : 2
Sample Rate : 44100
Precision : 16-bit
Duration : 00:04:42.40 = 12453928 samples = 21180.1 CDDA sectors
File Size : 11.3M
Bit Rate : 321k
Sample Encoding: MPEG audio (layer I, II or III)
Comments :
Title=Tales Of Woe
Artist=Harvest The Murdered
Album=Cursing The End Of An Age
Tracknumber=02/09
Year=2021
Genre=Death Metal

[/more]

Register
(17) alikkon, bOOLty, caro, cesar, chipsgott, infozahist, jollo, judaz, Marek, older68, Olethros, supremo, tim47, VALERY, vyacheslav, wanderer73, wreak,
Jul 10 2021, 11:09:49 Krahnholm - A Wind In The Cold Night (2021)


*Artist: Krahnholm
*Album: A Wind In The Cold Night
*Year: 2021
*Genre: Atmospheric Black Metal
*Country: Russian Federation
*Format: mp3@CBR320kbps
*Size: 86MB

Tracklist:
01. Mistress Of The Stars
02. Mystery Of Nature
03. A Wind In The Cold Night
04. Ritual
05. Raven's Wisdom, Wolf's Spite
******************************
Total playing time: 35:04



[more=Technical info]
Input File: 02. Mystery Of Nature.mp3
Channels : 2
Sample Rate : 44100
Precision : 16-bit
Duration : 00:09:07.38 = 24139326 samples = 41053.3 CDDA sectors
File Size : 22.0M
Bit Rate : 321k
Sample Encoding: MPEG audio (layer I, II or III)
Comments :
Title=Mystery Of Nature
Artist=Krahnholm
Album=A Wind In The Cold Night
Tracknumber=02/05
Year=2021-07-11
Genre=Black Metal
Discnumber=1

[/more]

Register
(21) Aamiinaa, aleon, alex-82, AlexSmith, alikkon, bOOLty, caro, cist, DeathDragon, Fater_Hu, kim666, Korpse, metala, oldvarg, Olethros, robertho777, RUDACHUR, supremo, VALERY, vasiljev_sergej, wreak,
Jul 9 2021, 00:20:59 Visions Of Disfigurement - Abhorrent Extinction Redux (2021)


*Artist: Visions Of Disfigurement
*Album: Abhorrent Extinction Redux
*Year: 2021
*Genre: Slamming Brutal Death Metal
*Country: United Kingdom
*Format: mp3@CBR320kbps
*Size: 93MB

Tracklist:
01. Fecaluria
02. Clitsnipper
03. Forced Urophagia
04. Spontaneous Cumbustion
05. Excremental Carnal Discharge
06. Miscreation
07. Abhorrent Extinction
08. From Clit To Crack
09. Decrepit Expatriation
10. Necrotic Cranial Fornication
******************************
Total playing time: 34:19



[more=Technical info]
Input File: 02. Clitsnipper.mp3
Channels : 2
Sample Rate : 44100
Precision : 16-bit
Duration : 00:03:03.03 = 8071491 samples = 13727 CDDA sectors
File Size : 7.40M
Bit Rate : 324k
Sample Encoding: MPEG audio (layer I, II or III)
Comments :
Title=Clitsnipper
Artist=Visions Of Disfigurement
Album=Abhorrent Extinction Redux
Tracknumber=02/10
Year=2021-07-09
Genre=Metal
Discnumber=1

[/more]

Register
(15) aa144aa, caro, cesar, djsema4, GorAtheist, jollo, Konst, noel666, older68, Olethros, respect, satanist666, supremo, vyacheslav, wreak,
Jul 8 2021, 11:23:50 Collapsian - Age Of Exigency (2021)


*Artist: Collapsian
*Album: Age Of Exigency
*Year: 2021
*Genre: Doom Metal/Sludge
*Country: United States
*Format: mp3@CBR320kbps
*Size: 131MB

Tracklist:
01. Chonyi Bardo
02. The Outcome Of An Artificial Practice
03. The Concrete Void
04. Jhator
05. Ad Pleonauseam
06. Pseudonym
07. Towering Nimbus
08. Dream. Threaten. Promise.
09. Fount Of Palliation
10. Oblation
******************************
Total playing time: 51:08



[more=Technical info]
Input File: 02. The Outcome Of An Artificial Practice.mp3
Channels : 2
Sample Rate : 44100
Precision : 16-bit
Duration : 00:07:02.06 = 18612846 samples = 31654.5 CDDA sectors
File Size : 17.0M
Bit Rate : 322k
Sample Encoding: MPEG audio (layer I, II or III)
Comments :
Title=The Outcome Of An Artificial Practice
Artist=Collapsian
Album=Age of Exigency
Tracknumber=2
Year=2021-07-09
Genre=Metal
Discnumber=1

[/more]

Register
(15) bOOLty, caro, denver, Fater_Hu, gena, HMHamster, marilin, metala, Olethros, Ostinato, pahail, sludge666, stumpheavyrock, VALERY, wreak,

20 Pages V   1 2 3 > » 
- Lo-Fi Version Support form
Copyrights and abuse reports form
Time is now: 25th July 2021 - 19:45:22