Welcome Guest ( Log In | Register )

История благодарностей участнику wolfskaiser ::: Спасибо сказали: 24901 раз(а)
Дата поста: В теме: За сообщение: Спасибо сказали:
Mar 2 2022, 00:41:29 Rotten Tomb - Visions Of Dismal Fate (2022)


*Artist: Rotten Tomb
*Album: Visions Of Dismal Fate
*Year: 2022
*Genre: Death Metal
*Country: Chile
*Format: mp3@CBR320kbps
*Size: 96MB

Tracklist:
01. Devourer Of Life 05:30
02. Human Paradox 04:32
03. Forgotten Graveyard 04:30
04. Denial, Desolation, Resignation 05:31
05. Internal Fear 03:10
06. Emptiness 04:49
07. Near End 05:05
08. Pest Winds 04:57
******************************
Total playing time: 38:04



[more=Technical info]
Input File: 02. Human Paradox.mp3
Channels : 2
Sample Rate : 44100
Precision : 16-bit
Duration : 00:04:32.92 = 12035728 samples = 20468.9 CDDA sectors
File Size : 11.1M
Bit Rate : 326k
Sample Encoding: MPEG audio (layer I, II or III)
Comments :
Title=Human Paradox
Artist=Rotten Tomb
Album=Visions Of Dismal Fate
Tracknumber=02/08
Year=2022
Genre=Death Metal

[/more]

Register
(39) andreikun, artscald, Ash_1980, BlackMirror, Bzth, caro, cesar, chickenfucker, Grev, Hell_Is_Here, judaz, kauyumari, lopuh21, Lord Of The Siths, marilin, Melusinara, milosdjor, Mist13Signifier, MMMMM, multizwilling, noel666, Occultas, Olethros, Phlebotomized, Sabbathian, skullfuckerskullfucker, smes, Spork, supremo, THROWER666, troll_swamp, VALERY, vitosdemon, vyacheslav, wanderer73, WOLAND, wrath082, wreak, WX419,
Mar 1 2022, 19:27:16 Devirginated - Unmerciful Relentless (2022)


*Artist: Devirginated
*Album: Unmerciful Relentless
*Year: 2022
*Genre: Brutal Death Metal
*Country: Indonesia
*Format: mp3@CBR320kbps
*Size: 77MB

Tracklist:
01. Monstrous Disorder 03:06
02. Lethal Hypnosis 03:10
03. Krisis Logika 04:16
04. The Vilest Creatures 03:05
05. Servants Of Hate 02:25
06. Effluvia 03:07
07. Trust In Satan Trust In God 03:26
08. Confusion 02:36
09. Thoughts Creeping The Dying 02:34
10. Unmerciful Relentless 01:52
******************************
Total playing time: 29:37



[more=Technical info]
Input File: 02. Lethal Hypnosis.mp3
Channels : 2
Sample Rate : 44100
Precision : 16-bit
Duration : 00:03:11.07 = 8426319 samples = 14330.5 CDDA sectors
File Size : 7.69M
Bit Rate : 322k
Sample Encoding: MPEG audio (layer I, II or III)
Comments :
Title=Lethal Hypnosis
Artist=Devirginated
Album=Unmerciful Relentless
Tracknumber=02/10
Year=2022

[/more]

Register
(14) artscald, caro, gobblin, GorAtheist, Hell_Is_Here, jollo, maochen, MMMMM, Olethros, satanist666, supremo, vyacheslav, wanderer73, wreak,
Mar 1 2022, 18:33:25 Merciless Law - Troops Of Steel (2022)


*Artist: Merciless Law
*Album: Troops Of Steel
*Year: 2022
*Genre: Speed/Heavy Metal
*Country: Chile
*Format: mp3@CBR320kbps
*Size: 105MB

Tracklist:
01. A New Order 04:06
02. Blinded 05:22
03. Wrath 05:06
04. Victims Of War 05:09
05. The Street Fighter 05:05
06. There's No Superheroes 04:26
07. World Circus 04:54
08. Troops Of Steel (Fight For Glory) 07:36
******************************
Total playing time: 41:44



[more=Technical info]
Input File: 02. Blinded.mp3
Channels : 2
Sample Rate : 44100
Precision : 16-bit
Duration : 00:05:22.14 = 14206198 samples = 24160.2 CDDA sectors
File Size : 13.0M
Bit Rate : 323k
Sample Encoding: MPEG audio (layer I, II or III)
Comments :
Title=Blinded
Artist=Merciless Law
Album=Troops Of Steel
Tracknumber=02/08
Year=2022
Discnumber=1/1

[/more]

Register
(29) ace73pq, aedicksucker, andreikun, artscald, boby9052, Bzth, caro, DarkHorde, DTGB, Grev, gwar, HMHamster, lary_veel, LightWizard, Marek, meshal, metala, METALHUNTER, Mogozoz, multizwilling, oldvarg, Olethros, piwimetal, rammmirez, Spork, wgs73, wreak, Xtohar, Z28517,
Mar 1 2022, 18:31:16 Forbidden Seed - On Blackest Wings, Shadow Of The Crow Pt. I (2022)


*Artist: Forbidden Seed
*Album: On Blackest Wings, Shadow Of The Crow Pt. I
*Year: 2022
*Genre: Heavy/Power Metal
*Country: Greece
*Format: mp3@CBR320kbps
*Size: 175MB

Tracklist:
01. Awakening 01:45
02. On Feathered Wings 04:36
03. I Am 05:13
04. Murderers Among Us 05:03
05. Clown 06:35
06. Paint Your Face 01:01
07. Victims Aren’t We All 03:56
08. Greed 04:50
09. Paths Of The Shadows 03:52
10. Bound 05:47
11. Dancing Shadows 03:12
12. Beyond The Doors Of Sleep 05:02
13. I Do Care 06:22
14. Death Is Coming 05:33
15. Mother (A Word For God) 06:47
16. Till Death Do Us Part (Requiem) 00:49
******************************
Total playing time: 1:10:23



[more=Extended info][youtube]aPKU7LCW6Io[/youtube][/more]

[more=Technical info]
Input File: 02. On Feathered Wings.mp3
Channels : 2
Sample Rate : 44100
Precision : 16-bit
Duration : 00:04:37.07 = 12218919 samples = 20780.5 CDDA sectors
File Size : 11.2M
Bit Rate : 325k
Sample Encoding: MPEG audio (layer I, II or III)
Comments :
Title=On Feathered Wings
Artist=Forbidden Seed
Album=On Blackest Wings, Shadow Of The Crow Pt.I
Tracknumber=02/16
Year=2022

[/more]

Register
(24) ace73pq, andgrek28, artscald, aviacademy, boby9052, caro, csgmnk, DTGB, Grev, gwar, Herrant, HMHamster, Marek, metala, Mogozoz, multizwilling, Olethros, rammmirez, sadmannn, satanist666, talismanFS, Woosad, wreak, Сварог Барг,
Mar 1 2022, 18:27:59 For Mother - Cold Mourning (2022)


*Artist: For Mother
*Album: Cold Mourning
*Year: 2022
*Genre: Black/Death Metal
*Country: Canada
*Format: mp3@CBR320kbps
*Size: 106MB

Tracklist:
01. I Am Ready To Die 01:22
02. Perishing Alongside A Lost Love 04:55
03. A Desolate State Of Accepting My Fate 05:07
04. Finnifungal 06:38
05. I Want You To Care 00:27
06. As The Willow Weeps 04:58
07. How Wolves Shape The River (feat. Wolven Ancestry) 06:07
08. The Stench Lay Under The Roses 05:43
09. Alone 06:44
******************************
Total playing time: 42:01



[more=Technical info]
Input File: 02. Perishing Alongside A Lost Love.mp3
Channels : 2
Sample Rate : 44100
Precision : 16-bit
Duration : 00:04:54.00 = 12965400 samples = 22050 CDDA sectors
File Size : 11.9M
Bit Rate : 324k
Sample Encoding: MPEG audio (layer I, II or III)
Comments :
Title=Perishing Alongside A Lost Love
Artist=For Mother
Album=Cold Mourning
Tracknumber=02/09
Year=2022-03-02
Genre=Metal
Discnumber=1

[/more]

Register
(25) AlexSmith, alikkon, artscald, Carcharoth, caro, GorAtheist, Grev, infozahist, Marek, Mencae77, metala, MMMMM, multizwilling, Olethros, Reverend, satanist666, SilentNidhogg, stormhatt, supremo, VALERY, varlam4, vasiljev_sergej, vov7609, wanderer73, wreak,
Mar 1 2022, 00:26:44 Beleriand - In The Book Of Life One Leaf Turned (2022)


*Artist: Beleriand
*Album: In The Book Of Life One Leaf Turned
*Year: 2022
*Genre: Atmospheric Black Metal
*Country: Norway
*Format: mp3@CBR320kbps
*Size: 107MB

Tracklist:
01. A Diamond Glow Of February 07:19
02. Throne Of Winter 05:57
03. In The Dark 07:09
04. White Silence 02:33
05. 1874 06:44
06. March 05:59
07. In The Book Of Life One Leaf Turned 07:12
******************************
Total playing time: 42:53



[more=Technical info]
Input File: 03. In The Dark.mp3
Channels : 2
Sample Rate : 44100
Precision : 16-bit
Duration : 00:07:09.72 = 18950432 samples = 32228.6 CDDA sectors
File Size : 17.2M
Bit Rate : 321k
Sample Encoding: MPEG audio (layer I, II or III)
Comments :
Title=In The Dark
Artist=Beleriand
Album=In The Book Of Life One Leaf Turned
Tracknumber=03/07
Year=2022
Genre=Metal

[/more]

Register
(43) aleon, AlexNorth, AlexSmith, Andr, artscald, autumnwood, Boozer, cancer1974, caro, csgmnk, Druidir, gav-gafi, Geralder, Grev, kim666, Korpse, kryptor, Luminous, Marek, Mencae77, metala, Mogozoz, nemx, oldvarg, Olethros, Olrak, robertho777, SaintVitus, satanist666, sergsazan, Shadechaser, SilentNidhogg, stormhatt, Strygaldwir, supremo, Torop, v.v.m, VALERY, varlam4, vasiljev_sergej, wreak, xska, yarrsuaa,
Mar 1 2022, 00:22:45 Dead Ficus - All Else Failed (2022)


*Artist: Dead Ficus
*Album: All Else Failed
*Year: 2022
*Genre: Melodic Death Metal
*Country: France
*Format: mp3@CBR320kbps
*Size: 103MB

Tracklist:
01. New Foundation
02. On Thin Ice
03. The Pledge, The Promise, The Threat
04. Reborn Without Fire
05. Empty Generation
06. Remission
07. Shell Of Science
08. Testing The Opposites
09. Endless Tool
10. Breathe Suffocate
******************************
Total playing time: 41:38



[more=Extended info][youtube]wslGxrjIzUg[/youtube][/more]

[more=Technical info]
Input File: 02. On Thin Ice.mp3
Channels : 2
Sample Rate : 44100
Precision : 16-bit
Duration : 00:03:11.02 = 8424026 samples = 14326.6 CDDA sectors
File Size : 7.71M
Bit Rate : 323k
Sample Encoding: MPEG audio (layer I, II or III)
Comments :
Title=On Thin Ice
Artist=Dead Ficus
Album=All Else Failed
Tracknumber=02/10
Year=2022
Genre=Metal

[/more]

Register
(21) artscald, BugEyes, caro, chon, csgmnk, GuldenDraak, gwynnbleid, Mannard, Marek, metalwoman, Mogozoz, oldvarg, Olethros, satanist666, sergsazan, talismanFS, VALERY, wanderer73, wreak, zhol, Сварог Барг,
Feb 28 2022, 23:54:14 Cryptivore - Celestial Extinction (2022)


*Artist: Cryptivore
*Album: Celestial Extinction
*Year: 2022
*Genre: Death Metal/Grindcore
*Country: Australia
*Format: mp3@CBR320kbps
*Size: 71MB

Tracklist:
01. Cocoon Hecatomb 03:11
02. Dripping With Skin 02:07
03. Vault Of Obscurity 03:11
04. Gate Of Dismal Torture 02:11
05. The Ethereal Deceased 03:08
06. Monastery Worms 02:44
07. Solemn Desolation 02:07
08. Cadaverizer 02:53
09. Clandestine Ruination 02:02
10. Celestial Extinction 03:30
******************************
Total playing time: 27:04



[more=Technical info]
Input File: 02 Dripping With Skin.mp3
Channels : 2
Sample Rate : 44100
Precision : 16-bit
Duration : 00:02:07.30 = 5614106 samples = 9547.8 CDDA sectors
File Size : 5.33M
Bit Rate : 335k
Sample Encoding: MPEG audio (layer I, II or III)
Comments :
Title=Dripping with Skin
Artist=CRYPTIVORE
Album=Celestial Extinction
Tracknumber=2
Year=2022

[/more]

Register
(8) alexinferno, infozahist, Olethros, Sabbathian, satanist666, Spork, tim47, vyacheslav,
Feb 28 2022, 23:44:31 Xorsist - Deadly Possession (2022)


*Artist: Xorsist
*Album: Deadly Possession
*Year: 2022
*Genre: Old School Death Metal
*Country: Sweden
*Format: mp3@CBR320kbps
*Size: 83MB

Tracklist:
01. Intro
02. Enslaved
03. Fleshly Art
04. Gold Beneath The Sand
05. Underworld
06. Alive
07. Cranial Nails
08. The Extreme Condition
09. Deadly Possession
******************************
Total playing time: 29:42



[more=Extended info][youtube]ybtt4lQbXbA[/youtube][/more]

[more=Technical info]
Input File: 02. Enslaved.mp3
Channels : 2
Sample Rate : 44100
Precision : 16-bit
Duration : 00:04:06.82 = 10884806 samples = 18511.6 CDDA sectors
File Size : 10.3M
Bit Rate : 335k
Sample Encoding: MPEG audio (layer I, II or III)
Comments :
Title=Enslaved
Artist=Xorsist
Album=Deadly Possession
Tracknumber=02/09
Year=2022
Discnumber=1/1

[/more]

Register
(34) andreikun, artscald, autumnwood, Boozer, canco994, caro, cesar, chipsgott, denver, desekrator, ForzaMinardi1977, GorAtheist, gwar, hell_armageddon, Hell_Is_Here, infozahist, jollo, lldma, METALHUNTER, MMMMM, oldvarg, Olethros, pabedit, realexxx75, rominow, sergsazan, smes, stumpheavyrock, supremo, VALERY, vyacheslav, wrath082, wreak, zhol,
Feb 28 2022, 23:42:11 The Claymore - St. Barbara's Light (2022)


*Artist: The Claymore
*Album: St. Barbara's Light
*Year: 2022
*Genre: Power Metal
*Country: Germany
*Format: mp3@CBR320kbps
*Size: 137MB

Tracklist:
01. St. Barbara's Light
02. Dream Of Life
03. The Devil And Her Sins
04. Ghost In A Shell
05. Arise Of The Mammon
06. Inferno
07. Voices
08. Strigoii Vii
09. Time Runs Slowly
10. We Rule The Night
11. Claymore 4.0
******************************
Total playing time: 53:55



[more=Extended info][youtube]ZlkukVmTNSI[/youtube][/more]

[more=Technical info]
Input File: 02. Dream Of Life.mp3
Channels : 2
Sample Rate : 44100
Precision : 16-bit
Duration : 00:05:28.43 = 14483851 samples = 24632.4 CDDA sectors
File Size : 13.4M
Bit Rate : 326k
Sample Encoding: MPEG audio (layer I, II or III)
Comments :
Title=Dream of Life
Artist=The Claymore
Album=St. Barbara's Light
Tracknumber=02/11
Year=2022
Discnumber=1/1

[/more]

Register
(26) ace73pq, after21allD, artscald, boby9052, caro, chipsgott, csgmnk, DenisKov, DTGB, gwar, gwynnbleid, Herrant, HMHamster, metala, Mogozoz, oldvarg, Olethros, Olrak, refleks22, Reverend, satanist666, talismanFS, Woosad, wreak, zhol, Сварог Барг,
Feb 28 2022, 23:39:31 Fyrnir - Awakening (2022)


*Artist: Fyrnir
*Album: Awakening
*Year: 2022
*Genre: Pagan Black/Death Metal
*Country: Italy
*Format: mp3@CBR320kbps
*Size: 117MB

Tracklist:
01. Hljoð 02:13
02. Fortunale 04:53
03. Yr 05:59
04. Slahan 06:18
05. Bär Serkr Gangr 05:54
06. Jormungandr 01:20
07. Hate And Betrayal 03:29
08. Ἀπειρως 05:49
09. Lycantropia 10:04
******************************
Total playing time: 45:59



[more=Technical info]
Input File: 02. Fortunale.mp3
Channels : 2
Sample Rate : 44100
Precision : 16-bit
Duration : 00:04:53.19 = 12929723 samples = 21989.3 CDDA sectors
File Size : 12.0M
Bit Rate : 328k
Sample Encoding: MPEG audio (layer I, II or III)
Comments :
Title=Fortunale
Artist=Fyrnir
Album=Awakening
Tracknumber=02/09
Year=2022
Discnumber=1/1

[/more]

Register
(21) AlexSmith, artscald, caro, Dark_Viking, GorAtheist, infozahist, metalwoman, NSGM, oldvarg, Olethros, satanist666, SilentNidhogg, stormhatt, supremo, VALERY, varlam4, vasiljev_sergej, Victim of fate, Woosad, wreak, Сварог Барг,
Feb 28 2022, 23:37:20 Answer From Cygnus - Cygnus (2022)


*Artist: Answer From Cygnus
*Album: Cygnus
*Year: 2022
*Genre: Atmospheric Black Metal
*Country: France
*Format: mp3@CBR320kbps
*Size: 127MB

Tracklist:
01. L'instant
02. Apex
03. Allants Aveugles
04. De Poussiere Et De Glace
05. Les Echos Endolorants
06. Afflictions
******************************
Total playing time: 50:33



[more=Extended info][youtube]XFdjxGizEOQ[/youtube][/more]

[more=Technical info]
Input File: 02. Apex.mp3
Channels : 2
Sample Rate : 44100
Precision : 16-bit
Duration : 00:07:18.99 = 19359415 samples = 32924.2 CDDA sectors
File Size : 17.8M
Bit Rate : 324k
Sample Encoding: MPEG audio (layer I, II or III)
Comments :
Title=Apex
Artist=Answer from Cygnus
Album=Cygnus
Tracknumber=2/6
Year=2022
Discnumber=1/1

[/more]

Register
(28) AlexSmith, Altkiller, Andr, artscald, caro, csgmnk, Dante_D, Dark_Viking, kim666, metala, Mogozoz, murian, nemx, Northern_Eternity, Old Vyaine, Olethros, Ostinato, robertho777, satanist666, sergsazan, Shadechaser, SilentNidhogg, stormhatt, supremo, VALERY, varlam4, vasiljev_sergej, wreak,
Feb 28 2022, 23:34:53 Circular Saw - Trauma (2022)


*Artist: Circular Saw
*Album: Trauma
*Year: 2022
*Genre: Black/Death/Thrash Metal
*Country: Slovakia
*Format: mp3@CBR320kbps
*Size: 80MB

Tracklist:
01. Krvavá Nedeľa
02. Légia Smrti
03. Vanitas
04. Všetky Jazvy Sveta
05. Trauma
06. Intravenózne
07. S Matkou Plače Krajina
08. Hladom Proti Hadom
******************************
Total playing time: 30:38



[more=Technical info]
Input File: 02. Legia Smrti.mp3
Channels : 2
Sample Rate : 44100
Precision : 16-bit
Duration : 00:02:59.45 = 7913657 samples = 13458.6 CDDA sectors
File Size : 7.48M
Bit Rate : 334k
Sample Encoding: MPEG audio (layer I, II or III)
Comments :
Title=Légia Smrti
Artist=Circular Saw
Album=Trauma
Tracknumber=2/8
Year=2022
Discnumber=1/1

[/more]

Register
(16) AlexSmith, andreikun, artscald, boby9052, caro, metala, METALHUNTER, Olethros, SadistikSlayer, satanist666, SilentNidhogg, stumpheavyrock, supremo, varlam4, vasiljev_sergej, wreak,
Feb 28 2022, 23:31:54 Discordia - Let Us Slay (2022)


*Artist: Discordia
*Album: Let Us Slay
*Year: 2022
*Genre: Death/Thrash Metal
*Country: Poland
*Format: mp3@CBR320kbps
*Size: 73MB

Tracklist:
01. Blitzkrieg
02. Blood Death Hate
03. Cursed Place
04. Abandoned
05. False Mankind
06. Let Us Slay
07. Fuck You All
08. Antichrist
******************************
Total playing time: 25:49



[more=Extended info][youtube]mGJDoVlEQVk[/youtube][/more]

[more=Technical info]
Input File: 02. Blood Death Hate.mp3
Channels : 2
Sample Rate : 44100
Precision : 16-bit
Duration : 00:03:33.98 = 9436694 samples = 16048.8 CDDA sectors
File Size : 9.32M
Bit Rate : 348k
Sample Encoding: MPEG audio (layer I, II or III)
Comments :
Title=Blood Death Hate
Artist=Discordia
Album=Let Us Slay
Tracknumber=2/8
Year=2022
Discnumber=1/1

[/more]

Register
(21) andreikun, artscald, boby9052, canco994, caro, CTPEMLEHIE, DeathDragon, infozahist, jollo, Mannard, metala, METALHUNTER, MMMMM, Olethros, satanist666, sergsazan, Storky, stumpheavyrock, supremo, vyacheslav, wreak,
Feb 28 2022, 12:35:09 Gryftigæn - Fehunðyrdauðr (2022)


*Artist: Gryftigæn
*Album: Fehunðyrdauðr
*Year: 2022
*Genre: Raw Black Metal/Ambient
*Country: Chile
*Format: mp3@CBR320kbps
*Size: 102MB

Tracklist:
01. Æter 02:09
02. Djúphljóð 06:08
03. Sacrament Of Phosphorescence 05:58
04. Seiðursongen 07:49
05. Crossing Through The Pillars Of Azazyl 06:05
06. Drowned In A Rising Sun 05:56
07. Eiðr Myrkr 06:14
******************************
Total playing time: 40:19



[more=Technical info]
Input File: 03. Sacrament Of Phosphorescence.mp3
Channels : 2
Sample Rate : 44100
Precision : 16-bit
Duration : 00:05:57.98 = 15786830 samples = 26848.4 CDDA sectors
File Size : 14.8M
Bit Rate : 331k
Sample Encoding: MPEG audio (layer I, II or III)
Comments :
Title=Sacrament Of Phosphorescence
Artist=Gryftigaen
Album=Fehunðyrdauðr
Tracknumber=03/07
Year=2022
Genre=Black Metal
Discnumber=1/1

[/more]

Register

Register
(19) AlexSmith, Angeldemon617, artscald, Boozer, Carcharoth, grimoir, kim666, Moonshtook, nemx, NSGM, Olethros, Qliphoth, rominow, sacrut, satanist666, vasiljev_sergej, Vidder242, Vitald, yarrsuaa,
Feb 28 2022, 12:27:17 Obscurcis Romancia - The Bringer Of Light [ep] (2022)


*Artist: Obscurcis Romancia
*Album: The Bringer Of Light [ep]
*Year: 2022
*Genre: Symphonic Black Metal
*Country: Canada
*Format: mp3@CBR320kbps
*Size: 155MB

Tracklist:
01. Here Comes The Storm
02. The Bringer Of Light
03. Horror In The Garden Of Eden
04. Sous L'emprise Des Tenebres
05. L'empire Des Morts
06. Here Comes The Storm (Instrumental)
07. The Bringer Of Light (Instrumental)
08. Horror In The Garden Of Eden (Instrumental)
09. Sous L'emprise Des Tenebres (Instrumental)
10. L'empire Des Morts (Instrumental)
******************************
Total playing time: 1:02:50



[more=Technical info]
Input File: 02. The Bringer Of Light.mp3
Channels : 2
Sample Rate : 44100
Precision : 16-bit
Duration : 00:09:30.73 = 25169237 samples = 42804.8 CDDA sectors
File Size : 23.1M
Bit Rate : 324k
Sample Encoding: MPEG audio (layer I, II or III)
Comments :
Title=The Bringer Of Light
Artist=Obscurcis Romancia
Album=The Bringer Of Light
Tracknumber=02/10
Year=2022
Discnumber=1/1

[/more]

Register
(31) ALBIGON, aleon, artscald, Buregon, caro, csgmnk, DeathDragon, grimoir, Ildjarn, kim666, kimkayoung, legion01, lldma, Luminous, Mogozoz, Olethros, robertho777, rominow, Sanctus, satanist666, sergsazan, Shadechaser, symphonicadiction, VALERY, varlam4, vasiljev_sergej, Victim of fate, VLADISLAV_V_K, wreak, zhol, Сварог Барг,
Feb 28 2022, 12:17:37 Declination - The Executioner (2022)


*Artist: Declination
*Album: The Executioner
*Year: 2022
*Genre: Thrash Metal
*Country: United States
*Format: mp3@CBR320kbps
*Size: 51MB

Tracklist:
01. Succubus
02. The Executioner
03. Wrath
04. Sacrilegious
05. Belial
06. Amor Et Poenitet
07. Agathodaemon
08. Kronos
******************************
Total playing time: 20:04




[more=Technical info]
Input File: 02. The Executioner.mp3
Channels : 2
Sample Rate : 44100
Precision : 16-bit
Duration : 00:04:08.21 = 10945885 samples = 18615.5 CDDA sectors
File Size : 10.1M
Bit Rate : 326k
Sample Encoding: MPEG audio (layer I, II or III)
Comments :
Title=The Executioner
Artist=Declination
Album=The Executioner
Tracknumber=02/08
Year=2022
Discnumber=1/1

[/more]

Register
(25) after21allD, andreikun, artscald, boby9052, caro, DeathDragon, GorAtheist, gwar, HMHamster, lldma, Marek, metala, METALHUNTER, Mogozoz, Olethros, postal67, sadmannn, sagratan, Samaritianin, scorpionmk, sergsazan, stumpheavyrock, supremo, wgs73, wreak,
Feb 28 2022, 12:12:10 Thrashock - Flags Of Hate (2022)


*Artist: Thrashock
*Album: Flags Of Hate
*Year: 2022
*Genre: Thrash Metal
*Country: Mexico
*Format: mp3@CBR320kbps
*Size: 116MB

Tracklist:
01. Into The Abyss
02. Flags Of Hate (feat. Damir Eskic)
03. Operation Red Skull
04. In Your Name
05. Endless Torment
06. Straight To Hell
07. Apartado Del Eden
08. The Vengeance Is Mine
09. Asesino (feat. Carlos Alanis)
10. Hear Me Crying
******************************
Total playing time: 42:58




[more=Technical info]
Input File: 03. Operation Red Skull.mp3
Channels : 2
Sample Rate : 44100
Precision : 16-bit
Duration : 00:04:35.17 = 12134821 samples = 20637.5 CDDA sectors
File Size : 11.4M
Bit Rate : 331k
Sample Encoding: MPEG audio (layer I, II or III)
Comments :
Title=Operation Red Skull
Artist=Thrashock
Album=Flags Of Hate
Tracknumber=03/10
Year=2022
Discnumber=1/1

[/more]

Register
(24) after21allD, andreikun, artscald, atavist, boby9052, caro, DarkHorde, Golfzilla, GorAtheist, gwar, HMHamster, infozahist, metala, METALHUNTER, Mogozoz, Oldskulthrasher, Olethros, postal67, stumpheavyrock, supremo, wgs73, wreak, Xtohar, Псих,
Feb 28 2022, 11:32:23 Exit Wound - Rising Terror (2022)


*Artist: Exit Wound
*Album: Rising Terror
*Year: 2022
*Genre: Death/Thrash Metal
*Country: Canada
*Format: mp3@CBR320kbps
*Size: 108MB

Tracklist:
01. Panic 03:10
02. Rising Terror 05:41
03. Life Is Death 03:27
04. Solar Mortality 04:54
05. The Nurse Of Torment 03:54
06. Save Yourself From Extinction 04:32
07. Shadows Obscured 02:56
08. Taking No More 04:55
09. On Lies They Tread 05:42
10. One Last Man 04:32
******************************
Total playing time: 43:43



[more=Technical info]
Input File: 02. Rising Terror.mp3
Channels : 2
Sample Rate : 44100
Precision : 16-bit
Duration : 00:05:41.00 = 15038100 samples = 25575 CDDA sectors
File Size : 13.9M
Bit Rate : 326k
Sample Encoding: MPEG audio (layer I, II or III)
Comments :
Title=Rising Terror
Artist=Exit Wound
Album=Rising Terror
Tracknumber=02/10
Year=2022-03-01
Genre=Metal
Discnumber=1

[/more]

Register
(22) artscald, caro, cast_iron, DeathDragon, infozahist, jollo, Korpse, Marek, Melusinara, metala, METALHUNTER, MMMMM, Olethros, Reverend, sagratan, scorpionmk, sergsazan, stumpheavyrock, supremo, vyacheslav, wanderer73, wreak,
Feb 28 2022, 11:29:41 Ukobash - Days Of Death (2022)


*Artist: Ukobash
*Album: Days Of Death
*Year: 2022
*Genre: Death Metal
*Country: Colombia
*Format: mp3@CBR320kbps
*Size: 90MB

Tracklist:
01. Days Of Death 02:58
02. Visiones Mórbidas 05:03
03. Necronomicón 05:39
04. Instinto De Rencor 02:55
05. El Pacto 03:24
06. Santa Pederastia 04:10
07. Resistencia 04:01
08. Carente De Nación 03:34
09. Estado De Barbarie 04:21
******************************
Total playing time: 36:05



[more=Technical info]
Input File: 02. Visiones Morbidas.mp3
Channels : 2
Sample Rate : 44100
Precision : 16-bit
Duration : 00:05:03.00 = 13362300 samples = 22725 CDDA sectors
File Size : 12.3M
Bit Rate : 326k
Sample Encoding: MPEG audio (layer I, II or III)
Comments :
Title=Visiones Mórbidas
Artist=Ukobash
Album=Days Of Death
Tracknumber=02/09
Year=2022-03-01
Genre=Metal
Discnumber=1

[/more]

Register
(19) alikkon, andreikun, artscald, caro, GorAtheist, jollo, lary_veel, Melusinara, metala, METALHUNTER, MMMMM, Olethros, scorpionmk, supremo, VALERY, vyacheslav, wanderer73, WOLAND, wreak,
Feb 28 2022, 10:57:07 The Human Tragedy - Legacy Of Extermination (2022)


*Artist: The Human Tragedy
*Album: Legacy Of Extermination
*Year: 2022
*Genre: Symphonic Black Metal
*Country: United States
*Format: mp3@CBR320kbps
*Size: 161MB

Tracklist:
01. So Its Begins...
02. Substance Of Despair
03. The Architects
04. The Nine Servants Of Darkness
05. Legacy Of Extermination
06. Beneath Moonlight
07. To Wander The Earth
08. Where Time Stands Still
09. Enigmatic In Design
10. Harbinger Of All That You Fear
11. Opus No.1
12. A Vile Transformation
******************************
Total playing time: 1:05:32



[more=Extended info][youtube]U-2_iftOxm8[/youtube][/more]

[more=Technical info]
Input File: 03. The Architects.mp3
Channels : 2
Sample Rate : 44100
Precision : 16-bit
Duration : 00:03:55.28 = 10375628 samples = 17645.6 CDDA sectors
File Size : 9.59M
Bit Rate : 326k
Sample Encoding: MPEG audio (layer I, II or III)
Comments :
Title=The Architects
Artist=The Human Tragedy
Album=Legacy Of Extermination
Tracknumber=03/12
Year=2022
Discnumber=1/1

[/more]

Register
(36) AlexSmith, alikkon, Altkiller, artscald, Buregon, caro, csgmnk, DeathDragon, gemineye006, infozahist, kim666, kimkayoung, legion01, lldma, metala, MMMMM, Mogozoz, Olethros, Olrak, Orgasmik, postal67, robertho777, satanist666, sergsazan, Shadechaser, SilentNidhogg, supremo, symphonicadiction, VALERY, varlam4, vasiljev_sergej, WOLAND, wreak, Xutun, yuratroll, Сварог Барг,
Feb 28 2022, 00:33:14 Thengill - Katla (2022)


*Artist: Thengill
*Album: Katla
*Year: 2022
*Genre: Heavy Metal
*Country: Sweden
*Format: mp3@CBR320kbps
*Size: 92MB

Tracklist:
01. Belägringen Av Törnrosdalen
02. Härskaren Av Stål
03. Il Segreto Di Paganini
04. Besökarna
05. Katla
06. Näcken
07. Gilberts Hål
08. Excalibur
09. Necronomicon Ex Mortis
10. Slaget Om Nangijala
******************************
Total playing time: 37:17

[more=Extended info][youtube]BGZ-IHnzNZ4[/youtube][/more]

[more=Technical info]
Input File: 02. Härskaren Av Stål.mp3
Channels : 2
Sample Rate : 44100
Precision : 16-bit
Duration : 00:03:50.91 = 10183219 samples = 17318.4 CDDA sectors
File Size : 9.29M
Bit Rate : 322k
Sample Encoding: MPEG audio (layer I, II or III)
Comments :
Title=Härskaren Av Stål
Artist=Thengill
Album=Katla
Tracknumber=02/10
Year=2022

[/more]

Register
(13) after21allD, artscald, caro, greenock, gwar, infozahist, Olethros, refleks22, sergsazan, stumpheavyrock, wgs73, wreak, Xtohar,
Feb 27 2022, 21:59:32 Medieval Steel - Gods Of Steel (2022)


*Artist: Medieval Steel
*Album: Gods Of Steel
*Year: 2022
*Genre: Power Metal
*Country: United States
*Format: mp3@CBR320kbps
*Size: 112MB

Tracklist:
01. Gods Of Steel
02. Kill The Pain
03. Gypsy Dancer
04. Soldier Of Fortune
05. Stargazer
06. Memories
07. When Mountains Fall
08. Great White Warrior
09. Maneater
10. Satanic Garden
******************************
Total playing time: 42:52



[more=Extended info][youtube]oRoM8cyQDYo[/youtube][/more]

[more=Technical info]
Input File: 02. Kill The Pain.mp3
Channels : 2
Sample Rate : 44100
Precision : 16-bit
Duration : 00:04:57.16 = 13104844 samples = 22287.1 CDDA sectors
File Size : 12.3M
Bit Rate : 330k
Sample Encoding: MPEG audio (layer I, II or III)
Comments :
Title=Kill The Pain
Artist=Medieval Steel
Album=Gods Of Steel
Tracknumber=02/10
Year=2022
Genre=Metal
Discnumber=1/1

[/more]

Register
(37) Aamiinaa, ace73pq, after21allD, andgrek28, artscald, BladeOvDarkness, boby9052, Boozer, Bzth, caro, csgmnk, DeathDragon, desekrator, DTGB, GorAtheist, greenock, gretopi, gwar, Herrant, HMHamster, Marek, Melusinara, metala, Mogozoz, multizwilling, oldvarg, Olethros, Olrak, poeira, postal67, refleks22, Reverend, satanist666, stumpheavyrock, Woosad, wreak, Сварог Барг,
Feb 27 2022, 12:14:44 Humator - Curse Of The Pharaoh (2022)


*Artist: Humator
*Album: Curse Of The Pharaoh
*Year: 2022
*Genre: Death Metal
*Country: Germany
*Format: mp3@CBR320kbps
*Size: 95MB

Tracklist:
01. Opening the Tomb (Intro)
02. Anachronism
03. Djed
04. Into the Crypt
05. Nynu
06. Apep
07. Corporal Mortification
08. Born to be Sacrified
09. Curse of the Pharaoh
10. Arisen from the Ashes
11. Sadness (Bonus Track)
******************************
Total playing time: 38:31



[more=Technical info]
Input File: 02. Anachronism.mp3
Channels : 2
Sample Rate : 44100
Precision : 16-bit
Duration : 00:03:24.00 = 8996400 samples = 15300 CDDA sectors
File Size : 8.37M
Bit Rate : 328k
Sample Encoding: MPEG audio (layer I, II or III)
Comments :
Title=Anachronism
Artist=Humator
Album=Curse Of The Pharaoh
Tracknumber=02/11
Year=2022
Genre=Death Metal
Discnumber=1

[/more]

Register
(29) alikkon, andreikun, artscald, caro, cesar, GorAtheist, Hell_Is_Here, jollo, Marek, METALHUNTER, Mist13Signifier, MMMMM, multizwilling, Occultas, Olethros, sagratan, scorpionmk, serialmessiah, supremo, VALERY, Victim of fate, vitosdemon, Vladimir, vyacheslav, wanderer73, WOLAND, wreak, Xutun, yuratroll,
Feb 26 2022, 17:58:49 Firn - Frostwärts (2022)


*Artist: Firn
*Album: Frostwärts
*Year: 2022
*Genre: Pagan Black Metal
*Country: Germany
*Format: mp3@CBR320kbps
*Size: 156MB

Tracklist:
01. Frostwärts 09:45
02. Urkraft 08:17
03. Wo Die Winde Thronen 07:50
04. Sonnenrad 08:30
05. Menhir 09:12
06. Vater Berg 09:09
07. Firn 08:32
******************************
Total playing time: 1:01:15



[more=Technical info]
Input File: 02. Urkraft.mp3
Channels : 2
Sample Rate : 44100
Precision : 16-bit
Duration : 00:08:18.03 = 21963079 samples = 37352.2 CDDA sectors
File Size : 20.0M
Bit Rate : 321k
Sample Encoding: MPEG audio (layer I, II or III)
Comments :
Title=Urkraft
Artist=Firn
Album=Frostwärts
Tracknumber=02/07
Year=2022

[/more]

Register
(49) AlexSmith, andeimon, artscald, BlackPanda, BlazonStone, canadaspaceman, Carcharoth, caro, Dark_Viking, dm_372761, Dr.Grind Oim, Druidir, EvilPiet, Fryz, GorAtheist, Ildjarn, infozahist, kim666, legion01, MadCarrot, Marek, mateuszkluz, Mencae77, multizwilling, nemx, oldvarg, Olethros, Olrak, rauhnacht, robertho777, RUDACHUR, SaintVitus, satanist666, serjred, Shadechaser, SilentNidhogg, SS2998, StabWound, stormhatt, supremo, Surt, talismanFS, VALERY, varlam4, vasiljev_sergej, WOLAND, wreak, zhol, Сварог Барг,

40 Pages V   1 2 3 > » 
- Lo-Fi Version Support form
Copyrights and abuse reports form
Time is now: 5th December 2022 - 15:20:59