Welcome Guest ( Log In | Register )

История благодарностей участнику cmg92 ::: Спасибо сказали: 136 раз(а)
Дата поста: В теме: За сообщение: Спасибо сказали:
Oct 1 2021, 09:58:46 Scene Of Decay - Genesis Of Rebirth [demo] (2007)
QUOTE(RunningWild_AT @ Oct 7 2018, 00:23:39) *
Anyone to re-up this gem?
thanks in advance.


From the web @192 vbr :

Register
(2) kimkayoung, wendigo,
Aug 8 2021, 12:26:32 Today Needed (1) thenecromancer,
Jul 19 2021, 11:30:47 Acacia - El Umbral De Los Sueños (2001)


*Artist: Acacia
*Album: El Umbral De Los Sueños
*Year: 2001
*Genre: Heavy/Progressive Metal
*Country: Mexico
*Format: mp3@VBR212kbps
*Size: 79MB

Tracklist:
1. El umbral de los sueños 08:57
2. Ángel nocturno 07:08
3. La sombra de tu amor 04:41
4. La condena 08:55
5. Entre la mentira y la verdad 05:56
6. Fin de milenio 07:27
7. Íntimos rostros 07:50
******************************
Total playing time: 50:54

[more=Technical info]
Input File: 03_acacia-la_sombra_de_tu_amor-amrc.mp3
Channels : 2
Sample Rate : 44100
Precision : 16-bit
Duration : 00:04:41.78 = 12426586 samples = 21133.6 CDDA sectors
File Size : 7.79M
Bit Rate : 221k
Sample Encoding: MPEG audio (layer I, II or III)
Comments :
Title=La Sombra De Tu Amor
Artist=Acacia
Album=El Umbral De Los Suenos
Year=2002
Genre=9

[/more]

Register
(10) caro, chipsgott, Herrant, infiltrator, Olethros, stumpheavyrock, Svafrlami, varlam4, wreak, Сварог Барг,
Jul 13 2021, 18:42:53 Utopic Rabbit - Utòpic Rabbit [demo] (2012)


*Artist: Utopic Rabbit
*Album: Utòpic Rabbit [demo]
*Year: 2012
*Genre: Technical Death Metal
*Country: Spain
*Format: mp3@CBR320kbps
*Size: 50MB

Tracklist:
1. Weakness 05:38
2. Lonely Transition 05:02
3. Attempt of Reordering 05:23
4. Own Duality 06:26
******************************
Total playing time: 22:29

[more=Technical info]
Input File: 03-utopic_rabbit-attempt_of_reordering.mp3
Channels : 2
Sample Rate : 44100
Precision : 16-bit
Duration : 00:05:22.26 = 14211446 samples = 24169.1 CDDA sectors
File Size : 12.9M
Bit Rate : 320k
Sample Encoding: MPEG audio (layer I, II or III)
Comments :
Title=Attempt Of Reordering
Artist=Utòpic Rabbit
Album=Utòpic Rabbit EP
Tracknumber=3
Year=2012
Genre=Metal

[/more]

Register
(7) infiltrator, Marek, metala, Olethros, Svafrlami, Wail, wanderer73,
Jul 13 2021, 18:38:54 Murdering Murders - Criminal Record [demo] (2012)


*Artist: Murdering Murders
*Album: Criminal Record [demo]
*Year: 2012
*Genre: Death Metal/Grindcore
*Country: Sweden
*Format: mp3@CBR320kbps
*Size: 44MB

Tracklist:
1. Bicycle Thief 02:21
2. Necro Bordello 02:54
3. Crime Pays 02:23
4. Both Must Die 01:52
5. Cut in Line 04:10
6. Time to Change Face 02:05
7. Suicide by Hammer 04:39
******************************
Total playing time: 20:24

[more=Technical info]
Input File: Murdering Murders - Necro Bordello.mp3
Channels : 2
Sample Rate : 44100
Precision : 16-bit
Duration : 00:02:49.31 = 7466659 samples = 12698.4 CDDA sectors
File Size : 6.85M
Bit Rate : 324k
Sample Encoding: MPEG audio (layer I, II or III)
Comments :
Title=Necro Bordello
Artist=Murdering Murders
Album=Criminal Record
Tracknumber=2/7
Year=2012

[/more]

Register
(5) infiltrator, Marek, Olethros, Svafrlami, Wail,
Jul 13 2021, 18:31:08 Lacrota - Nuckelavee [ep] (2014)


*Artist: Lacrota
*Album: Nuckelavee [ep]
*Year: 2014
*Genre: Progressive Death Metal
*Country: United Kingdom
*Format: mp3@VBR128kbps
*Size: 18MB

Tracklist:
1. Skin Clown 04:47
2. We Can Always Grow New Limbs 04:49
3. Arachnid Egg Sac 05:30
4. Nuckelavee 03:57
******************************
Total playing time: 19:03

[more=Technical info]
Input File: Lacrota - Nuckelavee - 02 - We Can Always Grow New Limbs.mp3
Channels : 2
Sample Rate : 44100
Precision : 16-bit
Duration : 00:04:49.55 = 12769155 samples = 21716.2 CDDA sectors
File Size : 4.82M
Bit Rate : 133k
Sample Encoding: MPEG audio (layer I, II or III)
Comments :
Title=We Can Always Grow New Limbs
Artist=Lacrota
Album=Nuckelavee
Tracknumber=02
Year=2014
Genre=Death Metal

[/more]

Register
(9) after21allD, infiltrator, kimkayoung, Olethros, stumpheavyrock, Svafrlami, vyacheslav, Wail, wanderer73,
Jul 13 2021, 16:53:37 Incinerate - De Profundus [demo] (2021)


*Artist: Incinerate
*Album: De Profundus [demo]
*Year: 2021
*Genre: Death/Thrash Metal
*Country: Peru
*Format: mp3@CBR320kbps
*Size: 40MB

Tracklist:
1. Perpetual Lies 04:37
2. Blackened Evil Sphere 04:19
3. Calvarium 04:46
4. De Profundus Clamo Adite Domini 06:16
******************************
Total playing time: 19:58

[more=Technical info]
Input File: 02 - Perpetual Lies.mp3
Channels : 2
Sample Rate : 44100
Precision : 16-bit
Duration : 00:04:37.15 = 12222359 samples = 20786.3 CDDA sectors
File Size : 11.2M
Bit Rate : 323k
Sample Encoding: MPEG audio (layer I, II or III)
Comment : 'Title=Incinerate Perpetual Lies'

[/more]

Register
(8) infiltrator, Marek, Olethros, stumpheavyrock, Svafrlami, Wail, wgs73, Xtohar,
Jul 13 2021, 16:49:24 In Satans Paradise - Driller Killer (2007)


*Artist: In Satans Paradise
*Album: Driller Killer
*Year: 2007
*Genre: Grindcore/Doom Metal
*Country: Denmark
*Format: mp3@CBR320kbps
*Size: 171MB

Tracklist:
1. All People Are Scumbags 04:27
2. Corazon 07:20
3. Black Wings 04:21
4. Crustifix 03:06
5. Cyrus on Speed 01:01
6. Diabolical Asteroid 01:34
7. In Satans Paradise 03:54
8. Mad Max 02:13
9. Never to Be Taken Serious 02:28
10. On Vacation Ii 05:38
11. Through Gruesome Design 02:51
12. Reality Lack 02:38
13. She Carried Me Away 04:48
14. Somersault 05:10
15. The Man Who Felt the Same 03:34
16. They Were Preferred Before Us 05:10
17. Tribute to the 80's 03:20
18. Vaxination 02:49
19. Distress 05:49
20. Your Dead 01:59
******************************
Total playing time: 1:14:10

[more=Technical info]
Input File: 06 - Diabolical Asteroid.mp3
Channels : 2
Sample Rate : 44100
Precision : 16-bit
Duration : 00:01:34.75 = 4178651 samples = 7106.55 CDDA sectors
File Size : 3.90M
Bit Rate : 330k
Sample Encoding: MPEG audio (layer I, II or III)
Comments :
Title=Diabolical Asteroid
Artist=In Satans Paradise
Album=Driller Killer
Year=2016

[/more]

Register
(9) Carcharoth, HMHamster, infiltrator, metala, Olethros, stumpheavyrock, Svafrlami, VALERY, Wail,
Jul 13 2021, 16:43:32 Emily's Meatgrinder - She Was Asking For It [single] (2008)
Reuploaded.

Register
(1) wreak,
Jul 13 2021, 16:42:26 Dysphoria - The Weak Must Kneel [ep] (2012)


*Artist: Dysphoria
*Album: The Weak Must Kneel [ep]
*Year: 2012
*Genre: Death Metal
*Country: Poland
*Format: mp3@CBR320kbps
*Size: 37MB

Tracklist:
1. The Weak Must Kneel 03:09
2. Living Dead Plague 03:00
3. We, Made of Darkness 03:04
4. Madman's Slumber 03:33
5. No Captives 03:02
******************************
Total playing time: 15:48

[more=Technical info]
Input File: Dysphoria - The Weak Must Kneel - 02 Living Dead Plague.mp3
Channels : 2
Sample Rate : 44100
Precision : 16-bit
Duration : 00:02:58.32 = 7863956 samples = 13374.1 CDDA sectors
File Size : 7.35M
Bit Rate : 330k
Sample Encoding: MPEG audio (layer I, II or III)
Comments :
Title=Living Dead Plague
Artist=Dysphoria
Album=The Weak Must Kneel
Tracknumber=2
Year=2012

[/more]

Register
(15) bOOLty, caro, chipsgott, Marek, METALHUNTER, noel666, Olethros, Razorbladeswaltz, Svafrlami, Taakeferd, VALERY, varlam4, vyacheslav, wanderer73, wreak,
Jul 13 2021, 16:38:02 Dark Matter Secret - Xenoform [ep] (2015)


*Artist: Dark Matter Secret
*Album: Xenoform [ep]
*Year: 2015
*Genre: Progressive Death Metal
*Country: Russian Federation
*Format: mp3@CBR320kbps
*Size: 30MB

Tracklist:
1. Unhuman Lifeform 04:58
2. Xenotrans 04:57
******************************
Total playing time: 9:55

[more=Technical info]
Input File: 01. Unhuman Lifeform.mp3
Channels : 2
Sample Rate : 44100
Precision : 16-bit
Duration : 00:05:41.74 = 15070646 samples = 25630.4 CDDA sectors
File Size : 15.3M
Bit Rate : 359k
Sample Encoding: MPEG audio (layer I, II or III)
Comments :
Title=Unhuman Lifeform
Artist=Dark Matter Secret
Album=Xenoform (EP)
Tracknumber=01/02
Year=2015
Genre=Progressive Death Metal

[/more]

Register
(15) after21allD, bOOLty, caro, chipsgott, kimkayoung, Marek, METALHUNTER, Olethros, stumpheavyrock, Svafrlami, Taakeferd, VALERY, varlam4, Wail, wreak,
Jul 13 2021, 16:35:12 Criterion - Blackened Memories [demo] (2004)


*Artist: Criterion
*Album: Blackened Memories [demo]
*Year: 2004
*Genre: Death Metal
*Country: Norway
*Format: mp3@VBR197kbps
*Size: 26MB

Tracklist:
1. Blackened Memories 05:34
2. Last Breaths 04:09
3. Obliteration 03:59
4. The Dominant 04:46
******************************
Total playing time: 18:28

[more=Technical info]
Input File: 02_last_breaths-dmg.mp3
Channels : 2
Sample Rate : 44100
Precision : 16-bit
Duration : 00:04:09.00 = 10980856 samples = 18674.9 CDDA sectors
File Size : 6.36M
Bit Rate : 204k
Sample Encoding: MPEG audio (layer I, II or III)
Comments :
Title=Last Breaths
Artist=Criterion
Album=Blackened Memories Demo
Year=2004
Genre=22

[/more]

Register
(6) infiltrator, multizwilling, Olethros, stumpheavyrock, Svafrlami, Wail,
Jul 13 2021, 16:29:32 Arkham Dream - Origins Of Madness (2011)


*Artist: Arkham Dream
*Album: Origins Of Madness
*Year: 2011
*Genre: Symphonic Death Metal
*Country: Mexico
*Format: mp3@CBR320kbps
*Size: 102MB

Tracklist:
1. Delirium 01:53
2. Immortals 05:53
3. Through the Madness 05:01
4. Seas of Rage 04:42
5. Between Gods 04:50
6. Away 05:12
7. Oblivion 05:45
8. A Divine Hate (The Other Way Part 1) 06:08
9. In the Eternity 05:17
******************************
Total playing time: 44:41

[more=Technical info]
Input File: 03 - Through the Madness.mp3
Channels : 2
Sample Rate : 44100
Precision : 16-bit
Duration : 00:05:00.72 = 13261532 samples = 22553.6 CDDA sectors
File Size : 12.2M
Bit Rate : 323k
Sample Encoding: MPEG audio (layer I, II or III)
Comments :
Title=Through the Madness
Artist=Arkham Dream

[/more]

Register
(11) dermarsoran, GorAtheist, infiltrator, kimkayoung, mirotvorets, Olethros, Oni_Palermo, sergsazan, Svafrlami, Wail, Сварог Барг,
Jul 13 2021, 16:25:12 Altercate - Seeking Serenity [ep] (2007)


*Artist: Altercate
*Album: Seeking Serenity [ep]
*Year: 2007
*Genre: Brutal Death Metal
*Country: United States
*Format: mp3@VBR160kbps
*Size: 24MB

Tracklist:
1. Anguish 04:06
2. Lifeless Sentiment 02:26
3. The Offering 03:28
4. Unblessed 02:46
5. Seeking Serenity 03:19
******************************
Total playing time: 16:05

[more=Technical info]
Input File: 02_altercate-lifeless_sentiment.mp3
Channels : 2
Sample Rate : 44100
Precision : 16-bit
Duration : 00:02:32.28 = 6715372 samples = 11420.7 CDDA sectors
File Size : 3.05M
Bit Rate : 160k
Sample Encoding: MPEG audio (layer I, II or III)
Comments :
Title=Lifeless Sentiment
Artist=Altercate
Album=Seeking Serenity
Tracknumber=2/7
Year=2007
Genre=Death Metal

[/more]

Register
(6) GorAtheist, infiltrator, Olethros, Svafrlami, vyacheslav, Wail,
Jun 26 2021, 15:10:25 Shryke - Controlling The Time [demo] (1997)


*Artist: Shryke
*Album: Controlling The Time [demo]
*Year: 1997
*Genre: Thrash/Death Metal
*Country: Italy
*Format: mp3@CBR320kbps
*Size: 61MB

Tracklist:
1. The Man Who Complains of God 06:44
2. The Merlin's Disease 07:37
3. The Offer 08:40
4. The Slaughter 04:44
******************************
Total playing time: 27:45

[more=Technical info]
Input File: SHRYKE - The Slaughter.mp3
Channels : 2
Sample Rate : 44100
Precision : 16-bit
Duration : 00:04:43.34 = 12495382 samples = 21250.6 CDDA sectors
File Size : 11.4M
Bit Rate : 320k
Sample Encoding: MPEG audio (layer I, II or III)
Comments :
Title=The Slaughter
Artist=Shryke
Album=Controlling the Time
Tracknumber=4/4
Year=1997
Genre=Thrash Metal

[/more]

Register
(10) after21allD, cyberoID, infiltrator, metala, Olethros, Proteus_666, stumpheavyrock, Svafrlami, Wail, Z28517,
Jun 26 2021, 15:07:00 Brutal Verms - Insupportable [demo] (1990)


*Artist: Brutal Verms
*Album: Insupportable [demo]
*Year: 1990
*Genre: Grindcore
*Country: Brazil
*Format: mp3@CBR320kbps
*Size: 12MB

Tracklist:
1. Intro 00:05
2. Trituration 00:21
3. Sex with Noise 00:20
4. A.V.C.H. 00:10
5. Verminal Penetration 02:32
6. Tuberculose Broncopneumony Reinphection 00:37
7. Fuck You Boy 00:14
8. Renal Putrefaction 01:13
9. Schizophrenic Christianity (Necrobutcher cover) 01:43
10. Hidrocephaly 00:33
11. Hipertrophia Anal 01:44
12. Estridoa Congenit 00:10
13. Masturbation or Death 00:05
14. Squeeze Anton (Agathocles cover) 01:19
15. Rotten Enterovirus 00:05
16. Corrosive Cunniling 00:08
17. Intestinal Extirpation 00:05
18. Insupportable 00:11
19. Final 00:42
******************************
Total playing time: 12:17

[more=Extended info]YouTube

Includes unseperated .wav[/more]

[more=Technical info]
Input File: 05-Verminal Penetration.mp3
Channels : 2
Sample Rate : 44100
Precision : 16-bit
Duration : 00:02:32.35 = 6718811 samples = 11426.5 CDDA sectors
File Size : 6.09M
Bit Rate : 320k
Sample Encoding: MPEG audio (layer I, II or III)

[/more]

Register
(6) cyberoID, Olethros, Proteus_666, Reverend, Svafrlami, Wail,
Jun 14 2021, 12:45:44 Kera Zero Kommand - Massive Solliciting [demo] (2004)
re up pls
(1) thenecromancer,
Jun 9 2021, 09:20:38 На моем Youtube много редкого Death Metal
Я использую переводчик. У меня есть канал YT, на котором много релизов не на Metalarea. Пожалуйста, если кто-то хочет разместить их здесь, продолжайте, так как у меня нет времени.

https://www.youtube.com/channel/UCU6mt7N8bdGaSYRhiLu_p9g
(2) Froze, Occultas,
Jun 1 2021, 11:14:38 Contaminated - Towards Murderous Compulsion (2009)
Re-upped, same qualities :

Register
(1) wendigo,
May 27 2021, 18:47:45 Enforced Nicotine Addiction - Smoke Slave Beginnings - Demo I [demo] (2021)


*Artist: Enforced Nicotine Addiction
*Album: Smoke Slave Beginnings - Demo I [demo]
*Year: 2021
*Genre: Death Metal/Pornogrind
*Country: Brazil
*Format: mp3@CBR320kbps
*Size: 29MB

Tracklist:
1. Living Ashtray in "A Minor" 06:08
2. Rotten Lung 02:02
3. Twin Ashtrays 04:13
******************************
Total playing time: 12:23



[more=Technical info]
Input File: Enforced Nicotine Addiction - Smoke Slave Beginnings - Demo I - 02 Rotten Lung.mp3
Channels : 2
Sample Rate : 44100
Precision : 16-bit
Duration : 00:02:02.29 = 5392769 samples = 9171.38 CDDA sectors
File Size : 4.98M
Bit Rate : 326k
Sample Encoding: MPEG audio (layer I, II or III)
Comments :
Title=Rotten Lung
Artist=Enforced Nicotine Addiction
Album=Smoke Slave Beginnings - Demo I
Tracknumber=2
Year=2021

[/more]

Register
(2) Olethros, Svafrlami,
Apr 30 2021, 10:32:47 Animus Necandi - Bloody World [demo] (2005)


*Artist: Animus Necandi
*Album: Bloody World [demo]
*Year: 2005
*Genre: Thrash Metal
*Country: Brazil
*Format: mp3@CBR320kbps
*Size: 20MB

Tracklist:
1. Intro 00:29
2. Bloody World 01:45
3. In Vain Again 03:16
4. Animus Necandi 03:06
******************************
Total playing time: 8:36

[more=Technical info]
Input File: 02 - Bloody World.mp3
Channels : 2
Sample Rate : 44100
Precision : 16-bit
Duration : 00:01:44.37 = 4602629 samples = 7827.6 CDDA sectors
File Size : 4.32M
Bit Rate : 331k
Sample Encoding: MPEG audio (layer I, II or III)
Comments :
Title=Bloody World
Artist=Animus Necandi
Album=Bloody World
Tracknumber=2
Year=2004
Genre=Psychobilly

[/more]

Register
(9) after21allD, infiltrator, Olethros, Reverend, stumpheavyrock, Svafrlami, varlam4, Wail, Xtohar,

- Lo-Fi Version Support form
Copyrights and abuse reports form
Time is now: 16th October 2021 - 18:10:45