Welcome Guest ( Log In | Register )

История благодарностей участнику riv04 ::: Спасибо сказали: 7 раз(а)
Дата поста: В теме: За сообщение: Спасибо сказали:
Jan 14 2022, 11:49:07 Clanrock - Flight Of The Phoenix (2007)


*Artist: Clanrock
*Album: Flight Of The Phoenix
*Year: 2007
*Genre: Folk Metal/Celtic Rock
*Country: Luxembourg
*Format: mp3@CBR320kbps
*Size: 155MB

Tracklist:
1. Der Rivale
2. Flight of the Phoenix
3. Draco Magnus
4. De Walert
5. Amber Fields of Grain
6. 3 Gefuerdechten
7. Clouds
8. And another Thing
9. Star of the County Down
10. Guns'n Drums
11. Flames
12. Bits n'Pieces
13. Listen, Learn and Act
14. E Kendchen as gebouren gin
******************************
Total playing time: 1:13:00

[more=Technical info]
Input File: 01. Der Rivale.mp3
Channels : 2
Sample Rate : 44100
Precision : 16-bit
Duration : 00:03:54.41 = 10337569 samples = 17580.9 CDDA sectors
File Size : 9.56M
Bit Rate : 326k
Sample Encoding: MPEG audio (layer I, II or III)
Comments :
Artist=Clanrock
Album=Flight of the Phoenix

[/more]

Register
(4) artscald, Cartman223, gwar, Olethros,
Jan 14 2022, 11:40:17 Vorgrum - Party In The Deep (2018)


*Artist: Vorgrum
*Album: Party In The Deep
*Year: 2018
*Genre: Pagan Metal
*Country: Argentina
*Format: mp3@CBR320kbps
*Size: 102MB

Tracklist:
1. Guardians
2. Dancers of the eternal Blackness
3. Swollen Troll
4. Beer Island
5. Party in the Deep
6. Legends of a Beast
7. Cursed Crown
8. Pinta la Joda
9. Winged Boots
10. Dragon's Breath
11. Dream Eater
12. Lost in Time
13. The Portal
******************************
Total playing time: 43:42

[more=Technical info]
Input File: 1.mp3
Channels : 2
Sample Rate : 44100
Precision : 16-bit
Duration : 00:04:09.25 = 10991837 samples = 18693.6 CDDA sectors
File Size : 9.98M
Bit Rate : 320k
Sample Encoding: MPEG audio (layer I, II or III)

[/more]

Register
(3) artscald, Olethros, varlam4,

- Lo-Fi Version Support form
Copyrights and abuse reports form
Time is now: 25th May 2022 - 19:56:48