Welcome Guest ( Log In | Register )

История благодарностей участнику Bruxa ::: Спасибо сказали: 52 раз(а)
Дата поста: В теме: За сообщение: Спасибо сказали:
Jan 5 2022, 10:18:41 Chaoagnostic - Endless Vortex (2022)


*Artist: Chaoagnostic
*Album: Endless Vortex
*Year: 2022
*Genre: Black Metal
*Country: Ukraine
*Format: mp3@CBR320kbps
*Size: 69MB

Tracklist:
1. Dance of Death
2. Holy Pest
3. Vengeance
4. Endless Vortex
5. Uncanny Valley
6. Dark Blood
7. Night on Bold Mountain
8. End of the Times
******************************
Total playing time: 30:40

[more=Extended info]Recorded at AeroDynamic studio (Kyiv)
Bandcamp:[/more]

[more=Technical info]
Input File: 01. Dance of Death.mp3
Channels : 2
Sample Rate : 44100
Precision : 16-bit
Duration : 00:03:42.42 = 9808634 samples = 16681.4 CDDA sectors
File Size : 8.90M
Bit Rate : 320k
Sample Encoding: MPEG audio (layer I, II or III)

[/more]

Register
(14) artscald, caro, Hell_Is_Here, judaz, kim666, Occultas, Olethros, robertho777, SilentNidhogg, smes, stormhatt, supremo, VALERY, vasiljev_sergej,
Jan 3 2022, 21:07:28 Chaoagnostic - Endless Vortex (2022)


*Artist: Chaoagnostic
*Album: Endless Vortex
*Year: 2022
*Genre: Black Metal
*Country: Ukraine
*Format: mp3@CBR320kbps
*Size: 69MB

Tracklist:
1. Dance of Death
2. Holy Pest
3. Vengeance
4. Endless Vortex
5. Uncanny Valley
6. Dark Blood
7. Night on Bold Mountain
8. End of the Times
******************************
Total playing time: 30:40



[more=Technical info]
Input File: 01. Dance of Death.mp3
Channels : 2
Sample Rate : 44100
Precision : 16-bit
Duration : 00:03:42.42 = 9808634 samples = 16681.4 CDDA sectors
File Size : 8.90M
Bit Rate : 320k
Sample Encoding: MPEG audio (layer I, II or III)

[/more]

Register
(14) aleon, artscald, caro, Hell_Is_Here, judaz, kim666, Olethros, robertho777, SilentNidhogg, stormhatt, supremo, VALERY, varlam4, wreak,
Dec 11 2021, 13:38:59 Chaoagnostic - Holy Pest [demo] (2021)
ЦИТАТА(sethurius @ Dec 11 2021, 14:36:32) *
А простому люду? Что привело тебя сюда? Переоценка, скука, желание Участия или иные аспекты?
Каким ты видишь вектор творчества, жизнеспособен ли он?

Бгг. crazy.gif
(1) waffenss,
Dec 11 2021, 13:27:53 Chaoagnostic - Holy Pest [demo] (2021)
ЦИТАТА(spammer666 @ Dec 11 2021, 14:23:26) *
Дашь Интервью АоА? 25.gif

Нет. crazy.gif
(1) waffenss,
Dec 11 2021, 00:47:46 Chaoagnostic - Holy Pest [demo] (2021)
ЦИТАТА(6666666 @ Dec 11 2021, 01:33:10) *
Забаньте фэйк Воланда.

Честно говоря, не знаю, кто из собеседников фейк Воланда, кто этот Воланд и зачем его банить. Собственно, и как тут банить - тоже не знаю. smile1.gif
(1) Storky,
Dec 10 2021, 01:29:30 Chaoagnostic - Holy Pest [demo] (2021)


*Artist: Chaoagnostic
*Album: Holy Pest [demo]
*Year: 2021
*Genre: Raw Black Metal
*Country: Ukraine
*Format: mp3@CBR320kbps
*Size: 37MB

Tracklist:
1. Dance of Death
2. Holy Pest
3. Dark Blood
4. Uncanny Valley
******************************
Total playing time: 16:05



[more=Extended info]CHAOAGNOSTIC - "Holy Pest" (demo 2021)
Raw Black Metal by H. Bruxa (ex-GELIDA OBSCURITAS, ex-SACRILEGIUM)[/more]

[more=Technical info]
Input File: 01. Dance of Death.mp3
Channels : 2
Sample Rate : 44100
Precision : 16-bit
Duration : 00:03:40.77 = 9736089 samples = 16558 CDDA sectors
File Size : 8.83M
Bit Rate : 320k
Sample Encoding: MPEG audio (layer I, II or III)

[/more]

Register
(21) alikkon, artscald, Carcharoth, caro, deadterror, dermarsoran, Hell_Is_Here, kim666, lilf, MaXL, Metalass, Occultas, Olethros, Reverend, Storky, stormhatt, thenecromancer, VALERY, varlam4, vasiljev_sergej, wreak,

- Lo-Fi Version Support form
Copyrights and abuse reports form
Time is now: 17th August 2022 - 09:41:15