Welcome Guest ( Log In | Register )

История благодарностей участнику applepickingbeam ::: Спасибо сказали: 26 раз(а)
Дата поста: В теме: За сообщение: Спасибо сказали:
Dec 1 2023, 15:01:49 Mater Suspiria Vision - Hotel Trancesylvania (2023)


*Artist: Mater Suspiria Vision
*Album: Hotel Trancesylvania
*Year: 2023
*Genre: Drone/Experimental
*Country: Germany
*Format: mp3@CBR320kbps
*Size: 90MB

Tracklist:
1. Check-In 01:35
2. Muzica Obscura (feat. Æchidna Morgan Kamen) 03:30
3. Power Of Intensity (feat. Shazzula) 05:06
4. The Haunting 05:24
5. Crawler's Revenge (feat. Shazzula) 05:11
6. Trancesylvania Express (feat. Shazzula) 11:16
7. Hotel Trancesylvania 06:22
******************************
Total playing time: 38:24

[more=Technical info]
Input File: Mater Suspiria Vision - Hotel Trancesylvania - 04 The Haunting.mp3
Channels : 2
Sample Rate : 44100
Precision : 16-bit
Duration : 00:05:24.59 = 14314375 samples = 24344.2 CDDA sectors
File Size : 13.1M
Bit Rate : 323k
Sample Encoding: MPEG audio (layer I, II or III)
Comments :
Title=The Haunting
Artist=Mater Suspiria Vision
Album=Hotel Trancesylvania
Tracknumber=4
Year=2023

[/more]

Register
(4) Grev, sarcophagus, vlad74, Wail,
Nov 29 2023, 06:55:53 Mater Suspiria Vision - Space Necronomicon (2023)


*Artist: Mater Suspiria Vision
*Album: Space Necronomicon
*Year: 2023
*Genre: Ambient/Experimental
*Country: Germany
*Format: mp3@CBR320kbps
*Size: 94MB

Tracklist:
1. Das Universum bist Du (07:54)
2. Geisterinsel im Weltall (08:16)
3. Ausserkörperliche Erfahrung / Out of Body Experience (05:05)
4. Deep Sleep / Tiefer Schlaf (19:12)
******************************
Total playing time: 40:27

[more=Technical info]
Input File: Mater Suspiria Vision - Space Necronomicon - The Album - 03 Ausserkörperliche Erfahrung - Out of Body Experience.mp3
Channels : 2
Sample Rate : 44100
Precision : 16-bit
Duration : 00:05:05.57 = 13475681 samples = 22917.8 CDDA sectors
File Size : 12.3M
Bit Rate : 323k
Sample Encoding: MPEG audio (layer I, II or III)
Comments :
Title=Ausserkörperliche Erfahrung / Out of Body Experience
Artist=Mater Suspiria Vision
Album=Space Necronomicon - The Album
Tracknumber=3
Year=2023

[/more]

Register
(6) Chasm, gena, sarcophagus, Tyrone, vlad74, Wail,
Nov 28 2023, 20:09:11 Mater Suspiria Vision - Space Necronomicon (2023)


*Artist: Mater Suspiria Vision
*Album: Space Necronomicon
*Year: 2023
*Genre: Ambient/Experimental
*Country: Germany
*Format: mp3@CBR320kbps
*Size: 94MB

Tracklist:
1. Das Universum bist Du (07:54)
2. Geisterinsel im Weltall (08:16)
3. Ausserkörperliche Erfahrung / Out of Body Experience (05:05)
4. Deep Sleep / Tiefer Schlaf (19:12)
******************************
Total playing time: 40:27

[more=Technical info]
Input File: Mater Suspiria Vision - Space Necronomicon - The Album - 03 Ausserkörperliche Erfahrung - Out of Body Experience.mp3
Channels : 2
Sample Rate : 44100
Precision : 16-bit
Duration : 00:05:05.57 = 13475681 samples = 22917.8 CDDA sectors
File Size : 12.3M
Bit Rate : 323k
Sample Encoding: MPEG audio (layer I, II or III)
Comments :
Title=Ausserkörperliche Erfahrung / Out of Body Experience
Artist=Mater Suspiria Vision
Album=Space Necronomicon - The Album
Tracknumber=3
Year=2023

[/more]

Register
(1) Wail,
Jun 16 2023, 20:40:17 Violent Magic Orchestra - Supergaze [single] (2023)


*Artist: Violent Magic Orchestra
*Album: Supergaze [single]
*Year: 2023
*Genre: Industrial Black Metal
*Country: Japan
*Format: mp3@CBR320kbps
*Size: 10MB

Tracklist:
01. Supergaze
******************************
Total playing time: 3:29

[more=Technical info]
Input File: 01. Supergaze.mp3
Channels : 2
Sample Rate : 44100
Precision : 16-bit
Duration : 00:03:28.81 = 9208433 samples = 15660.6 CDDA sectors
File Size : 9.90M
Bit Rate : 379k
Sample Encoding: MPEG audio (layer I, II or III)
Comments :
Title=Supergaze
Artist=Violent Magic Orchestra
Album=Supergaze
Tracknumber=1
Year=2023
Genre=Industrial Black Metal

[/more]

Register
(7) artscald, Grev, gwar, Reverend, vasiljev_sergej, Wail, wreak,
May 23 2023, 19:39:12 Violent Magic Orchestra - Venom [single] (2023)


*Artist: Violent Magic Orchestra
*Album: Venom [single]
*Year: 2023
*Genre: Industrial Black Metal
*Country: Japan
*Format: mp3@CBR320kbps
*Size: 12MB

Tracklist:
01. Venom
******************************
Total playing time: 4:59

[more=Technical info]
Input File: 01. Venom.mp3
Channels : 2
Sample Rate : 44100
Precision : 16-bit
Duration : 00:04:59.20 = 13194544 samples = 22439.7 CDDA sectors
File Size : 13.2M
Bit Rate : 352k
Sample Encoding: MPEG audio (layer I, II or III)
Comments :
Title=Venom
Artist=Violent Magic Orchestra
Album=Venom
Tracknumber=1
Year=2023
Genre=Industrial Black Metal

[/more]

Register
(8) artscald, chipsgott, Grev, spazm, thenecromancer, vasiljev_sergej, Wail, wreak,

- Lo-Fi Version Support form
Copyrights and abuse reports form
Time is now: 21st April 2024 - 11:41:46