Welcome Guest ( Log In | Register )

История благодарностей участнику Farfarello ::: Спасибо сказали: 977 раз(а)
Дата поста: В теме: За сообщение: Спасибо сказали:
Apr 7 2024, 20:38:33 Сын Собаки - Охуевший (2022)


*Artist: Сын Собаки
*Album: Охуевший
*Year: 2022
*Genre: Grindcore
*Country: Russian Federation
*Format: mp3@CBR320kbps
*Size: 52MB

Tracklist:
1. Da Boom Bom Shaka Laka
2. Я Люблю Пельмени
3. Боевые Трансы (feat. Safar)
4. Братство Говна
5. Балаган
6. Отец Года (feat. Волдырь)
7. Хуй на Блюде
8. У Меня Большой Член
9. Продай Очко за Чупа-Чупс (feat. Mudryy)
10. Я Хочу Быть Твоим Унитазом
11. Сало
12. Клоун-пидорас (feat. MENSTRUATION Of An AIDS Infected Pig)
13. Ебака
14. Люди - это Браконьеры
15. Ебу Бабку за Наследство (feat. CHTHONIC SUFFERING)
16. Насри Мне в Шапку (feat. SuragaD)
17. Насилие - это...
18. Человек Яйца (Тот Самый cover)
19. Анальная Оборона
20. Сын Собаки
******************************
Total playing time: 22:52

[more=Technical info]
Input File: 3 Боевые Трансы (feat. Safar).mp3
Channels : 2
Sample Rate : 44100
Precision : 16-bit
Duration : 00:00:43.32 = 1910236 samples = 3248.7 CDDA sectors
File Size : 1.73M
Bit Rate : 320k
Sample Encoding: MPEG audio (layer I, II or III)
Comments :
Title=Боевые Трансы (feat. Safar)
Artist=Сын Cобаки
Album=Охуевший
Tracknumber=3
Year=2022
Genre=Grindcore

[/more]

Register
(9) A.L.Rapsod, alikkon, Aresson, artscald, core_eater, DarkHorde, supremo, Wail, wreak,
Apr 3 2024, 13:25:01 Limbonic Art - Ad Astra Et Abyssos [single] (2024)
Как-то ни о чем.
(1) paganheart,
Feb 14 2024, 13:20:24 Askel - Askel [ep] (2022)


*Artist: Askel
*Album: Askel [ep]
*Year: 2022
*Genre: Sludge/Post-Metal
*Country: Finland
*Format: mp3@CBR320kbps
*Size: 43MB

Tracklist:
1. Plague Star 04:36
2. Cold Remains 04:19
3. Vision 03:43
4. The Final Step 06:05
******************************
Total playing time: 18:43



[more=Technical info]
Input File: 02 Cold Remains.mp3
Channels : 2
Sample Rate : 44100
Precision : 16-bit
Duration : 00:04:20.07 = 11468911 samples = 19505 CDDA sectors
File Size : 10.5M
Bit Rate : 322k
Sample Encoding: MPEG audio (layer I, II or III)
Comments :
Title=Cold Remains
Artist=Askel
Album=Askel
Tracknumber=2
Year=2022
Genre=Sludge Metal

[/more]

Register
(8) aleon, artscald, denver, Grev, HMHamster, marilin, stumpheavyrock, wreak,
Feb 11 2024, 20:16:40 August Burns Red - Twenty Year Tour Live [live] (2024)


*Artist: August Burns Red
*Album: Twenty Year Tour Live [live]
*Year: 2024
*Genre: Progressive Metalcore
*Country: United States
*Format: mp3@CBR320kbps
*Size: 208MB

Tracklist:
01. Intro
02. Fault Line (Tempe, AZ)
03. Truth of a Liar (Toronto, ON)
04. Marianas Trench (Nashville, TN)
05. Empire (Denver, CO)
06. Martyr (Dallas, TX)
07. Ancestry (Atlanta, GA)
08. Eleventh Hour (Quebec City, QC)
09. Carpe Diem (Philadelphia, PA)
10. Invisible Enemy (Worcester, MA)
11. Meddler (Anaheim, CA)
12. Your Little Suburbia is in Ruins (Salt Lake City, UT)
13. Backfire (Detroit, MI)
14. Laniakea (St. Louis, MO)
15. Provision (Portland, OR)
16. Ghosts (New York, NY)
17. Meridian (Cleveland, OH)
18. Back Burner (Richmond, VA)
19. Spirit Breaker (Seattle, WA)
20. Composure (Charlotte, NC)
21. White Washed (Montreal, QC)
******************************
Total playing time: 1:31:07

[more=Technical info]
Input File: 05. Ancestry Live in Atlanta, GA.mp3
Channels : 2
Sample Rate : 44100
Precision : 16-bit
Duration : 00:04:58.00 = 13141712 samples = 22349.9 CDDA sectors
File Size : 11.9M
Bit Rate : 320k
Sample Encoding: MPEG audio (layer I, II or III)
Comments :
Title=Ancestry (Live in Atlanta, GA)
Artist=August Burns Red
Album=Twenty Year Tour Live
Tracknumber=05
Year=2024
Genre=Metalcore

[/more]

Register
(5) artscald, Marek, respect, Wail, wreak,
Feb 10 2024, 20:24:28 Marduk - Strigzscara Warwolf Live 1993 [live] (2021)


*Artist: Marduk
*Album: Strigzscara Warwolf Live 1993 [live]
*Year: 2021
*Genre: Black Metal
*Country: Sweden
*Format: mp3@CBR320kbps
*Size: 113MB

Tracklist:
01. Intro (Live)
02. Darkness Breeds Immortality (Live)
03. A Sculpture of the Night (Live)
04. The Funeral Seemed to Be Endless (Live)
05. On Darkened Wings (Live)
06. The Black Goat (Live)
07. The Sun Turns Black as Night (Live)
08. Wolves (Live)
09. Stone Stands Its Silent Vigil (Live)
10. Dark Endless (Live)
11. Those of the Unlight (Live)
12. Still Fucking Dead (Live)
13. Burn My Coffin (Live)
******************************
Total playing time: 49:14

[more=Technical info]
Input File: 02-marduk-darkness_breeds_immortality.mp3
Channels : 2
Sample Rate : 48000
Precision : 16-bit
Duration : 00:03:28.63 = 10014480 samples ~ 15647.6 CDDA sectors
File Size : 8.35M
Bit Rate : 320k
Sample Encoding: MPEG audio (layer I, II or III)
Comments :
Title=Darkness Breeds Immortality
Artist=Marduk
Album=Strigzscara Warwolf Live 1993
Tracknumber=2
Year=2021
Genre=Black Metal
Discnumber=1

[/more]

Register
(9) AceQuorthon, artscald, Carcharoth, infozahist, mortezamarduk, Occultas, supremo, wreak, WX419,
Feb 10 2024, 19:21:55 Marduk - Totentanz 2001 [live] (2021)


*Artist: Marduk
*Album: Totentanz 2001 [live]
*Year: 2021
*Genre: Black Metal
*Country: Sweden
*Format: mp3@CBR320kbps
*Size: 106MB

Tracklist:
1. On Darkened Wings
2. Panzer Division Marduk
3. Sulphur Souls
4. Funeral Bitch
5. The Black Tormentor of Satan
6. Still Fucking Dead (Here's No Peace)
7. Jesus Christ... Sodomized
8. La grande danse macabre
9. Slay the Nazarene
******************************
Total playing time: 45:04

[more=Technical info]
Input File: 02 - Panzer Division Marduk (Live).mp3
Channels : 2
Sample Rate : 44100
Precision : 16-bit
Duration : 00:03:18.00 = 8731800 samples = 14850 CDDA sectors
File Size : 8.35M
Bit Rate : 337k
Sample Encoding: MPEG audio (layer I, II or III)
Comments :
Title=Panzer Division Marduk (Live)
Artist=Marduk
Album=Totentanz 2001 (Live)
Tracknumber=2
Year=2021
Genre=Black Metal
Discnumber=1

[/more]

Register
(14) AceQuorthon, Bzth, deamonmotherloveson, dermarsoran, infozahist, Marek, mortezamarduk, Occultas, recber, sarggeist197, supremo, wreak, wtk.412, WX419,
Jan 19 2024, 17:52:17 Krigsgrav - Leave No Path To Follow (2018)
320
Register
(1) aleon,
Jan 19 2024, 17:50:55 Krigsgrav - Waves Of Degradation (2016)
320
Register
(1) aleon,
Dec 23 2023, 07:24:10 Shedfromthebody - Amare (2023)


*Artist: Shedfromthebody
*Album: Amare
*Year: 2023
*Genre: Shoegaze/Post-Metal/Doom Metal/Ethereal Wave
*Country: Finland
*Format: mp3@CBR320kbps
*Size: 80MB

Tracklist:
1.Titania
2.Coiled (Feat. Pigeonchild)
3.Hush
4.Air
5.Kuchizuke
6.To Be Loved
7.Messiah
8.Holy Soil
******************************
Total playing time: 34:27




[more=Technical info]
Input File: 02 - Coiled.mp3
Channels : 2
Sample Rate : 44100
Precision : 16-bit
Duration : 00:05:29.00 = 14508900 samples = 24675 CDDA sectors
File Size : 13.4M
Bit Rate : 326k
Sample Encoding: MPEG audio (layer I, II or III)
Comments :
Title=Coiled
Artist=Shedfromthebody
Album=Amare
Tracknumber=2
Year=2023-12-22
Genre=Doomgaze
Discnumber=1

[/more]

Register
(21) aleon, AndreFrancis, artscald, Bannanik, chipsgott, Grev, grimmstone, HMHamster, Ice Gnoll, JantoHadez, LiarOfAngmar, metala, mirotvorets, nospeedlimit, Old Vyaine, Ostinato, VALERY, Weikai, Yorker, yuratroll, Zer0,
Dec 18 2023, 20:27:06 Dispatched - Metal (2023)
Унылое гамно от некогда крутого коллектива. 22.gif
(1) Andrew,
Dec 18 2023, 06:56:29 Architects - Ruin (2007)
320 + bonus track + skans
Register
(2) blackestdesire, kimkayoung,
Dec 13 2023, 10:28:55 Children Of Bodom - A Chapter Called Children Of Bodom (Final Show In Helsinki Ice Hall, 2019) [live] (2023)


*Artist: Children Of Bodom
*Album: A Chapter Called Children Of Bodom (Final Show In Helsinki Ice Hall, 2019) [live]
*Year: 2023
*Genre: Melodic Death Metal
*Country: Finland
*Format: mp3@CBR320kbps
*Size: 177MB

Tracklist:
1. Under The Grass Clover
2. Platitudes And Barren Words
3. In Your Face
4. Shovel Knockout
5. Bodom Beach Terror
6. Everytime I Die
7. Halo Of Blood
8. Are You Dead Yet?
9. Blooddrunk
10. Worship Chaos
11. Angels Don't Kill
12. Follow The Reaper
13. Deadnight Warrior
14. Needled 24/7
15. Hate Me
16. Hate Crew Deathroll
17. Lake Bodom
18. Downfall
******************************
Total playing time: 1:17:46

[more=Technical info]
Input File: 07. Halo Of Blood (Final Show in Helsinki Ice Hall 2019).mp3
Channels : 2
Sample Rate : 44100
Precision : 16-bit
Duration : 00:02:56.52 = 7784620 samples = 13239.1 CDDA sectors
File Size : 7.17M
Bit Rate : 325k
Sample Encoding: MPEG audio (layer I, II or III)
Comments :
Title=Halo Of Blood (Final Show in Helsinki Ice Hall 2019)
Artist=Children of Bodom
Album=A Chapter Called Children of Bodom (Final Show in Helsinki Ice Hall 2019)
Tracknumber=7/18/18
Year=2023
Genre=Rock

[/more]

Register
(24) ALEXSATHANAS, AndreFrancis, Aresson, artscald, BlackSwordMaster88, Carcharoth, cenzored, cesar, Diflock, dulak, Grev, hellraiser69, Herrant, JosephKorfalt, kolar666, Marek, Mihalik, Niknne, recber, supremo, wreak, yarrsuaa, yuratroll, Сварог Барг,
Dec 4 2023, 20:50:53 Korgonthurus - Jumalhaaska (2023)


*Artist: Korgonthurus
*Album: Jumalhaaska
*Year: 2023
*Genre: Black Metal
*Country: Finland
*Format: mp3@CBR320kbps
*Size: 127MB

Tracklist:
1. Lankeemus 13:49
2. Musta Obsidiaani 11:45
3. Marraskehrä 16:41
4. Autuas Kärsimys 13:15
******************************
Total playing time: 55:30




[more=Technical info]
Input File: 02. Musta Obsidiaani.mp3
Channels : 2
Sample Rate : 44100
Precision : 16-bit
Duration : 00:11:45.14 = 31096630 samples = 52885.4 CDDA sectors
File Size : 28.4M
Bit Rate : 322k
Sample Encoding: MPEG audio (layer I, II or III)
Comments :
Title=Musta Obsidiaani
Artist=Korgonthurus
Album=Jumalhaaska
Tracknumber=2
Year=2023
Genre=Black Metal

[/more]

Register
(56) 6black6magic6, AceQuorthon, AlexSmith, andivi, Antichrist, Aphrax, BlackSwordMaster88, Bzth, Carcharoth, Chasm, CuRSeD, DarkHorde, dermarsoran, ent404, Femto, Grev, Hell_Is_Here, Hovnoliaty, Ildjarn, judaz, kefka, kim666, Korpse, kryptor, Kurhan, Lamby90, Melusinara, MMMMM, Nebo, nemx, nsmetalhead, Old Vyaine, Pinhead666, Piriaka_Power_Station, Rikardo90, rimfrost, RUSP73, sabr, sacrut, sandr666, Satanspell, Shnapsregen, SilentNidhogg, Skog1349, Soulgrinder, stub888, supremo, thenecromancer, Tyrone, VALERY, vasiljev_sergej, Victim of fate, vovenom, Wail, wreak, yarrsuaa,
Nov 12 2023, 14:06:04 Cryptopsy - Whisper Supremacy (1998)
Отменный альбом. Жир тут то, что надо. В дискографии Cryptopsy много годноты, но "Whisper Supremacy" прям вишенка на торте.
(1) Chasm,
Oct 30 2023, 14:38:34 Thy Art Is Murder - Godlike (2023)
ЦИТАТА(Metalass @ Oct 30 2023, 16:08:56) *
Я так понял, версия с CJ McMahon-ом так и не увидела свет, погребена в анналах историю с маркировкой "с нотками трансфобии, не открывать".

Нет. Была издана.
Godlike (CJ Edition) 320.
Register

(3) 6666666, Hell_Is_Here, metaljosue,
Oct 29 2023, 13:10:32 Сэлфхарм - У​б​и​й​с​т​в​о Д​е​п​р​е​с​с​и​в​н​о​-​с​у​и​ц​и​д​а​л​ь​н​о​г​о Б​л​э​к​-​м​е​т​а​л​а (2023)
Какой-то придумленный Аматори 1488.gif шлак в общем лютый.
(1) Krosis,
Oct 27 2023, 08:22:44 Мёртвая Вера - Время Собирать Камни [ep] (2023)


*Artist: Мёртвая Вера
*Album: Время Собирать Камни [ep]
*Year: 2023
*Genre: Black/Death/Thrash Metal
*Country: Russian Federation
*Format: mp3@CBR320kbps
*Size: 41MB

Tracklist:
1. Умереть Дважды
2. Карнавал
3. Колумбайн
4. Чикатило
5. Время Собирать Камни
******************************
Total playing time: 17:35



[more=Technical info]
Input File: 02 Карнавал.mp3
Channels : 2
Sample Rate : 44100
Precision : 16-bit
Duration : 00:03:18.29 = 8744765 samples = 14872 CDDA sectors
File Size : 7.93M
Bit Rate : 320k
Sample Encoding: MPEG audio (layer I, II or III)
Comments :
Title=Карнавал
Artist=Мёртвая Вера
Album=Время Собирать Камни (EP) (2023)
Tracknumber=2
Year=2023
Genre=Death Metal

[/more]

Register
(10) Aresson, artscald, Diflock, Evrom, METALHUNTER, metaljosue, piwimetal, stumpheavyrock, Wail, wreak,
Oct 21 2023, 19:40:50 Bloodred Hourglass - How's The Heart? (2023)
Смело можно сказать, что это худшая работа финнов. Куда-то их понесло совсем не туда. Абсолютно беззубый попсовый недометалкор с полным отсутствием интересных ходов и мелодий. К мелодик дэт-металу это барахло не имеет никакого отношения. Не рекомендую.
(2) AeeooN, suseka,
Oct 20 2023, 17:52:34 Поликлиника - Твой Скрытый Враг (2023)


*Artist: Поликлиника
*Album: Твой Скрытый Враг
*Year: 2023
*Genre: Thrash Metal
*Country: Russian Federation
*Format: mp3@CBR320kbps
*Size: 107MB

Tracklist:
01. Король 5:42
02. Я Твой Враг 5:20
03. Бог Верит В Нас 5:42
04. Жертва 5:55
05. Хаос 5:49
06. Минотавр 5:21
07. Молитва 6:26
08. Броуновское движение-увертюра 0:38
09. Город Убийц 5:56
******************************
Total playing time: 46:49



[more=Technical info]
Input File: 03 Бог Верит В Нас.mp3
Channels : 2
Sample Rate : 44100
Precision : 16-bit
Duration : 00:05:42.66 = 15111174 samples = 25699.3 CDDA sectors
File Size : 13.7M
Bit Rate : 320k
Sample Encoding: MPEG audio (layer I, II or III)
Comments :
Title=Бог Верит В Нас
Artist=Поликлиника
Album=Твой Скрытый Враг
Tracknumber=03
Year=2023
Genre=Thrash Metal

[/more]

Register
(23) after21allD, akym, apostol_13, Aresson, artscald, boby9052, cesar, Evrom, gwar, heavymetalhead, infozahist, METALHUNTER, oldvarg, SAPOGi, sepultura39, stumpheavyrock, supremo, TeamatSE, VALERY, Wail, wreak, zakroiotkroev, Сварог Барг,
Oct 8 2023, 20:21:30 Weapons - Reflections Of A Troubled Mind [best of/compilation] (2013)
320
Register
(3) 747metaller, hell_armageddon, Z28517,
Oct 8 2023, 17:53:34 Tabahi - Thrash For Justice (2023)
Этот клип просто настоящий трэш! crazy.gif
https://www.youtube.com/watch?v=qlOBKtFlohs
(5) cesar, Genuine Thrashiac, insufferable, lafuma, SaintVitus,
Oct 5 2023, 18:23:10 Sühnopfer - Nous Sommes D'hier (2023)
Французы и мелодик блэк-метал вещи не совместимые и этот альбом тому подтверждение. Мелодичность напихана ради мелодичности. Никакой изюминки и запоминающихся пассажей, тупо солянка разной будры, которая не шибко вяжется с риффами и вокалом. Не смог дослушать эту какофонию, хватило четырех треков. 22.gif
(1) ZeroIISum,
Sep 21 2023, 15:06:44 Wintaar - The Last One (2023)
Суицид? Рак? Передоз?
(1) Occultas,
Sep 20 2023, 12:21:04 Architects - For Those That Wish To Exist (2021)
ЦИТАТА(Metalass @ Sep 20 2023, 16:06:47) *
All Our Gods Have Abandoned Us вместе с Lost Forever // Lost Together. Сложно представить, что они напишут нечто настолько же атмосферное.

Не напишут. В интервью как-то они говорили, что больше к тому стилю не собираются возвращаться.
(1) Bloodn Lord,
Sep 19 2023, 19:48:48 Inverter - Sonic Vandalism (2023)


*Artist: Inverter
*Album: Sonic Vandalism
*Year: 2023
*Genre: Groove Metal
*Country: United States
*Format: mp3@CBR320kbps
*Size: 79MB

Tracklist:
01. Stone Cold Shocker
02. Devil Rock
03. Monsters Robots Graffiti!
04. Bow To Zod
05. Cannon For A Hand
06. 400 Beats Per Minute (Feat. Corey Glover)
07. The New America
08. Accelerator
09. Skeletons On Fire
10. You've Been Warned
******************************
Total playing time: 33:21




[more=Technical info]
Input File: 03 - Monsters Robots Graffiti!.mp3
Channels : 2
Sample Rate : 44100
Precision : 16-bit
Duration : 00:03:12.00 = 8467200 samples = 14400 CDDA sectors
File Size : 7.89M
Bit Rate : 329k
Sample Encoding: MPEG audio (layer I, II or III)
Comments :
Title=Monsters Robots Graffiti!
Artist=Inverter
Album=Sonic Vandalism
Tracknumber=3
Year=2023-09-15
Genre=Groove Metal
Discnumber=1

[/more]

Register
(7) artscald, boby9052, bowelled, infozahist, Phlebotomized, stumpheavyrock, wreak,

5 Pages V   1 2 3 > » 
- Lo-Fi Version Support form
Copyrights and abuse reports form
Time is now: 16th April 2024 - 09:38:51