Welcome Guest ( Log In | Register )

Объявления

* gmail.com упорно продолжает считать почту с нас "unsolicited" и отбивает в том числе и письма активации, поэтому просьба использовать альтернативные почтовые ящики.
------------
* gmail.com continues reject all mail from us as "unsolicited" (activation mails too) therefore please use alternate mail servers.
История благодарностей участнику Ildjarn ::: Спасибо сказали: 3888 раз(а)
Дата поста: В теме: За сообщение: Спасибо сказали:
May 6 2024, 20:23:58 Demolish - The Unique Light (2023)
Пахнуло 90-ми. По паре треков из превью показалось сходство с Decoryah, Astral..
(1) krotovich,
Apr 27 2024, 09:50:36 Cobi's Death - Soon? (2001)


*Artist: Cobi's Death
*Album: Soon?
*Year: 2001
*Genre: Industrial Death Metal/Grindcore
*Country: Serbia
*Format: mp3@VBR205kbps
*Size: 41MB

Tracklist:
01. Victory 01:52
02. Politician 00:59
03. Line Of Existence 01:46
04. Resistance 01:52
05. Assassinated 02:16
06. Fuck Peacea 01:17
07. Sadistic Rectal Shiteaters 01:41
08. Siphilistic Pedophilic Scums 01:37
09. Jerking Under Lament 01:14
10. Fuck The Army 02:54
11. Serbian Nation 01:08
12. Totally Pulverized Rectums 02:46
13. Information 01:17
14. SF 01:35
15. Just A Lovely Love Song 01:30
16. Cobi's Death 00:56
17. Bite, Chew And Excrement 01:30
18. Giant Ugly Beast Ate That Piece Of Shit 00:21
******************************
Total playing time: 28:31

[more=Technical info]
Input File: 03_Cobis_Death--Line_Of_Existence-ViC.mp3
Channels : 2
Sample Rate : 44100
Precision : 16-bit
Duration : 00:01:45.56 = 4655196 samples = 7917 CDDA sectors
File Size : 2.58M
Bit Rate : 195k
Sample Encoding: MPEG audio (layer I, II or III)
Comments :
Title=Line Of Existence
Artist=Cobi's Death
Album=Soon ?
Tracknumber=3
Year=2001
Genre=22

[/more]

Register
(4) as71, DMIYUR, gwar, jollo,
Apr 26 2024, 20:03:04 Heartwork - The End Of... [demo] (1999)
Register
(2) hell_armageddon, spazm,
Apr 26 2024, 20:01:32 Hydrargyrum - Final Method Of Solution [demo] (1999)


*Artist: Hydrargyrum
*Album: Final Method Of Solution [demo]
*Year: 1999
*Genre: Melodic Death Metal
*Country: Czech Republic
*Format: mp3@VBR202kbps
*Size: 42MB

Tracklist:
01. Intro 00:42
02. Intruder Contagion 05:41
03. The Form Of The Serpent 06:21
04. Final Method Of Solution 04:49
05. Living In War 04:36
06. Hora Osudu (bonus) 07:23
******************************
Total playing time: 29:32

[more=Technical info]
Input File: 03_Hydrargyrum_-_The_Form_Of_The_Serpent.mp3
Channels : 2
Sample Rate : 44100
Precision : 16-bit
Duration : 00:06:20.55 = 16782299 samples = 28541.3 CDDA sectors
File Size : 9.56M
Bit Rate : 201k
Sample Encoding: MPEG audio (layer I, II or III)
Comments :
Title=The Form Of The Serpent
Artist=Hydrargyrum
Album=Final Method Of Solution
Tracknumber=3
Year=1999
Genre=22

[/more]

Register
(7) Evilded, hell_armageddon, Reverend, stumpheavyrock, thenecromancer, Wail, zhol,
Apr 26 2024, 19:56:54 Inward Path - Labyrinth (1998)
Register
(1) stumpheavyrock,
Apr 26 2024, 19:51:54 Катафалк - Восстание [demo] (2003)


*Artist: Катафалк
*Album: Восстание [demo]
*Year: 2003
*Genre: Death Metal/Grindcore
*Country: Ukraine
*Format: mp3@VBR217kbps
*Size: 35MB

Tracklist:
1. Шан ечто 00:57
2. Первородный хаос 03:25
3. Слава Триединому 00:55
4. Господь мой! 02:45
5. Сын утренней зари 01:50
6. Жертва 01:48
7. Молитва 01:42
8. Восстание 02:11
9. Р.Р.Р. 01:26
10. Sator 01:26
11. Проклятие 01:31
12. Благодарение 02:57
13. Свершение 00:07
******************************
Total playing time: 23:00

[more=Technical info]
Input File: 05_Katafalk--Syn_Utrenney_Zari-ViC.mp3
Channels : 2
Sample Rate : 44100
Precision : 16-bit
Duration : 00:01:49.04 = 4808444 samples = 8177.63 CDDA sectors
File Size : 2.97M
Bit Rate : 218k
Sample Encoding: MPEG audio (layer I, II or III)
Comments :
Title=Syn Utrenney Zari
Artist=Katafalk
Album=Vosstanie
Tracknumber=5
Year=2003
Genre=22

[/more]

Register
(5) artscald, dimmannius, spazm, Wail, wreak,
Apr 26 2024, 19:35:45 Kanli Taka - Viking's Porn Collection [demo] (2003)
Register
(3) Mucupurulence, quarantine, Wail,
Apr 26 2024, 09:00:32 Malkuth - Mutus Liber (2007)
Register
(3) kim666, VeDaath, Wail,
Apr 26 2024, 08:56:17 Satanochio - First Strike Of The Possessed [demo] (2005)
Register
(1) thenecromancer,
Apr 26 2024, 08:44:24 Ganzmord - Grimm Destroyer [ep] (2005)
Register
(2) kim666, thenecromancer,
Apr 26 2024, 08:43:11 Ganzmord - Enemy Of Humanity [demo] (2004)
Register
(4) aldolftank666, kim666, thenecromancer, Wail,
Dec 9 2023, 20:44:05 Trhä - Im Ëmat Gan L​í​eshtam Namvajno [ep] (2023)
from Web
Register
(1) Lanceatum,
Dec 9 2023, 20:42:11 Trhä - Rhejde Qhaominvac Tla Aglhaonam​ë​c [ep] (2023)
From Web
Register
(1) Lanceatum,
Oct 6 2023, 20:32:14 Verderbnis - Paria (2023)
ЦИТАТА(Nordavind @ Sep 22 2023, 15:55:16) *
Очень похоже на Ancient. Для 90х прокатило бы, сейчас нет.

А что прокатило бы? Да и до Ancient им далеко, кстати..
(1) AlexSmith,
Feb 14 2022, 14:09:35 Mystic Circle - Mystic Circle (2022)
Логотип старый вернули, судя по облоге. Лично для меня о многом говорит.
(1) Occultas,
Nov 5 2021, 19:35:17 Hellgarden - The Secret Of The Alchemist (2018)
Между прочим, чудесный блек с латиноамериканской изюминкой и броской, присущей зачастую им атмосферой. Чем-то перекликается с старым Argentum.
(2) DarkHorde, smysl,
Aug 29 2021, 19:41:14 Лютень - Полагаясь Только На Себя [compilation] (2007)


*Artist: Лютень
*Album: Полагаясь Только На Себя [compilation]
*Year: 2007
*Genre: Pagan Metal
*Country: Russian Federation
*Format: mp3@VBR144kbps
*Size: 42MB

Tracklist:
1. Зачин (Live '04) 00:26
2. Залпы орудий (Demo '05) 04:03
3. Затемнение (Влок '06) 05:52
4. Добро и гнев (Demo '06) 03:21
5. Холокост стихий (Demo проекта Gromol '05) 02:12
6. И грянул гром (Не вошедший на сплит Лютень/Рарог 03) 04:07
7. И.Т.Р. и Х. ('00) 00:09
8. Война ('05) 00:26
9. Дух бунтарства (Promo-demo '06) 03:38
10. Правда о Куликовской битве (Не вошедший на альбом "Дух Бунтарства" '04) 01:52
11. Свет падает - Тень даёт дерево ('06) 03:08
12. Полагаясь только на себя ('06) 02:32
13. Вселенский Рагнарёк ('05) 00:38
14. Смятение ('05) 01:05
15. Сквозь призму нашего мировоззрения ('06) 03:34
16. Вихорь разума собаки (Live '04) 00:32
17. Длинный прозрачный негр (Live '04) 00:34
18. Я дома ('05) 01:17
******************************
Total playing time: 39:26

[more=Technical info]
Input File: 03-zatemnenie_(vlok_06)-gw.mp3
Channels : 2
Sample Rate : 44100
Precision : 16-bit
Duration : 00:05:52.39 = 15540443 samples = 26429.3 CDDA sectors
File Size : 6.49M
Bit Rate : 147k
Sample Encoding: MPEG audio (layer I, II or III)
Comments :
Title=Zatemnenie (Vlok '06)
Artist=Luten'
Album=Polagajas' Tol'ko Na Sebja
Tracknumber=3/18
Year=2006-00-00
Genre=Black Metal

[/more]

Register
(11) dcatagua, DeepShit, dermarsoran, Moonshtook, Olethros, Svafrlami, VALERY, varlam4, Wail, wanderer73, Сварог Барг,
Aug 29 2021, 13:57:48 Light Shall Prevail - Goatcrush [ep] (2006)


*Artist: Light Shall Prevail
*Album: Goatcrush [ep]
*Year: 2006
*Genre: Black Metal
*Country: United States
*Format: mp3@VBR184kbps
*Size: 41MB

Tracklist:
1. Refusal Of Damnation 06:55
2. The Call To Repentance 06:30
3. Goatcrush 06:03
4. Revelation Has Begun 03:02
5. Symbol Of The Siege And Exile 09:08
******************************
Total playing time: 31:38

[more=Technical info]
Input File: 03-goatcrush-gw.mp3
Channels : 2
Sample Rate : 44100
Precision : 16-bit
Duration : 00:06:03.91 = 16048475 samples = 27293.3 CDDA sectors
File Size : 8.44M
Bit Rate : 186k
Sample Encoding: MPEG audio (layer I, II or III)
Comments :
Title=goatcrush
Artist=Light Shall Prevail
Album=Goatcrush
Tracknumber=3/5
Year=2006-00-00
Genre=Black Metal

[/more]

Register
(6) Buregon, kim666, Olethros, Svafrlami, varlam4, Wail,
Jul 24 2021, 15:18:44 Satanochio - First Strike Of The Possessed [demo] (2005)
Register
(2) Svafrlami, thenecromancer,
Sep 29 2020, 20:38:05 Hymir - Perish [ep] (2007)
Register
(1) stumpheavyrock,
Sep 16 2020, 18:13:10 Shelf - Frozen Senses [demo] (1998)
Register
(2) stumpheavyrock, Wail,
Sep 16 2020, 18:10:06 War Swallowed - Fantasy Flight (2002)
Register
(1) Wail,
Sep 16 2020, 18:04:14 The No-Mads - Refresh The Thrash [demo] (2000)
Register
(2) stumpheavyrock, Wail,
Sep 16 2020, 18:02:39 The End 666 - Shudder [demo] (2001)
Register
(2) stumpheavyrock, Wail,
Sep 16 2020, 17:58:49 Straight Land - Negative Feelings (2002)
Register
(1) Wail,

32 Pages V   1 2 3 > » 
- Lo-Fi Version Support form
Copyrights and abuse reports form
Time is now: 18th June 2024 - 01:25:02